#VERSION:0.83;
#TITLE:Go On Ya Way;
#SUBTITLE:;
#ARTIST:FAKE TYPE feat. 超学生;
#TITLETRANSLIT:;
#SUBTITLETRANSLIT:;
#ARTISTTRANSLIT:FAKE TYPE feat. Chogakusei;
#GENRE:;
#CREDIT:;
#MUSIC:Go On Ya Way.ogg;
#BANNER:Go On Ya Way-bn.png;
#BACKGROUND:Go On Ya Way-bg.png;
#CDTITLE:;
#SAMPLESTART:59.876;
#SAMPLELENGTH:12.800;
#SELECTABLE:YES;
#OFFSET:0.124;
#BPMS:0.000=150.000;
#STOPS:;
#BGCHANGES:0.000=Go On Ya Way-bg.png=1.000=0=0=0=StretchNoLoop====,
0.310=Go On Ya Way.avi=1.000=0=0=1=====,
99999=-nosongbg-=1.000=0=0=0 // don't automatically add -songbackground-
;
#FGCHANGES:;

//--------------- dance-single - Highflyer ----------------
#NOTEDATA:;
#STEPSTYPE:dance-single;
#DESCRIPTION:Highflyer;
#DIFFICULTY:Beginner;
#METER:3;
#RADARVALUES:0,0,0,0,0;
#NOTES:
0000
0000
0000
0000
,
0000
0000
1000
0000
,
0000
0000
0001
0000
,
0000
0000
0100
0000
,
0000
0000
0010
0000
,
0000
0000
0100
0000
,
0000
0000
0001
0000
,
0000
0000
1000
0000
,
0000
0000
0100
0000
,
0100
0000
0010
0000
,
0010
0000
0001
0000
,
1000
0000
0010
0000
,
0100
0000
0010
0000
,
1000
0000
0001
0000
,
0010
0000
0100
0000
,
0010
0000
0001
0000
,
1000
0000
0010
0000
,
0100
0000
0010
0000
,
0100
0000
0001
0000
,
1000
0000
0100
0000
,
0010
0000
0001
0000
,
1000
0000
0010
0000
,
0100
0000
0010
0010
,
0010
0000
0100
0000
,
0001
0000
1000
1000
,
1000
0000
0100
0000
,
0010
0000
0100
0000
,
1000
0000
0001
0000
,
0100
0000
0010
0000
,
0100
0000
0001
0000
,
1000
0000
0100
0000
,
0010
0000
0100
0000
,
1000
0000
0001
0000
,
0100
0000
0010
0000
,
0100
0000
0001
0000
,
1000
0000
0100
0000
,
0010
0000
1001
1001
,
1001
0000
0001
0000
,
0100
0000
0010
0000
,
0100
0000
0001
0000
,
1000
0000
0100
0000
,
0010
0000
0100
0000
,
1000
0000
0001
0000
,
0100
0000
0010
0000
,
0100
0000
0001
0000
,
1000
1000
1000
0000
,
0000
0000
0001
0000
,
0100
0000
0010
0000
,
0100
0000
0001
0000
,
0001
0000
1000
0000
,
0100
0000
0010
0000
,
0100
0000
1000
0000
,
0001
0000
0100
0000
,
0010
0000
0100
0000
,
0010
0000
1000
0000
,
0001
0000
0010
0000
,
0100
0000
1000
0000
,
0001
0002
0000
1003
,
1000
1000
0100
0000
,
0010
0000
0100
0000
,
1000
0000
0001
0000
,
0100
0000
0010
0000
,
0100
0000
0010
0000
,
1000
0000
0100
0000
,
0010
0000
0100
0000
,
1000
0000
0001
0000
,
0100
0000
0010
0000
,
0010
0000
0100
0000
,
0100
0000
0001
0000
,
0001
0000
1000
0000
,
1000
0000
0100
0000
,
0010
0000
0100
0000
,
0010
0000
0001
0000
,
0001
0000
1000
1000
,
1000
0000
0010
0000
,
0100
0000
0010
1001
,
1001
0000
0001
0000
,
1000
0000
0100
0100
,
0100
0000
0010
0000
,
0100
0000
0010
1001
,
1001
0000
0001
0000
,
0100
0000
0010
0000
,
1000
1000
1000
0000
;

//--------------- dance-single - Highflyer ----------------
#NOTEDATA:;
#STEPSTYPE:dance-single;
#DESCRIPTION:Highflyer;
#DIFFICULTY:Easy;
#METER:6;
#RADARVALUES:0,0,0,0,0;
#NOTES:
0000
0000
0000
0000
,
0000
0000
1000
0000
,
0000
0000
0010
0000
,
0000
0000
0100
0000
,
0000
0000
0001
0000
,
0000
0000
0010
0000
,
0000
0000
0100
0000
,
0000
0000
1000
1000
,
1000
0000
0001
0100
,
0010
0000
0100
1001
,
0010
1001
1000
0100
,
0010
0000
1002
0003
0000
0000
1000
0000
,
0100
0010
0100
1000
,
0001
0000
1000
0010
,
0100
0000
0001
0010
,
0100
0000
1000
0001
,
0100
0000
0010
0100
,
0001
0010
0100
0000
,
1000
0001
0100
0000
,
0010
0100
0001
0000
,
1000
0100
0010
0000
,
0100
1000
0001
0101
,
1000
1100
0001
0100
,
0010
1010
0001
0010
,
0100
1000
0001
0100
,
0010
0110
0100
0001
,
1000
0000
0100
0010
,
0100
0000
1000
0001
,
0100
0010
0100
0001
,
1000
0100
0020
0030
,
0200
0300
2000
3000
,
0002
0003
0200
0300
,
0020
0030
0200
0300
,
0002
0003
2000
3000
,
0200
0300
0020
0030
,
0200
0300
2000
3000
,
0002
0003
1001
1001
,
1001
0000
1000
0010
,
0100
0001
0010
0100
,
0010
0001
0000
1000
,
0010
0100
0002
0000
,
0103
1001
1000
0001
,
0100
0010
0100
0001
,
0010
0100
1000
0001
,
0100
0010
0100
0000
,
0001
1000
1001
0000
,
0001
1000
0010
0010
,
1000
1010
1000
0010
,
0100
0101
1000
0100
,
1000
0100
0010
0001
,
1000
0010
0100
0001
,
1000
0100
1000
0001
,
0100
0010
0100
0001
,
1000
0100
1000
0001
,
0100
0010
0100
0001
,
1000
0100
0010
0100
,
1000
0001
0100
0010
,
0100
0002
0000
1003
,
0100
0010
1001
1000
,
0010
0100
0010
1000
,
0100
0010
0000
0100
,
1000
0001
0200
0000
,
0310
1001
1000
0100
,
1000
0001
0100
0010
,
0100
0002
0000
1003
,
0010
0100
0010
0000
,
1000
0001
0011
1000
,
0010
1010
1000
0001
,
0011
1001
1000
0010
,
0100
0000
0001
0010
,
0100
0000
0010
0001
,
1000
1001
0001
0100
,
0110
1001
1000
0100
,
0001
0100
1000
0010
,
0001
0010
0100
0001
,
1000
0100
0010
0011
,
1100
0000
1000
0000
,
0001
0000
0100
0100
,
0100
0010
1000
0001
,
0010
0100
1000
1010
,
0101
0000
1000
0000
,
0100
0000
0010
0100
,
1000
0001
0200
0300
;

//--------------- dance-single - Highflyer ----------------
#NOTEDATA:;
#STEPSTYPE:dance-single;
#DESCRIPTION:Highflyer;
#DIFFICULTY:Medium;
#METER:10;
#RADARVALUES:0,0,0,0,0;
#NOTES:
0000
0000
0000
0000
,
0000
0000
1000
0010
,
0100
0000
0001
1000
0001
0000
0010
0000
,
0100
0000
1000
0001
1000
0000
0010
0000
,
0100
0000
0001
0010
0001
0000
1000
0000
,
0100
1000
0010
0100
,
0001
0000
1000
0100
1000
0000
0001
0000
,
0100
0000
0010
1000
0010
0000
0100
0000
,
0001
1000
0000
1000
0000
0010
0000
0100
,
0001
0000
1000
0000
0100
0010
0100
0000
,
0010
0100
0010
0000
0001
0000
1000
0000
,
0010
0000
0000
0100
0000
0000
0001
0000
0000
0000
1000
0000
0100
0000
0000
0000
,
1000
0000
0000
0010
0000
0000
0100
0000
0001
0000
0000
0000
1000
0000
0000
0001
,
0000
1000
0020
0230
,
0301
1000
0100
0000
0020
0000
0230
0000
,
1300
0001
0100
0000
0020
0000
0230
0000
,
0301
1000
0100
0000
1000
0000
0010
0000
,
0100
0000
0001
1000
0200
0000
0320
0000
,
0130
0000
1000
0001
0200
0000
0320
0000
,
1030
0000
0001
0010
0200
0000
2300
0000
,
3001
0000
0100
0010
1000
0000
0001
0000
,
0010
0000
0100
0000
1000
0010
0100
0000
,
0001
0000
0010
0000
0100
0000
0000
0000
1000
0000
0000
0001
0000
0000
0100
0000
,
0010
1000
1000
0000
0001
0010
0100
0000
,
1000
0000
0100
0000
0010
0000
0000
0000
0001
0000
0000
1000
0000
0000
0010
0000
,
0100
0001
0001
0000
1000
0000
0100
0000
,
0010
0000
0000
0100
0000
0000
0010
0000
0001
0000
0000
0000
1000
0000
0000
0000
,
0010
0000
0000
0100
0000
0000
0001
0000
0000
0000
1000
0000
0100
0000
0000
0000
,
0010
0000
0000
0100
0000
0000
0000
0000
1000
0000
0000
0000
0001
0000
0000
0000
,
0100
0010
0010
0000
1000
0000
0100
0010
,
0001
0000
1000
0000
0010
0000
0100
0001
,
1000
0000
0010
0100
,
0001
0000
1000
0000
0100
0000
0010
0100
,
1000
0000
0001
0100
,
0010
0000
0100
0000
0001
0000
1000
0100
,
0010
0000
0100
1000
,
0001
0100
0101
1010
,
0101
0000
1000
0001
,
1000
0100
0000
1000
0000
0001
0000
0100
,
0010
0000
0100
0001
0000
0000
1000
0100
,
0000
1000
0001
0000
0100
0000
0000
0010
,
0100
1001
1000
0100
,
1000
0001
0000
0100
0000
0010
0000
0100
,
0001
0000
1000
0100
0000
0000
0100
0010
,
0001
1000
0010
0100
,
0001
0000
0000
1000
0000
0000
0001
0000
0010
0000
0000
0000
0100
0000
0000
0000
,
0000
1000
1000
0000
0001
0000
1000
0000
,
0010
0100
0001
0000
1000
0000
0100
0000
,
1000
0000
0001
0000
0100
0000
0000
0000
0010
0000
0000
0010
0000
0000
1000
0000
,
0010
0000
0100
0000
0001
0010
0001
0000
,
1000
0010
1000
0000
0001
0100
0001
0000
,
1000
0100
1000
0000
0001
0000
0100
0000
,
0010
0100
0001
1000
,
0100
0000
0010
0000
0001
0010
0001
0000
,
1000
0010
1000
0000
0001
0100
0001
0000
,
1000
0100
1000
0000
0001
0000
0100
0000
,
0010
0100
0001
1000
,
0100
1000
0020
0000
0000
0000
0130
0000
,
0001
1000
1001
1000
,
0010
0100
0000
0001
0000
1000
0000
0100
,
0010
0000
0100
1000
0000
0000
0001
0100
,
0010
0100
0002
0000
,
0013
1001
1000
0010
,
0100
0001
0000
1000
0000
0100
0000
1000
,
0001
0000
0100
0020
0000
0200
0000
0000
,
0000
0330
0001
1000
,
0100
0000
0010
0001
0100
0000
0010
0000
,
0010
1001
1000
1000
,
0110
1001
0001
0100
,
0010
0000
0000
0100
0000
0000
0000
0000
0001
0000
0000
0000
1000
0000
0000
0000
,
0100
0000
0000
0010
0000
0000
0000
0000
0100
0000
0000
0000
1000
0000
0000
0000
,
0001
0100
0010
0100
,
0001
0000
0000
0000
0000
0000
1000
0000
0001
0100
0000
0000
,
0010
0000
0100
0001
0000
0000
1000
0000
0000
0100
0000
0000
,
0010
0100
1000
0001
,
0100
0000
0000
0010
0000
0000
0100
0000
0000
0001
0000
1000
,
0100
0000
0000
0000
0000
0000
0020
0000
0000
0030
0000
0100
,
2000
0000
0000
3000
0000
0001
0100
0000
0000
0100
0000
0000
,
0100
0010
0100
0001
,
1000
0000
0000
0100
0000
0000
0010
0000
0000
0001
0000
0100
,
0010
0000
0000
0000
0000
0000
0100
0000
0000
0001
0000
1000
,
0100
0000
0000
1000
0000
0001
0100
0000
0000
0010
0000
0100
,
0001
0000
0000
1000
0000
0100
0020
0000
0000
0030
0000
0000
;

//--------------- dance-single - Highflyer ----------------
#NOTEDATA:;
#STEPSTYPE:dance-single;
#DESCRIPTION:Highflyer;
#DIFFICULTY:Hard;
#METER:12;
#RADARVALUES:0,0,0,0,0;
#NOTES:
0000
0000
0000
0000
,
0000
0000
2000
0010
,
3100
0010
0100
1000
0002
0000
1000
0000
,
0103
0010
0100
0001
2000
0000
0100
0000
,
3010
0100
0001
1000
0200
0000
0010
0010
,
0310
0001
1000
0010
0200
0000
0001
0000
,
0310
0100
0001
1000
0200
0000
0010
0000
,
1300
0001
0010
0100
2000
0000
0010
0000
,
3001
0100
0000
0010
0000
1000
0001
1000
,
0001
0000
0020
0000
0130
1000
1001
0000
,
0001
0100
0110
0000
0100
0001
1000
0100
,
0010
0000
0000
0100
0000
0000
2000
0000
3000
0000
0001
0000
0100
0000
0010
0000
,
0100
0000
0000
0001
0000
0000
1000
0000
0100
0010
0000
0001
1000
0000
0010
0100
,
0000
0001
1000
0100
0020
0000
0032
0000
,
1003
0010
0100
0001
0020
0000
0230
0000
,
1300
0001
0100
0010
0200
0000
0302
0000
,
1003
0100
1000
0001
0200
0000
0310
0010
,
1000
1000
0001
0001
0020
0000
0230
0000
,
1300
0001
0100
0010
0200
0000
0302
0000
,
1003
0100
1000
0001
0200
0000
0320
0000
,
0130
0001
1000
0001
0010
0100
1000
0010
,
0100
0010
1000
0100
0010
0001
1000
1000
,
0010
0000
0100
0000
0001
0000
0001
0000
0010
0000
0000
0100
0000
0000
0010
0000
,
0001
0100
1000
0000
0100
0010
1000
0001
,
0010
0000
0001
0000
0100
0000
0010
0000
1000
0000
0001
0010
0000
0100
1000
0000
,
0100
0010
1000
0000
0010
0001
1000
0010
,
0100
0000
0000
0100
0000
0000
0100
0000
0010
0000
1000
0000
0001
0000
0010
0000
,
0100
0000
0000
0100
0000
0000
1001
0000
0000
0000
1000
0000
0010
0000
0100
0000
,
0010
0000
0000
1000
0000
0000
0001
0000
0010
0000
0001
0000
1000
0000
0000
0100
,
0000
0000
0010
0000
0001
0000
0000
0000
1000
0000
0000
0010
0000
0000
0100
0000
,
0001
0000
0000
1000
0000
0000
0100
0000
0010
0000
0000
0100
0000
0000
1000
0000
,
0001
0000
1000
0010
,
0100
0000
0000
0001
0000
0000
1000
0000
0100
0000
0000
0010
0000
0000
0100
0000
,
1000
0000
0000
0000
0000
0000
0000
0000
0001
0000
0000
1000
0000
0000
0010
0000
,
0000
0100
0000
0000
0010
0000
1000
0000
0001
0000
0000
0010
0000
0000
0100
0000
,
1000
0000
0001
0000
1000
0010
0100
0100
,
0001
1000
0100
0010
1001
0000
1001
0000
,
1001
0000
2000
3020
,
1030
0010
0100
0001
0000
1000
0000
0001
,
0010
0100
1000
0001
0000
0000
0100
0010
,
0000
1000
0100
0010
0002
0000
0103
0010
,
1000
1001
0002
0023
,
0031
0010
0001
1000
0000
0100
0010
0100
,
1000
0001
0100
0010
0000
0000
0100
0001
,
1000
0100
0010
0100
,
1000
0000
0000
0001
0000
0000
0100
0000
0010
0000
0000
0000
0000
0000
0000
0000
,
0000
0100
0100
0000
0001
1000
0100
0010
,
0100
0000
1000
0000
0010
0100
0000
0000
0001
0000
1000
0000
0001
0000
0001
0000
,
0100
0000
0100
0000
0010
1000
0000
0000
0001
0000
0000
1000
0100
0000
0010
0000
,
0001
0000
0100
0000
0010
0000
0000
0000
0100
0000
0001
0000
1000
0000
0000
0100
,
0000
0000
0010
0000
0100
0000
0000
1000
0000
0000
0001
0000
0100
0000
0000
0010
,
0000
0000
0100
0000
0001
0000
0000
1000
0100
0000
0010
0000
0100
0000
0000
1000
,
0000
0000
0001
0000
0100
0000
0000
0010
0000
0000
0100
0000
0001
0000
0000
0010
,
0000
0000
0001
0000
2000
0000
0000
0000
3100
0000
0010
0000
0100
0000
0000
1000
,
0000
0001
0100
0000
0010
0000
0000
0100
0000
0001
1000
0000
0100
0000
0000
0010
,
0000
0100
1000
0000
0001
0000
0000
1000
0000
0010
0100
0000
0010
0000
0000
1000
,
0000
0000
0001
0000
0010
0000
0100
1000
0000
0000
0001
0000
0100
0000
0000
0010
,
0000
0100
0001
1000
0002
0000
0000
0000
0000
0000
0000
0000
1003
0000
0000
0000
,
0001
1000
0002
0023
,
0031
0010
0100
1000
0000
0001
0000
1000
,
0010
0100
0001
1000
0000
0000
0100
0010
,
0010
0001
0100
0010
2000
0000
3100
0010
,
0001
1001
2000
3020
,
1030
0010
1000
0001
0000
0100
0000
0001
,
1000
0010
1000
0200
0000
0301
0100
1000
,
0001
0000
0000
0100
0010
0000
1000
0000
0010
0000
0000
0000
0100
0000
0001
0000
,
0000
0000
0000
1000
0000
0000
0100
0000
0000
0010
0000
0000
0001
0000
0000
0000
0000
0000
1000
0000
0000
0000
0001
0000
,
0100
0000
0001
0100
0000
0000
0010
0000
1000
0100
0000
1000
,
0100
0000
0000
1001
0000
0000
2000
3000
0000
0010
0000
0100
,
0001
0000
1000
0000
0000
0000
2002
3003
0000
0001
0000
1000
,
0200
0000
0020
0000
0300
0000
0130
0000
0000
1000
0000
0010
,
1000
0000
0010
2000
0000
0000
3001
0000
0010
0001
0000
0010
,
0002
0000
0003
1001
0000
0000
1000
0000
0010
1000
0000
0001
,
0010
0000
0100
1000
0000
0001
1000
0100
1000
0100
1000
0100
,
2000
0000
0000
3001
0000
0100
0010
0000
0000
1000
0000
0001
,
0010
0000
0010
0100
0000
0100
2000
0000
0000
3001
0000
0100
,
0020
0000
0000
0000
0000
0000
2030
0000
0000
0000
0000
3001
,
0020
0000
0000
0000
0000
0130
1000
0000
0000
1000
0000
0000
,
1000
0000
0000
0001
0000
0100
0010
0000
0000
1000
0000
0100
,
0010
0000
0010
0001
0000
0001
2000
0000
0000
3010
0000
0100
,
0002
0000
0000
0000
0000
0000
1003
0000
0000
0100
0000
0010
,
0001
0000
0000
1000
0000
0010
0100
0000
0000
0001
0000
1000
,
0200
0000
0000
0310
0000
0100
2000
0000
0000
3000
0000
0000
;

//--------------- dance-single - Highflyer ----------------
#NOTEDATA:;
#STEPSTYPE:dance-single;
#DESCRIPTION:Highflyer;
#DIFFICULTY:Challenge;
#METER:15;
#RADARVALUES:0,0,0,0,0;
#NOTES:
0000
0000
0000
0000
,
0000
0000
0000
0000
1000
0010
0100
0001
,
1000
0000
0001
0010
0001
0000
1000
0000
0020
0000
0100
0000
1030
0000
0001
0000
,
0010
0000
0100
1000
0100
0000
1000
0000
0002
0000
0010
0000
1003
0000
0010
0000
,
0100
0000
0001
1000
0001
0000
0100
0000
0010
0000
1000
0100
1000
0000
0001
0000
,
1000
0000
0100
0000
0001
0000
0100
0000
1000
0000
0001
0100
0010
1000
0000
0100
,
0010
0000
0001
1000
0001
0000
1000
0010
0100
0001
0000
1000
0000
0000
0100
0000
,
0010
0001
1000
0010
1000
0000
0001
0000
1000
0000
0010
0000
0001
0000
0010
0000
,
0100
0000
0001
0000
0010
0000
0100
0000
1000
0001
1000
0001
0010
0000
0100
0000
,
1000
0000
0001
0100
0010
0000
1000
0000
0001
0100
0001
0100
0020
0000
0000
0000
,
1030
0001
1000
0001
0020
0000
0000
0000
0130
0000
1000
0001
0100
0000
0001
1000
,
0100
0000
0010
0001
0000
0000
1001
0000
0000
0000
1000
0000
0010
0000
1000
0000
,
0001
0000
1000
0100
0000
0000
0010
0000
0001
0100
0000
0010
1000
0000
0001
0010
,
0000
0000
0100
1000
0100
0000
1000
0000
0002
0000
0000
0000
0203
0000
0000
0000
,
0310
0000
1000
0001
0010
0000
0100
0000
2000
0000
0000
0000
3002
0000
0000
0000
,
0103
0000
0010
1000
0001
0000
0010
0000
0002
0000
0000
0000
2003
0000
0000
0000
,
3010
0000
0100
0001
1000
0000
0100
0000
0010
0000
0001
0000
0100
0000
0001
0000
,
0010
0100
1000
0010
0200
0000
0302
0000
,
1003
0000
0100
0010
0100
0000
1000
0000
0002
0000
0000
0000
0203
0000
0000
0000
,
0310
0000
1000
0010
0100
0000
0001
0000
0200
0000
0000
0000
0320
0000
0000
0000
,
0130
0000
0001
1000
0100
0000
0010
0000
0001
0000
1000
0000
1000
0000
0010
0000
,
0100
0001
0010
0100
1000
0010
0100
0100
,
0001
1000
0001
1000
0100
0000
0010
0000
0100
0000
1000
0010
0000
1000
0001
0000
,
0010
0000
0110
0000
1001
0000
0000
0000
0001
0000
1000
0100
0010
0000
0001
0000
,
1000
0000
0010
0000
0001
0000
0010
0000
1000
0000
0001
0010
0000
0001
1000
0000
,
0010
0000
0110
0000
1001
0000
0000
0000
1000
0000
0100
0000
0010
0100
0000
0010
,
0100
0000
0000
1000
0000
0000
0010
0000
0100
0000
0001
0000
1000
0100
1000
0100
,
0010
0000
0001
1000
0100
0000
0002
0000
0103
0000
0010
0001
0010
0001
1000
0001
,
0100
0000
0010
1000
0000
0000
0001
1000
0100
0000
0010
0100
1000
0000
0001
0100
,
0000
0000
0020
0000
0130
0000
0001
0000
1000
0000
0000
0100
0000
0000
0010
0001
,
1000
0000
0000
0010
0000
0000
0100
0001
1000
0000
0000
0100
0000
0000
0010
0001
,
1000
0000
0010
1000
0001
0000
0010
0000
0100
0000
0000
0000
1000
0000
0010
0000
,
0200
0000
0000
0301
0000
0000
1000
0100
1000
0000
0000
0001
0000
0000
0100
0010
,
0100
0000
0000
0000
0000
0000
0001
0000
0000
0000
0000
0000
1000
0000
0000
0000
0000
0000
0100
0000
0000
0000
0000
0000
0010
0000
0000
0000
0000
0000
0000
0000
0000
0100
0000
0000
0000
0000
0000
0000
0000
0000
1000
0000
0000
0000
0001
0000
,
0000
0100
0000
0000
0000
0000
0100
0000
0000
0010
0000
1000
0000
0001
0000
0000
0000
1000
0000
0000
0000
1000
0000
0001
,
0000
0100
0000
0010
0000
0000
1000
0000
0000
0001
0000
0000
0010
0000
0000
0100
0000
0000
1000
0000
0000
0001
0000
0000
,
0100
0010
1000
0001
1001
0000
1001
0000
,
1001
0000
2000
3002
,
1003
0100
0001
0100
0000
0010
0000
0001
,
0100
1000
0100
0001
0000
0000
1000
0200
,
0000
0000
0310
0000
0100
0000
1000
0000
0010
0000
0100
0001
0100
0000
0010
0000
,
1000
0100
1001
0000
2000
0000
3002
0000
,
1003
0010
0001
0010
0000
0100
0001
1000
,
0001
0010
1000
0010
0000
0000
0100
1000
,
0001
0000
0100
0000
0010
1000
0001
0010
,
0100
0000
1000
0001
1000
0000
0010
0000
0100
0000
0000
0000
0001
0000
0000
0000
,
1000
0000
0100
0000
0010
0000
0000
0000
0001
0100
0001
0000
1000
0100
1000
0000
,
0001
0000
1000
0010
1000
0001
0000
0000
1000
0100
1000
0001
0100
0010
0100
0001
,
1000
0010
1000
0001
0010
0100
0000
0000
0020
0000
0000
0031
1000
0000
0010
0000
,
0100
0000
0001
0000
0010
0000
0000
0000
0100
1000
0001
1000
0100
0000
0010
0001
,
0000
1000
0100
0010
0100
0000
1000
0001
0000
1000
0010
0100
0001
0000
1000
0100
,
0000
1000
0001
0100
0010
0000
0100
0001
0000
1000
0100
0000
0020
0000
0000
0130
,
0000
1000
0000
0001
0100
0000
0010
0100
0000
0001
1000
0100
0010
0000
0100
1000
,
0000
0001
0100
0001
2000
0000
3010
0000
0100
0001
0100
0010
1000
0000
0001
0010
,
0000
0100
1000
0001
1000
0000
0010
0100
0000
0001
1000
0100
0010
0000
0001
1000
,
0000
0001
1000
0010
0100
0000
0000
0001
0000
1000
0100
1000
0001
0000
0100
0010
,
1000
0000
0000
0000
0000
0000
0001
0000
0000
0000
0000
0000
0010
0000
0000
0000
0000
0000
0100
0000
0000
1000
0000
0000
0001
0000
0000
0000
1000
0000
0010
0000
0000
0000
0100
0000
0001
0000
0000
0000
1000
0000
0100
0000
0000
0000
0010
0000
,
0001
0000
1000
0001
0000
0100
0010
0000
1000
0100
0000
0010
0000
0000
0000
0000
0000
0000
0001
0000
0000
0000
0000
0000
,
1000
0001
2000
3002
,
1003
0010
0001
0010
0000
0100
0000
0001
,
0010
1000
0010
0001
0000
0000
1000
0100
,
0010
0000
0001
0000
0100
0000
1000
0000
0100
0000
0001
1000
0001
0000
0010
0000
,
0100
0010
1001
0000
2000
0000
3002
0000
,
1003
0100
0001
0100
0000
0010
0000
0001
,
1000
0010
0100
0002
0000
0000
0013
0100
,
1000
0000
0001
0100
0001
0000
0010
0000
1000
0000
0010
0000
0001
0000
0100
0000
,
0010
0000
0000
1000
0000
0000
0001
0000
0000
1000
0000
0000
0100
0000
0000
0000
0000
0000
0010
0000
0000
0000
0000
0000
1000
0000
0000
0000
0000
0000
0000
0000
0000
0000
0000
0000
0010
0000
0000
0000
0000
0000
0000
0000
0001
0000
0000
0000
,
1000
0000
0001
0100
0000
0000
0010
0000
1000
0100
0000
1000
,
0001
0000
0000
2002
0000
3003
1000
0000
0000
0001
0000
0100
,
0010
0000
2000
0000
3000
0000
1010
0000
0000
0010
0000
0100
,
0001
0000
1000
0100
0010
0001
1000
0000
0000
0010
0000
0100
,
0001
0000
1000
0100
0000
0000
0010
0000
0100
1000
0000
0001
,
0100
0000
0000
1001
0000
0000
1000
0001
1000
0010
1000
0100
,
0001
0100
0010
0001
0100
1000
0100
0100
0010
0100
0100
0001
,
2000
0000
0000
3100
0000
0010
0001
0000
0000
1000
0000
0010
,
0100
0000
0001
1000
0000
0100
0010
0000
0000
0001
0000
0100
,
1000
0000
0100
0001
1000
0100
0020
0000
0000
0000
0000
0130
,
2000
0000
0000
0000
0000
3001
0100
0000
0000
0100
0000
0000
,
0100
0000
0000
0010
0000
1000
0001
0000
0000
0010
0000
0100
,
1000
0000
0001
0100
0000
0010
1000
0000
0000
0001
0000
0010
,
1000
0000
0010
0001
1000
0001
0100
0000
0000
0010
0000
1000
,
0001
0000
0000
0010
0000
0100
1000
0000
0001
0100
0000
0010
,
1000
0000
0001
0010
0000
0100
2000
0000
0000
3000
0000
0000
;
