#TITLE:Ghosttown;
#SUBTITLE:;
#ARTIST:Madonna;
#TITLETRANSLIT:;
#SUBTITLETRANSLIT:;
#ARTISTTRANSLIT:;
#GENRE:;
#CREDIT:;
#MUSIC:Ghosttown.ogg;
#BANNER:Ghosttown-ban.png;
#BACKGROUND:Ghosttown-bg.png;
#CDTITLE:;
#SAMPLESTART:104.709;
#SAMPLELENGTH:20.506;
#SELECTABLE:YES;
#OFFSET:0.050;
#BPMS:0.000=79.000;
#STOPS:55.000=1.519
,96.000=2.260
,129.000=2.246
;
#JACKET:Ghosttown-jacket.png;
#ORIGIN:;
#PREVIEWVID:;
#JACKET:;
#CDIMAGE:;
#DISCIMAGE:;
#BGCHANGES:;
#FGCHANGES:;

//--------------- dance-single - ----------------
#NOTES:
     dance-single:
     :
     Beginner:
     2:
     0,0,0,0,0:
0000
0000
0000
0000
,
0000
0000
0000
0000
,
1000
0000
0000
0000
,
0001
0000
0000
0000
,
0100
0000
0000
0000
,
0010
0000
1000
0000
,
0001
0000
0000
0000
,
0100
0000
0000
0000
,
0010
0000
0000
0000
,
1000
0000
0001
0000
,
0000
1000
0000
0001
,
0000
0100
0000
0010
,
0000
1000
0000
0001
,
0000
1000
0000
0001
,
0000
0100
0000
0100
,
0000
0001
0000
1000
,
0000
0001
0000
0100
,
0000
0010
0000
1000
,
2000
3000
0002
0003
,
0200
0300
0010
0000
,
2000
3000
0002
0003
,
0200
0300
0010
0000
,
1000
0000
0001
0000
,
0100
0000
0010
0000
,
0000
0000
1000
0000
,
0001
0000
0100
0000
,
0010
0000
1000
0000
,
0100
0000
0010
0000
,
0001
0000
0100
0000
,
0010
0000
1000
0000
,
0001
0000
0100
0000
,
0001
0000
1000
0000
,
0001
0001
0000
1000
,
0000
1000
0000
0010
,
0000
0100
0000
0001
,
0000
1000
0000
0001
,
0000
0100
0200
0300
,
0020
0030
2000
3000
,
0010
0000
2000
3000
,
0002
0003
0200
0300
,
0010
0000
0000
1000
,
0000
0100
0000
0010
,
0000
0001
0000
1000
,
0000
0100
0000
0010
,
0000
0001
0000
0000
;

//--------------- dance-single - ----------------
#NOTES:
     dance-single:
     :
     Easy:
     4:
     0,0,0,0,0:
0000
0000
0000
0000
,
0000
0000
0000
0000
,
1000
0001
0200
0310
,
1000
0100
0020
0031
,
0100
0010
2000
3001
,
0100
0001
1000
0100
,
0010
0001
0200
0310
,
1000
0001
2000
3010
,
0100
0001
2000
3001
,
0100
0010
1000
0001
,
0100
0010
0100
0010
,
1000
0001
0200
0310
,
0100
0001
1000
0001
,
0010
0100
1000
0001
,
1000
1001
0001
0100
,
0010
1001
1000
0001
,
1000
0110
0010
0100
,
0001
1001
1000
0001
,
2000
3001
0200
0310
,
2000
3001
0100
0010
,
0200
0301
0020
0130
,
2000
3001
0100
0010
,
1000
1001
0001
0100
,
0010
1000
0100
0010
,
0001
0000
1000
0000
,
0001
0000
0100
0000
,
0010
1000
0001
1000
,
0010
1000
0001
0100
,
0010
0100
0001
1000
,
0100
0010
0100
1000
,
0001
1000
0010
0100
,
0100
0001
0010
0100
,
1000
0001
1000
1001
,
0001
0100
0010
1000
,
0100
0010
0001
0101
,
0100
0010
1000
0001
,
1000
0001
0200
0310
,
2000
3001
0200
0310
,
1000
1010
0020
0130
,
0002
1003
0020
0130
,
0001
1000
0001
0001
,
1000
0100
0010
0010
,
0001
0100
0010
0100
,
0010
0100
0001
1000
,
0010
1000
0000
0000
;

//--------------- dance-single - ----------------
#NOTES:
     dance-single:
     :
     Medium:
     8:
     0,0,0,0,0:
0000
0000
0000
0000
,
0000
0000
0000
0000
,
0001
1000
0001
0000
0200
0000
0310
0000
,
1000
0100
1000
0000
0002
0000
0103
0000
,
0010
1000
0001
0000
0200
0000
0310
0000
,
1000
0001
0100
0000
0010
1000
0001
0000
,
0100
0000
0010
1000
0002
0000
1003
0000
,
0010
0100
0001
0000
0200
0000
0310
0000
,
1000
0001
0010
0000
0200
0000
1300
0000
,
0001
0100
0001
0000
1000
0100
1000
0000
,
0001
0100
0100
0100
0001
0100
0100
0100
,
0010
1010
2000
3001
,
1000
0010
0010
0010
1000
0010
0010
0010
,
1000
1001
0001
1000
,
0001
0100
0001
0100
0001
0100
0100
0000
,
0010
1000
0010
1000
0100
1000
0001
0000
,
0100
0010
0100
0001
0100
0010
0100
0000
,
0001
1000
0010
1000
0001
1000
0010
1000
,
0002
0000
1003
0100
2000
0000
3010
0000
,
0200
0000
0301
1000
0001
0000
0100
0100
,
0020
0000
1030
0010
0200
0000
0301
0000
,
2000
0000
3010
1000
0001
0000
0010
0100
,
1000
0010
0010
1000
0001
0001
0100
0000
,
0010
1000
0001
0100
0100
0010
1000
0001
,
0000
2000
3001
0100
,
0010
0010
2000
0000
3001
0000
0100
0000
,
0010
1000
0002
0000
0103
0010
0100
0000
,
0110
0000
0010
0000
1000
0001
1000
0000
,
1010
0000
0010
0000
0100
0001
1000
0000
,
0001
0100
0020
0000
1030
0001
0200
0000
,
0310
1000
0001
0000
0010
0100
1000
0000
,
1001
0000
0001
0000
1000
0010
0200
0000
,
0301
1000
0001
0000
1000
0010
0010
1000
,
0010
0010
0100
0000
0001
0100
0100
0001
,
0010
0010
0001
0000
1000
0010
0010
1000
,
0100
0100
1000
0000
0001
0100
0100
0001
,
0010
0100
1000
0001
2000
0000
3010
1000
,
0002
0000
1003
0000
0002
0000
0103
0100
,
0001
0000
1000
0001
0200
0000
0310
1000
,
0002
0000
1003
0000
0002
0000
0103
0010
,
1000
0100
0010
0001
1000
0010
0010
1000
,
0010
0010
0100
0000
0001
0100
0001
0001
,
0100
0010
1000
0000
0001
1000
0010
1000
,
0001
1000
0100
0000
1000
0001
0010
0001
,
1000
0010
1000
0001
0100
0000
0000
0000
;

//--------------- dance-single - ----------------
#NOTES:
     dance-single:
     :
     Hard:
     10:
     0,0,0,0,0:
0000
0000
0000
0000
,
0000
0000
0000
0000
,
1000
0001
1000
0001
1000
0000
0010
0000
0200
0000
0000
0000
0301
0000
0000
0000
,
1000
0010
1000
0000
0001
0000
0000
0000
0100
0000
0000
0000
0110
0000
0000
0000
,
0010
1000
0010
0000
0100
0000
0001
0000
1000
0000
0000
0000
1010
0000
0000
0000
,
0010
1000
0010
1000
0010
0000
0000
0000
0100
0001
0100
0001
0100
0000
0000
0000
,
0001
0010
0000
0100
1000
0000
0001
0000
0100
0000
0000
0000
0110
0000
0000
0000
,
0010
1000
0010
0000
1000
0000
0001
1000
0001
0000
0000
0000
0101
0000
0000
0000
,
0100
0010
0100
0000
0001
0000
1000
0000
0001
0000
0000
0000
1001
0000
0000
0000
,
1000
0100
1000
0100
1000
0000
0000
0000
0001
0010
0001
0010
0001
0000
0000
0000
,
1000
0001
0101
0100
0010
1000
1010
0010
,
1000
0100
0000
1000
0100
0000
1000
0200
0000
0000
0000
0000
0320
0000
0000
0000
,
0031
0100
0101
0001
1000
0010
1010
1000
,
0001
1000
0000
0010
1000
0000
0001
1000
0002
0000
0000
0000
1003
0000
0000
0000
,
0001
0010
0001
0000
0100
0000
0001
0010
0001
0000
0100
0000
0100
0000
0000
0000
,
0010
1000
0010
0000
0100
0000
0010
0000
1000
0000
0001
0000
1000
0100
1000
0000
,
0001
0010
0001
0000
0100
0000
0001
0010
0001
0000
1000
0000
1000
0000
0000
0000
,
0001
0010
0001
0000
0100
0000
0010
1000
0010
0000
1000
0000
0001
0000
0100
0000
,
0020
0000
1030
0001
0200
0000
0310
0000
,
2000
0000
0000
0000
3001
0000
0100
0000
0010
0000
1000
0000
0001
0100
0001
0000
,
2000
0000
3010
0001
0020
0000
0130
0000
,
0002
0000
0000
0000
1003
0000
0010
0000
0100
0000
0001
0000
1000
0010
1000
0000
,
0100
0010
0100
0000
1000
0000
0100
0010
0100
0000
1000
0000
0100
0000
0000
0000
,
0010
0001
0010
0000
0001
0000
0100
0010
0100
0000
0001
0000
1000
0000
0010
0000
,
1000
0000
0000
0001
0000
0000
1001
0000
0000
1000
0100
1000
,
0100
0000
0000
0010
0000
0000
0002
0000
0000
0000
0000
0000
1003
0000
0000
0000
0000
0000
0010
0000
0100
0000
0001
0000
,
0100
0001
0020
0000
0130
1000
0002
0000
,
2003
0000
3002
0000
1003
0010
0200
0000
,
0302
0000
0000
0000
0000
0000
2003
0000
0000
0000
0000
0000
3001
0000
0000
1000
0000
0000
0001
0000
0010
0000
0100
0000
,
1000
0000
0000
0001
0000
0000
0200
0000
0000
0000
0000
0000
0310
0000
0000
1000
0000
0000
0001
0000
0100
0000
0001
0000
,
1000
0001
0200
0000
0310
1000
0002
0000
,
2003
0000
3001
0100
0010
1000
0002
0000
,
1003
0000
0010
0000
0100
0000
0000
0000
0001
0010
0001
0000
0100
0000
0001
0010
,
0001
0000
1000
0000
0010
0000
0000
0000
1000
0100
1000
0000
0001
0000
1000
0100
,
1000
0000
0001
0000
0100
0000
0010
0000
1000
0001
1000
0000
0010
0000
1000
0100
,
0010
0000
0001
0000
0010
0000
0000
0000
0100
1000
0100
0000
0010
0000
0001
1000
,
0001
0000
1000
0000
0001
0010
0100
0000
2000
0000
0000
0000
3001
0000
0100
0000
,
2000
0000
3100
0000
0020
0000
0130
0001
,
1000
0000
0010
0000
0100
0001
0100
0000
0002
0000
0000
0000
0013
0000
0100
0000
,
0020
0000
0031
0000
2000
0000
3001
0100
,
0010
0000
1000
0000
0001
0010
0100
0000
1000
0010
0100
0000
0010
0000
1000
0010
,
0100
0000
0010
0000
0100
0000
0000
0000
0001
0010
0001
0000
0100
0000
0010
0100
,
0001
0000
0100
0000
0010
0000
1000
0000
0001
0010
0100
0000
0010
0000
0001
0010
,
0100
0000
0010
0000
0001
0000
0000
0000
1000
0001
0010
0000
0100
0000
1000
0001
,
0010
0001
0010
0001
1001
0000
0000
0000
;

//--------------- dance-single - SJ JA XO [MODS] ----------------
#NOTES:
     dance-single:
     SJ JA XO [MODS]:
     Challenge:
     12:
     0.438641,0.45954,0.220304,0.206535,0.454376,446,414,32,30,0,0,0,0,0,0.438641,0.45954,0.220304,0.206535,0.454376,446,414,32,30,0,0,0,0,0:
0000
0000
0000
0000
,
0000
0000
0000
0000
,
1000
0100
0010
0001
1000
0000
0001
0000
0200
0000
0300
0000
0110
0000
0000
0000
,
0010
1000
0010
0000
1000
0000
0001
0100
0020
0000
0000
0000
1030
0000
0000
0000
,
0001
0100
0001
0000
1000
0000
0001
0200
0010
0000
0000
0000
0301
0000
0000
0000
,
1000
0100
0010
0001
1000
0010
0000
0000
1000
0100
0010
0001
1000
0010
0000
0000
,
1000
0100
0000
0010
0001
0000
1000
0010
0200
0000
0000
0000
0301
0000
0000
0000
,
1000
0001
1000
0000
1001
0000
0001
0100
0020
0000
0000
0000
1030
0000
0000
0000
,
0001
0010
0100
0000
1100
0000
1000
0001
2000
0000
0000
3010
1000
0000
0000
0000
,
0001
0010
0001
0100
0010
1000
0000
0000
0001
0010
0100
0010
0001
1000
0000
0000
,
0001
0001
0101
0100
0010
1000
1001
0001
,
1000
0010
0000
1000
0001
0000
1000
0010
0200
0000
0300
0000
0101
0000
0000
0000
,
0001
1000
1010
0010
0100
0001
1001
1000
,
0001
0100
0000
0001
0010
0000
0001
0100
0020
0000
0000
0000
1030
0000
0000
0000
,
0001
0100
0010
0000
1010
0000
1000
0001
0100
0001
0010
0100
1100
0000
0000
0000
,
1000
0001
0100
0000
0110
0010
1000
0001
0100
0000
0001
1000
1001
0001
0001
0000
,
1000
0010
0100
0000
0101
0000
0001
0010
0100
0000
1000
0001
0101
0000
0000
0000
,
0100
0010
1000
0000
1100
0000
0010
0001
1000
0000
0001
1000
1001
0001
0100
0010
,
2000
0000
0000
0000
3001
0000
0100
0000
2000
0000
3000
0100
0001
0000
0100
0000
,
0002
0000
0000
0000
0000
0000
0000
0000
0000
0000
0000
0000
1003
0000
0000
0000
0000
0000
0001
0000
0000
0000
0000
0000
0100
0000
0000
0000
0010
0000
0000
0000
1000
0000
0000
0000
1001
0000
0000
0001
0000
0000
0001
0000
0000
0000
0000
0000
,
2000
0000
0000
0000
3001
0000
0100
0000
0020
0000
1030
0001
0100
0000
0000
0000
,
0002
0000
0000
0000
0000
0000
1000
0000
0000
0000
0000
0000
1003
0000
0000
0000
0000
0000
0001
0000
0000
0000
0000
0000
0100
0000
0000
0000
0010
0000
0000
0000
1000
0000
0000
0000
1001
0000
0000
0001
0000
0000
0001
0000
0000
0000
0000
0000
,
1000
0100
0010
0000
0011
0000
0001
0100
0010
0000
1000
0001
1001
0000
0000
0000
,
1000
0010
0100
0000
0101
0000
0001
0010
0100
0000
0100
0010
0001
0100
0010
0000
,
1000
0000
0000
0001
0000
0000
1001
0000
0000
1000
0001
0100
,
0010
0000
0000
0000
0000
0000
1000
0000
0000
0000
0000
0000
0002
0000
0000
0000
0000
0000
0000
0000
0000
0000
0000
0000
1003
0000
0000
0000
0000
0000
0001
0000
0000
0100
0000
0000
0010
0000
0000
0000
1000
0000
0000
0000
0010
0000
0000
0000
,
0200
0000
0001
0000
0301
0000
0000
0000
1000
0010
0100
0000
0002
0000
0000
0000
,
2003
0000
3000
0000
1001
0000
0000
0000
0001
0100
0010
0000
2000
0000
0000
0000
,
3001
0000
0000
0100
0000
0000
0020
0000
0000
0000
0000
0000
1030
0000
0000
0001
0000
0000
0100
0000
0010
0000
0100
0000
,
0002
0000
0000
1000
0000
0000
0023
0000
0000
0000
0000
0000
0130
0000
0000
0101
0000
0000
0001
0000
1000
0000
0010
0000
,
0100
0000
0001
0000
1000
0000
0000
0000
0001
0100
0010
0000
2000
0000
0000
0000
,
3020
0000
1000
0000
0130
0000
0000
0000
0001
0100
0001
0000
2000
0000
0000
0000
,
3002
0000
0100
0000
1003
0000
0000
0000
0001
0100
0001
0100
0001
0000
1000
0100
,
0001
0100
1000
0001
0200
0000
0000
0000
0301
0010
0001
1000
0001
0010
0100
1000
,
0001
0000
0100
0010
0100
0010
0010
0000
1000
0001
1000
0100
0010
0000
0001
0100
,
1000
0100
0001
0100
0002
0000
0000
0003
1000
0100
0010
0000
0011
0000
0001
0100
,
0010
0000
1000
0001
1000
0010
0010
0100
0001
0010
0100
1000
0001
0000
1000
0000
,
0001
0100
0001
0010
0001
0000
0100
0000
0010
1000
0100
1000
0001
0000
0100
0000
,
0010
0000
0000
0000
1000
0000
0000
0000
0010
0000
0000
0000
1010
0000
0000
1000
0000
0000
1000
0000
0000
0000
0000
0000
0001
0000
0000
0100
0000
0000
1000
0000
0000
0100
0000
0000
0001
0000
0000
0000
0000
0000
1000
0000
0000
0000
0000
0000
,
0001
0010
1000
0010
0001
0000
1000
0000
0001
0100
0010
0100
0001
0000
1000
0000
,
0001
0000
0000
0000
0100
0000
0000
0000
0010
0000
0000
0000
1010
0000
0000
1000
0000
0000
1000
0000
0000
0000
0000
0000
0001
0000
0000
0100
0000
0000
1000
0000
0000
0100
0000
0000
0001
0000
0000
0000
0000
0000
1000
0000
0000
0010
0000
0000
,
0001
0010
1000
0001
0200
0000
0000
0000
0310
1000
0001
0000
0101
0000
0100
0010
,
1000
0000
0001
1000
1001
0001
0001
0000
1000
0100
0010
0000
0011
0000
0001
0100
,
0010
0000
1000
0001
0200
0000
0000
0000
0310
1000
0001
0000
1001
0000
1000
0010
,
0100
0000
0001
0100
0010
1000
0001
0000
1001
0000
0000
0000
0000
0000
0000
0000
;

//--------------- dance-double - [MODS] ----------------
#NOTES:
     dance-double:
     [MODS]:
     Challenge:
     11:
     0,0,0,0,0:
00000000
00000000
00000000
00000000
,
00000000
00000000
00000000
00000000
,
00010000
00001000
00010000
00001000
00020000
00000000
00000100
00000000
00030100
00000000
00000000
00000000
00001100
00000000
00000000
00000000
,
00001000
00000001
00001000
00000000
00000001
00000000
00000100
00000010
00000200
00000000
00000000
00000000
00000310
00000000
00000000
00000000
,
00001000
00000100
00001000
00000000
00000010
00000000
00001000
00000100
00010000
00000000
00000000
00000000
00011000
00000000
00000000
00000000
,
00001000
00100000
00001000
00100000
00001000
00010000
00000000
00000000
00001000
00100000
00010000
00100000
00001000
00100000
00000000
00000000
,
00010000
10000000
00000000
10000000
00010000
00000000
00010000
01000000
00200000
00000000
00000000
00000000
10300000
00000000
00000000
00000000
,
00010000
01000000
00100000
00000000
10000000
00000000
00010000
01000000
00020000
00000000
00000000
00000000
00130000
00000000
00000000
00000000
,
00001000
00010000
00001000
00000000
00010000
00000000
00000100
00001000
00000020
00000000
00000000
00000000
00001030
00000000
00000000
00000000
,
00000001
00001000
00000001
00001000
00000010
00000100
00000000
00000000
00000001
00000010
00000100
00001000
00000001
00001000
00000000
00000000
,
00000001
00001000
00001001
00000001
00001000
00000010
00001010
00001000
,
00000010
00001000
00000000
00000100
00001000
00000000
00000010
00001000
00000200
00000000
00000000
00000000
00010300
00000000
00000000
00000000
,
00001000
00100000
00110000
00010000
01000000
00100000
10100000
10000000
,
00010000
01000000
00000000
00001000
00010000
00000000
00001000
00100000
00020000
00000000
00000000
00000000
00031000
00000000
00000000
00000000
,
00010000
00000100
00001000
00000000
00001100
00000000
00000100
00001000
00000010
00000000
00001000
00000000
00001001
00000000
00000000
00000000
,
00000001
00000100
00001000
00000000
00000100
00000001
00000100
00000010
00001000
00000000
00000001
00000000
00001000
00000010
00000010
00000000
,
00001000
00000100
00001000
00000000
00001100
00000000
00000100
00000010
00000001
00000000
00000100
00000000
00000101
00000000
00000000
00000000
,
00000001
00000010
00000001
00000000
00000101
00000000
00000100
00000010
00001000
00000000
00000100
00010000
00010000
00001000
00100000
00010000
,
00200000
00000000
00310000
10000000
00020000
00000000
01030000
00000000
,
00002000
00000000
00000000
00000000
00013000
00000000
00001000
00000000
00010000
00000000
00000100
00001000
00000100
00010000
00001000
00000000
,
00020000
00000000
00030100
00001000
00000002
00000000
00000103
00000000
,
00000020
00000000
00000000
00000000
00001030
00000000
00000100
00000000
00010000
00000000
00001000
00100000
00010000
00100000
00001000
00000000
,
01000000
00010000
10000000
00000000
10010000
00000000
00010000
01000000
00100000
00000000
01000000
00000000
01010000
00000000
00000000
00000000
,
00010000
00100000
00001000
00000000
00011000
00000000
00010000
00000100
00001000
00000000
00000010
00001000
00000001
00000000
00000000
00000000
,
00001000
00000000
00000000
00000100
00000000
00000000
00001100
00000000
00000000
00000100
00001000
00000100
,
00002000
00000000
00000000
00000010
00000000
00000000
00003010
00000000
00000000
00000000
00000000
00000000
00010010
00000000
00000000
00000000
00000000
00000000
00010000
00000000
00001000
00000000
00010000
00000000
,
00002000
00000000
01000000
00000000
01003000
00000000
00000000
00000000
00100000
10000000
00100000
00000000
20000000
00000000
00000000
00000000
,
30010000
00000000
00000000
00000000
02000000
00000000
00000000
00000000
03010000
00100000
00001000
00000000
00020000
00000000
00000000
00000000
,
00031000
00000000
00000000
00010000
00000000
00000000
00001000
00000000
00000000
00000000
00000000
00000000
00011000
00000000
00000000
00010000
00000000
00000000
00000100
00000000
00001000
00000000
00000100
00000000
,
00000010
00000000
00000000
00000100
00000000
00000000
00000200
00000000
00000000
00000000
00000000
00000000
00010300
00000000
00000000
00001000
00000000
00000000
00100000
00000000
00001000
00000000
00010000
00000000
,
00001000
00000000
00100000
00000000
00010000
00000000
00000000
00000000
01000000
00100000
01000000
00000000
00100000
00000000
00000000
00000000
,
10200000
00000000
00000000
00000000
10300000
00000000
00000000
00000000
00010000
01000000
00010000
00000000
01000000
00000000
00000000
00000000
,
01010000
00000000
00010000
00000000
00100000
00000000
00000000
00000000
00000010
00000100
00000010
00000000
00000110
00000000
00000100
00000001
,
00000100
00000000
00000001
00000000
00000011
00000000
00000000
00000000
00000010
00000001
00000100
00000000
00000010
00001000
00000010
00001000
,
00000010
00000000
00001000
00000000
00000100
00010000
00000010
00000000
00010000
00001000
00010000
00000000
00011000
00000000
00001000
01000000
,
00100000
00000000
01000000
00000000
01100000
00000000
00000000
00000000
00100000
10000000
00100000
00000000
10100000
00000000
10000000
01000000
,
00100000
00000000
00010000
01000000
00100000
10000000
00010000
00000000
02000000
00000000
00000000
00000000
03001000
00000000
00010000
00000000
,
00000200
00000000
00010300
00000000
00000020
00000000
00000130
00000010
,
00001000
00000000
00000100
00001000
00000100
00001000
00000010
00000000
00000200
00000000
00000000
00000000
00000310
00000000
00001000
00000000
,
00000200
00000000
00010300
00000000
00002000
00000000
00013000
00001000
,
00100000
00000000
00010000
00000000
01000000
00100000
01000000
00000000
00010000
10000000
00100000
00000000
01100000
00000000
01000000
00001000
,
00010000
00000000
00001000
00000000
00011000
00000000
00000000
00000000
00010000
00000100
00001000
00000000
00001100
00000000
00000100
00001000
,
00000001
00000000
00000100
00000010
00001000
00000001
00000010
00000000
00000100
00010000
00001000
00000000
00011000
00000000
00010000
10000000
,
00100000
00000000
01000000
00000000
01010000
00000000
00000000
00000000
01000000
00001000
00010000
00000000
00011000
00000000
00010000
00000100
,
00001000
00000000
00000010
00000000
00010000
00001000
00100000
00000000
00200000
00000000
00000000
00000000
00300000
00000000
00000000
00000000
;
