#VERSION:0.83;
#TITLE:Ghost;
#SUBTITLE:;
#ARTIST:Mystery Skulls;
#TITLETRANSLIT:;
#SUBTITLETRANSLIT:;
#ARTISTTRANSLIT:;
#GENRE:;
#CREDIT:LuckJury;
#MUSIC:Ghost.ogg;
#BANNER:Ghost-banner.png;
#BACKGROUND:;
#CDTITLE:;
#SAMPLESTART:54.000;
#SAMPLELENGTH:9.875;
#SELECTABLE:YES;
#OFFSET:0.000;
#BPMS:0.000=120.000;
#STOPS:;
#BGCHANGES:0.00=Ghost-bg.mp4=1.000=0=0=0=StretchNoLoop====;
#FGCHANGES:;

//--------------- dance-single - LuckJury ----------------
#NOTEDATA:;
#STEPSTYPE:dance-single;
#DESCRIPTION:LuckJury;
#DIFFICULTY:Hard;
#METER:11;
#RADARVALUES:0,0,0,0,0;
#NOTES:
0000
0000
0000
0000
,
0000
0000
0000
0000
,
0000
0000
0000
0000
,
0000
0000
0000
0000
,
1000
0100
1000
0010
0100
0001
0100
0010
,
1000
0001
1000
0100
0010
0001
0010
0100
,
1000
0010
1000
0001
0010
0100
0010
0001
,
0100
0010
0100
0001
1000
0100
0010
0001
,
1000
0020
0130
0002
0013
0200
0310
0002
,
1003
0020
1030
0200
0310
0200
1300
0002
,
0103
0020
0130
0002
1003
0200
1300
0020
,
0130
0002
0103
0020
1030
0002
1003
0200
,
0310
0002
1003
0020
1030
0200
0310
0002
,
0013
0200
1300
0020
1030
0002
1003
0020
,
0130
0002
0103
0020
1030
0002
0013
0200
,
1300
0002
1003
0010
0110
0001
0100
0040
,
0000
0000
1030
0100
0010
0100
1000
0001
,
0000
1010
0000
1000
0001
1000
0010
0400
,
0000
0000
0310
0000
1000
0000
0001
1000
,
0010
0100
0000
1001
0000
0001
1000
0400
,
0000
0000
0310
0000
0001
0000
1000
0010
,
0000
1000
0004
0000
4003
0000
3001
0001
,
1000
0100
1000
0010
0100
0001
0100
0010
,
1000
0100
0010
0001
0010
0100
1000
0010
0100
0010
1000
0001
1001
0000
0000
0000
,
1010
1010
0100
0001
0010
0000
1100
1000
,
0001
0000
0000
0000
0220
0000
0000
0000
1330
0100
0010
0001
2002
0000
0000
0000
,
3003
0000
0000
1000
0100
0000
0010
0000
0100
0000
0000
0000
2000
0000
0000
3000
,
0100
0000
0010
0000
0001
0000
1000
0000
0001
0000
0010
0000
0100
0000
0M10
0010
,
1000
0100
0001
0100
1000
0000
0001
0100
,
1000
0000
0100
0000
0002
0000
0000
0000
0103
0010
1000
0001
0200
0000
0000
0000
,
0301
0010
1000
0010
0001
0100
0010
1000
,
0001
0000
1000
0000
0100
0000
0M10
0010
0100
0000
0000
0000
2002
0000
3003
0000
,
4000
0000
3100
0000
1000
0010
0000
0100
,
0001
1000
0001
0010
0100
0010
0001
0400
,
0000
0000
0310
0000
0100
0000
0000
0000
0001
0000
0000
1000
0000
0000
0010
0000
,
0100
0001
0100
0000
0000
0010
1000
0400
,
0000
0000
0000
0000
1300
0000
0000
0000
0001
0000
0000
0010
0000
0000
0100
0000
,
0000
0000
0010
0000
0001
0000
0100
0000
0010
0000
0000
2000
0000
0000
0000
0000
,
3000
0000
0000
0000
0000
0000
0020
0030
2000
3000
0002
0003
0200
0300
0020
0030
,
0000
1000
0001
0100
0010
1000
0100
0040
,
0000
0000
0130
0000
1000
0001
0000
2200
,
3300
0001
0100
0010
1000
0001
1000
0040
,
0000
0000
0130
0000
0001
0000
0010
0100
,
1000
0100
0010
0001
0100
0010
0100
0004
,
0000
0000
0000
0000
1003
0000
0000
0000
0100
0000
0000
1000
0000
0000
0001
0000
,
0000
0000
0100
0000
0010
0000
1000
0000
0001
0000
0000
0200
0000
0000
0000
0000
,
0301
1000
0100
0010
0100
1000
0001
0010
,
0100
1000
0001
0100
0010
0100
0001
0010
0100
1000
0001
0100
0101
0000
0000
0000
,
0101
0101
0010
1000
0100
0000
0011
0001
,
1000
0000
0000
0000
2020
0000
0000
0000
3130
0001
0010
0100
2200
0000
0000
0000
,
3300
0000
0000
1000
0001
0000
0100
0000
0010
0000
0000
0000
2000
0000
0000
0000
,
3000
0000
0100
0000
0010
0000
0100
0000
1000
0000
0001
0000
0100
0000
0M10
0010
,
0001
0100
1000
0100
0001
0000
1000
0010
,
0001
0010
2000
0000
3M10
0M10
0002
0000
,
1003
0100
0001
0100
1000
0000
0001
0100
,
0010
1000
0001
0100
0001
0010
0100
1000
,
0002
0000
0003
2000
0000
3000
0000
0000
0101
0000
0000
0000
0100
0000
0010
0000
,
1000
0000
0001
0000
0020
0000
0000
0000
0130
0010
0001
0100
0020
0000
0000
0000
,
1030
0001
0100
0010
0100
0000
0002
0000
,
0003
0000
1000
0000
0001
0000
1000
0000
0100
0000
0010
0000
0001
0000
001M
0010
,
1000
0010
0001
0010
1000
0000
0001
0100
,
1000
0000
0100
0000
0002
0000
0000
0000
1003
0100
0010
0100
2000
0000
0000
0000
,
3001
0100
1000
0100
0001
0000
1000
0100
,
0010
0000
0100
0000
4000
0000
0000
0000
3010
0000
0000
0000
0220
0000
0000
0330
;
