#TITLE:Ghost Dancers Slay Together;
#SUBTITLE:;
#ARTIST:Perturbator;
#TITLETRANSLIT:;
#SUBTITLETRANSLIT:;
#ARTISTTRANSLIT:;
#GENRE:;
#CREDIT:Jenro;
#MUSIC:Ghost Dancers Slay Together.ogg;
#BANNER:Ghost Dancers Slay Together-bn.png;
#BACKGROUND:Ghost Dancers Slay Together-bg.png;
#CDTITLE:;
#SAMPLESTART:74.630;
#SAMPLELENGTH:29.048;
#SELECTABLE:YES;
#OFFSET:-0.344;
#BPMS:0.000=63.000
,12.000=252.000
,40.000=126.000
,58.000=252.000
,89.000=126.000
,105.000=252.000
,233.000=126.000
,237.000=252.000
,365.000=84.000
,367.000=252.000
,368.000=126.000
;
#STOPS:88.000=0.238
,367.000=0.238
;
#BGCHANGES:-0.344=Ghost Dancers Slay Together.mp4=1.000=0=0=1,
99999.000=-nosongbg-=1.000=0=0=0=StretchNoLoop====
;
#FGCHANGES:;

//--------------- dance-single - Jenro (2022) ----------------
#NOTES:
     dance-single:
     Jenro (2022):
     Beginner:
     6:
     0,0,0,0,0:
0000
0000
0000
0000
,
0000
0000
0000
0000
,
0000
0000
0000
0000
,
0001
0000
1000
0000
,
0001
0000
1000
0000
,
0001
0000
0100
0000
,
0001
0000
0100
0000
,
1000
0000
0001
0000
,
1000
0000
0001
0000
,
1000
0000
0100
0000
,
0010
0001
0100
0010
,
0100
1000
0100
0001
,
0100
0000
1000
1000
0010
0000
0100
0000
,
0010
0001
0010
1000
,
0010
0000
0001
0001
0001
0000
0000
0000
,
0100
0000
1000
0000
,
0001
0000
0010
0000
,
0100
0000
1000
0000
,
1001
0000
0001
0000
,
1000
0000
0100
0000
,
1000
0000
0010
0000
,
0100
0000
0001
0000
,
1001
0100
0100
1000
,
0010
0001
0100
1000
,
0001
1000
0100
0000
0100
0000
0001
0000
,
0010
1000
0100
0001
,
1000
0001
0001
0000
0000
0000
0000
0000
,
0100
0000
0000
1000
,
0000
0000
0010
0000
,
0000
1000
0000
0100
,
0000
0001
0000
0000
,
0100
0000
0000
1000
,
0000
0000
0010
0000
,
0000
0001
0000
0100
,
0000
0001
0000
0000
,
0010
0000
0000
1000
,
0000
0000
0100
0000
,
0000
1000
0000
0100
,
0000
0001
0000
0000
,
0010
0000
0000
0100
,
0000
0000
1000
0000
,
0000
0100
0000
1000
,
0000
1000
0000
0000
,
0100
0000
0000
0001
,
0000
0000
0010
0000
,
0000
1001
0000
0110
,
0000
1010
0000
0000
,
0100
0000
0000
0001
,
0000
0000
0010
0000
,
0000
1001
0000
0110
,
0000
1100
0000
0000
,
0010
0000
0000
0001
,
0000
0000
0100
0000
,
0000
1001
0000
0110
,
0000
1010
0000
0000
,
0010
0000
0000
0100
,
0000
0000
0001
0000
,
0000
0100
0000
0001
,
0000
0000
0001
1000
0001
0000
0010
0010
,
0010
1001
0000
0000
,
1100
0000
0000
0101
,
0000
0000
0110
0000
,
0000
2000
0000
3001
,
0000
1000
0000
0100
,
0000
1000
0000
0100
,
0000
0001
0000
0100
,
0000
0001
0000
0100
,
0000
1001
0000
0000
,
0011
0000
0000
1010
,
0000
0000
0110
0000
,
0000
0000
0000
2001
,
0000
3001
0000
0010
,
0000
0001
0000
0010
,
0000
1000
0000
0010
,
0000
1000
0000
0010
,
0000
1001
0000
0000
,
0101
0000
0000
1100
,
0000
0000
0110
0000
,
0000
0001
0000
1000
,
0000
0001
0100
0001
,
0000
0001
0000
0100
,
0000
1000
0100
1000
,
0000
1000
0000
0100
,
0000
1001
0000
0000
,
1010
0000
0000
0011
,
0000
0000
0110
0000
,
0000
0000
0000
1001
,
0000
1000
0010
1000
,
0000
0010
1000
0010
,
0000
0001
0010
0001
,
0000
0010
0001
0010
,
0000
0000
0000
1001
,
0220
0000
0000
0330
;

//--------------- dance-single - Jenro (2022) ----------------
#NOTES:
     dance-single:
     Jenro (2022):
     Easy:
     10:
     0,0,0,0,0:
0000
0000
0000
0000
,
0000
0000
0000
0000
,
0000
0000
0000
0000
,
0102
0000
0023
0000
,
0230
0000
2300
3000
,
1010
0000
1010
0000
,
2020
0000
3030
0000
0102
0000
0000
0003
,
2100
0000
3020
0000
,
0230
0000
0302
0003
,
0011
0000
0011
0000
,
0011
0000
1100
0000
0100
0100
0020
0000
,
0032
0000
0203
0000
0310
0010
0020
0000
,
1030
0000
1001
0000
0100
0100
0020
0000
,
2030
0000
3200
0000
0310
0010
0020
0000
,
0031
1001
1000
0100
,
0010
0001
1000
0100
,
0010
0001
1000
0100
,
0010
0001
1000
0100
,
1001
0000
0001
0100
,
0010
1000
0001
0100
,
0010
1000
0001
0100
,
0010
1000
0001
0100
,
1001
0000
2100
0000
3100
0000
0010
0001
,
0010
0200
1300
0010
,
0010
1000
0020
0000
0230
0000
0302
0000
,
2003
3200
0320
0032
,
1003
1000
1000
0000
0010
0000
1000
0000
,
0200
0000
0000
0310
,
0001
0010
0200
0000
,
0000
1300
0001
0100
,
0010
1000
0100
0010
,
0002
0000
0000
0013
,
0100
1000
0200
0000
,
0300
1100
0000
0101
,
0000
0001
0010
0001
,
0200
0000
0000
0310
,
1000
0010
0200
0000
,
0000
0301
1000
0100
,
0010
0001
0100
0010
,
2000
0000
0000
3010
,
0100
0001
0200
0000
,
0300
0101
0000
1100
,
0000
0010
0001
1000
,
0010
0100
0010
0010
,
1000
0001
0010
0100
,
0010
0100
1000
0100
,
1000
0010
1000
0001
,
0010
0100
0010
0010
,
0001
1000
0010
0100
,
0010
0100
0001
0100
,
0001
1000
0100
1000
,
0001
0100
0010
0001
,
0100
0001
1000
0100
,
0010
0001
1000
0001
,
1000
0001
0100
0001
,
1000
0100
0010
1000
,
0100
1000
0001
0100
,
0010
1000
0001
1000
,
0001
0000
0100
0100
0100
0000
0110
0000
,
1001
1100
0000
0000
,
0101
0000
0000
0110
,
0000
0000
1001
0000
,
0000
0101
0000
1100
,
0000
0001
0001
0001
,
0100
0001
0001
0001
,
0100
0001
0001
0001
,
0001
0001
0001
0001
,
0001
0101
0000
0000
,
1100
0000
0000
0110
,
0000
0000
1001
0000
,
0000
1100
0000
0101
,
0000
1000
1000
1000
,
0100
1000
1000
1000
,
0100
1000
1000
1000
,
1000
1000
1000
1000
,
1000
1010
0000
0000
,
0011
0000
0000
0110
,
0000
0000
1001
0000
,
0000
0011
0000
1010
,
0000
0001
0010
0001
,
0010
0001
1000
0001
,
0010
0001
1000
0001
,
0010
0001
1000
0001
,
0010
0011
0000
0000
,
1010
0000
0000
0110
,
0000
0000
1001
0000
,
0000
1010
0000
0011
,
0000
1000
0010
1000
,
0010
1000
0001
1000
,
0010
1000
0001
1000
,
0010
1000
0001
1000
,
1010
0000
0000
0110
,
2002
0000
0000
3003
;

//--------------- dance-single - Jenro (2022) ----------------
#NOTES:
     dance-single:
     Jenro (2022):
     Medium:
     12:
     0,0,0,0,0:
0000
0000
0000
0000
,
0000
0000
0000
0000
,
0000
0000
0000
0000
,
0100
0010
0000
0000
0001
0000
0100
0000
,
0010
0100
0010
0100
,
0010
1000
0010
1000
,
0001
0000
0100
0000
0001
0100
0000
0000
,
0010
0100
0000
0000
1000
0000
0010
0000
,
0100
0010
0100
0010
,
0100
0001
0100
0001
,
1000
0000
0000
0000
0010
0000
0000
0000
0100
0000
0001
0000
1000
0010
0000
0000
,
1000
0000
0000
0100
0000
0000
0001
0000
1000
0000
0000
0000
1000
0010
0000
0000
,
1100
0000
0000
0000
0010
0000
0010
0000
0010
0000
1000
0000
0001
0100
0000
0000
,
0001
0000
0000
0010
0000
0000
1000
0000
0001
0000
0000
0000
0001
0100
0000
0000
,
0011
0000
0100
0100
0100
0000
0010
0000
,
1000
0001
0100
0010
,
1000
0001
0100
0010
,
1000
0001
0100
1000
,
0200
0300
0010
0100
,
0001
1000
0010
0100
,
0001
1000
0010
0100
,
0001
1000
0010
0001
,
0010
0000
0000
0000
0110
0000
0000
0000
1000
0001
0000
0000
0100
0000
0000
1000
,
0000
0000
0100
0000
1000
0000
0000
0000
0010
1000
0000
0000
1100
0000
0000
0000
,
0010
0000
0001
0000
0200
0000
0000
0000
0301
1000
0000
0000
0010
0000
0000
0001
,
0000
0000
0010
0000
0001
0000
0000
0000
0100
0001
0000
0000
0011
0000
0000
0000
,
0001
1000
0001
0000
0100
0000
1000
0000
,
0001
0100
1000
1000
,
0100
0001
1000
0100
,
0001
1000
0010
0100
,
0001
0001
0010
0100
,
1000
0100
1000
0100
,
0010
0001
0010
0001
,
0010
0100
0100
1000
,
1000
1000
0010
0001
,
1000
0010
0001
0001
,
0010
1000
0001
0010
,
1000
0001
0100
0010
,
1000
1000
0100
0010
,
0001
0010
0001
0010
,
0100
1000
0100
1000
,
0100
0010
0010
0001
,
1001
0000
1000
0000
0100
1000
0100
0000
,
0010
0001
0010
0001
,
0100
0001
0100
0000
0010
0000
1000
0000
,
0010
0000
1000
0000
0010
0000
0100
0001
,
1000
0100
0010
0000
0001
0000
0010
0000
,
0001
0000
1000
0000
0100
1000
0100
0000
,
0010
0001
0010
0100
,
0010
0000
0001
0000
1000
0001
1000
0000
,
0100
0000
0001
0000
0100
0001
0100
0000
,
0010
1000
0010
1000
,
0100
1000
0100
0000
0010
0000
0001
0000
,
0010
0000
0001
0000
0010
0000
0100
1000
,
0001
0100
0010
0000
1000
0000
0010
0000
,
1000
0000
0001
0000
0100
0001
0100
0000
,
0010
1000
0010
0100
,
0010
0000
1000
0000
0001
1000
0001
0000
,
0110
0000
0000
0000
1000
0001
1000
0001
1000
0000
0000
0001
1000
0000
0010
0100
,
0010
1000
0100
0010
,
0100
2000
3001
0001
,
0010
0100
0010
0002
,
1003
0020
0130
0220
,
0330
1000
0001
0100
,
0010
1000
0001
0100
,
0010
1000
0100
0010
,
0001
0000
1000
0000
0100
0000
0010
0001
,
0010
0001
0010
0000
0100
0000
1001
0000
,
0200
0310
1000
0002
,
0100
1003
0020
1030
,
0100
0010
0001
0100
,
0010
0000
1000
0010
0100
0000
0001
1000
,
0001
0000
1000
0100
0010
0000
0001
1000
,
0001
0000
0001
0010
0100
0000
1000
0001
,
1000
0000
0001
0100
0010
0000
1000
0001
,
1000
0001
0010
0100
,
0010
0002
1003
1000
,
0100
0010
0100
2000
,
3001
0200
0310
0220
,
0330
0001
1000
0010
,
0100
0001
1000
0010
,
0100
0001
0010
0100
,
1000
0000
0001
0000
0010
0000
0100
1000
,
0100
1000
0100
0000
0010
0000
1001
0000
,
0020
0130
0001
2000
,
0010
3001
0200
0301
,
0010
0100
1000
0010
,
0100
0000
0001
0100
0010
0000
1000
0001
,
1000
0000
0001
0010
0100
0000
1000
0001
,
1000
0000
1000
0100
0010
0000
0001
1000
,
0001
0000
1000
0010
0100
0000
0001
1000
,
0002
0000
0000
1003
,
0220
0330
0000
0000
;

//--------------- dance-single - Jenro (2022) ----------------
#NOTES:
     dance-single:
     Jenro (2022):
     Hard:
     16:
     0,0,0,0,0:
0000
0000
0000
0000
,
0000
0000
0000
0000
,
0000
0000
0000
0000
,
0001
1000
0000
0000
0001
0010
0100
0010
,
0100
1000
0001
0010
0100
1000
0000
0000
,
1000
0010
0100
0010
0100
0010
0100
0001
,
1000
0010
0100
0001
1000
0001
0000
0000
,
0001
1000
0000
0000
0001
0100
0010
0100
,
0010
1000
0001
0100
0010
1000
0000
0000
,
1000
0100
0010
0100
0010
0100
0010
0001
,
0020
0000
0000
0000
0130
0000
0000
0000
1100
0000
0001
0000
0100
0010
0000
0000
,
1000
0000
0000
0001
0000
0000
0100
0000
0000
0000
0000
0000
1000
0100
0000
0000
,
0010
0000
0000
0010
0001
0010
0001
0010
0001
0000
1000
0000
0010
0100
0000
0000
,
0001
0000
0000
1000
0000
0000
0010
0000
0000
0000
0000
0000
0001
0010
0000
0000
,
0100
0000
0000
1000
0100
1000
0100
1000
0100
0000
0010
0000
0001
0000
1000
0000
,
0010
1000
0001
0100
0001
0010
0100
1000
,
0010
1000
0001
0010
0001
0100
0010
1000
,
0100
1000
0001
0100
0010
0100
0001
1000
,
0002
0000
0003
0000
0001
1000
0001
1000
,
0100
1000
0001
0010
0001
0100
0010
1000
,
0100
1000
0001
0100
0001
0010
0100
1000
,
0010
1000
0001
0010
0100
0010
0001
1000
,
0001
0000
0000
0000
1001
0000
0000
0000
1010
0000
0000
0000
0100
0000
0000
0001
,
0000
0000
0010
0000
0100
0000
0000
0000
1000
0001
0000
0000
0100
0000
0000
0010
,
1000
0001
1000
0001
1001
0000
0000
0000
1100
0000
0000
0000
0010
0000
0000
0001
,
0000
0000
0100
0000
0010
0000
0000
0000
1000
0001
0000
0000
0010
0000
0000
0100
,
1000
0001
1000
0001
1000
0000
0000
0000
0010
0000
1000
0000
0010
0000
0000
0000
,
0100
0001
0100
0001
,
0010
0001
0010
0000
0100
0000
1000
0000
,
0100
0000
1000
0000
0100
0000
0010
0001
,
1000
0010
0100
0000
0001
0000
0100
0000
,
0001
0000
1000
0000
0010
1000
0010
0000
,
0100
0001
0100
0010
,
0100
0000
0001
0000
1000
0001
1000
0000
,
0010
0000
0001
0000
0010
0001
0010
0000
,
0100
1000
0100
1000
,
0010
1000
0010
0000
0100
0000
0001
0000
,
0100
0000
0001
0000
0100
0000
0010
1000
,
0001
0010
0100
0000
1000
0000
0100
0000
,
1000
0000
0001
0000
0010
0001
0010
0000
,
0100
1000
0100
0010
,
0100
0000
1000
0000
0001
1000
0001
0000
,
0110
0000
0001
1000
0001
0100
0001
0000
,
1000
0001
1000
0100
1000
0000
0010
0100
,
0010
0100
0001
0000
0010
0100
0010
0100
,
1000
0000
0010
0100
0001
1000
0010
0100
,
0001
1000
0001
0100
0001
0100
0001
0000
,
1000
0100
1000
0100
1000
0000
0010
0100
,
0010
0100
0001
0000
0010
0100
0010
0100
,
1000
0000
0001
1000
0001
1000
0010
0100
,
0010
0100
0001
1000
0001
0010
0001
0000
,
1000
0001
1000
0010
1000
0000
0100
0010
,
0100
0010
0001
0000
0100
0010
0100
0010
,
1000
0000
0100
0010
0001
1000
0100
0010
,
0001
1000
0001
0010
0001
0010
0001
0000
,
1000
0010
1000
0010
1000
0000
0100
0010
,
0100
0010
0001
0000
0100
0010
0100
0010
,
1000
0000
0001
1000
0001
1000
0200
0000
,
0000
0000
0000
0000
0310
0001
1000
0100
0010
0000
0000
0001
0010
0000
0100
1000
,
0100
0000
1000
0000
0100
1000
0010
0000
,
0100
0001
0100
0000
0010
1000
0100
0000
,
0010
0000
0011
0000
0100
1000
0100
0000
,
0010
0001
1000
0000
1000
0001
1000
0000
,
1001
0000
1000
0001
1000
0001
0100
0010
,
0100
0010
0100
0001
1000
0010
0100
0010
,
0100
0010
1000
0001
1000
0001
0010
0100
,
0010
0100
0010
0001
1000
0100
0010
0100
,
0010
0100
1000
0000
0010
1000
0100
0000
,
0010
0001
0010
0000
0100
1000
0010
0000
,
0100
0000
0101
0000
0010
1000
0010
0000
,
0100
0001
1000
0000
1000
0001
1000
0000
,
1001
0000
1000
0001
1000
0001
0010
0100
,
0010
0100
0010
0001
1000
0100
0010
0100
,
0010
0100
1000
0001
1000
0001
0100
0010
,
0100
0010
0100
0001
1000
0010
0100
0010
,
0100
0000
0110
0000
1000
0001
1000
0000
,
0110
0000
0001
1000
0001
0000
1100
0000
,
0001
0100
0001
0000
0011
0000
1000
0100
,
1000
0000
0010
0100
0001
0100
0010
1000
,
0001
0100
0010
1000
0010
1000
0001
0100
,
0001
0100
0010
0100
0010
0100
0001
0100
,
0010
1000
0100
1000
0100
1000
0001
0010
,
0001
0010
0100
0010
0100
0010
0001
0010
,
0100
0000
0110
0000
0001
1000
0001
0000
,
0110
0000
1000
0001
1000
0000
0011
0000
,
1000
0010
1000
0000
1100
0000
0001
0010
,
0001
0000
0100
0010
1000
0010
0100
0001
,
1000
0010
0100
0001
0100
0001
1000
0010
,
1000
0010
0100
0010
0100
0010
1000
0010
,
0100
0001
0010
0001
0010
0001
1000
0100
,
1000
0100
0010
0100
0010
0100
1000
0100
,
0010
0002
0000
0000
0000
0003
1001
0000
,
2200
0000
0000
3300
;

//--------------- dance-single - Jenro (2022) ----------------
#NOTES:
     dance-single:
     Jenro (2022):
     Edit:
     10:
     0,0,0,0,0:
0000
0000
0000
0000
,
0000
0000
0000
0000
,
0000
0000
0000
0000
,
1001
0000
1001
0000
,
1001
0000
1001
0000
,
0110
0000
0110
0000
,
1001
0000
1001
0000
,
1010
0000
1010
0000
,
1010
0000
1010
0000
,
0011
0000
0011
0000
,
1100
0101
1000
0100
,
0001
0100
1000
0100
,
0001
0100
0001
0010
,
1000
0010
0001
0010
,
1000
0010
1000
0000
,
0001
0000
0100
0000
,
1000
0000
0001
0000
,
0100
0000
1000
0000
,
1001
0000
0001
0000
,
1000
0000
0010
0000
,
0001
0000
1000
0000
,
0010
0000
0001
0000
,
1001
0002
0010
1000
,
0100
2003
0010
0001
,
0100
3002
0100
1000
,
0100
0100
0100
1000
,
0103
1001
0000
0000
,
0101
0000
0000
1001
,
0000
0000
0101
0000
,
0000
1001
0000
1100
,
0000
1001
0000
0000
,
1010
0000
0000
1001
,
0000
0000
1010
0000
,
0000
1001
0000
0011
,
0000
1001
0000
0000
,
1100
0000
0000
1001
,
0000
0000
1100
0000
,
0000
1001
0000
0101
,
0000
1001
0000
0000
,
0011
0000
0000
1001
,
0000
0000
0011
0000
,
0000
1001
0000
1010
,
0000
1000
0001
1000
,
0001
1000
0000
0100
,
1000
0001
1000
0100
,
0000
0100
0001
1000
,
0100
1000
0001
1000
,
0001
1000
0000
0100
,
1000
0001
0100
0001
,
0000
0001
1000
1001
,
0000
0001
1000
0001
,
1000
0001
0000
0010
,
0001
1000
0001
0010
,
0000
0010
1000
0001
,
0010
0001
1000
0001
,
1000
0001
0000
0010
,
0001
1000
0010
1000
,
0000
1000
0001
1001
,
0000
0220
0000
0000
,
0330
1001
0100
1000
,
0002
0000
0003
1001
,
0100
0001
2000
0000
,
3000
0202
0303
0022
,
0033
0100
1000
0100
,
1000
0100
1000
0100
,
1000
0100
1000
0100
,
1000
0010
1000
0010
,
1000
1001
0010
0001
,
2000
0000
3000
1001
,
0010
1000
0002
0000
,
0003
0000
0000
2200
,
3300
0010
0001
0010
,
0001
0010
0001
0010
,
0001
0010
0001
0010
,
0001
0100
0001
0100
,
0001
2000
3002
2003
,
3200
0000
0300
0020
,
0032
0023
0230
0000
,
0300
0101
0000
1100
,
0000
0010
0001
1000
,
0100
0010
0001
1000
,
0100
0010
1000
0001
,
0100
0010
1000
0001
,
0100
0002
2003
3002
,
0023
0000
0030
0200
,
2300
3200
0320
0000
,
0030
0000
0000
0022
,
0033
0100
1000
0001
,
0010
0100
1000
0001
,
0010
0100
0001
1000
,
0010
0100
0001
1000
,
0010
0000
0000
1001
,
0220
0000
0000
0330
;
