#VERSION:0.83;
#TITLE:Ghost Clock;
#SUBTITLE:;
#ARTIST:BEMANI Sound Team "Yvya";
#TITLETRANSLIT:;
#SUBTITLETRANSLIT:;
#ARTISTTRANSLIT:;
#GENRE:;
#CREDIT:;
#MUSIC:Ghost Clock.ogg;
#BANNER:Ghost Clock-bn.png;
#BACKGROUND:Ghost Clock-bg.png;
#CDTITLE:;
#SAMPLESTART:37.921;
#SAMPLELENGTH:15.118;
#SELECTABLE:YES;
#OFFSET:-0.050;
#BPMS:0.000=190.000
,184.000=95.000
,200.000=190.000
,228.000=95.000
,230.000=190.000
;
#STOPS:;
#SPEEDS:0.000=1.000=0.000=0,
294.000=0.400=10.000=0,
304.000=1.000=3.000=0,
308.500=2.000=0.500=0,
309.000=1.000=0.500=0
;
#SCROLLS:0.000=1.000,
119.000=0.000,
119.500=1.000,
308.500=3.000,
309.250=0.500,
309.500=0.250,
310.000=1.000
;
#TICKCOUNTS:0.000=4;
#TIMESIGNATURES:0.000=4=4;
#LABELS:0.000=Song Start;
#COMBOS:0.000=1;
#ORIGIN:;
#PREVIEWVID:;
#JACKET:Ghost Clock-jacket.png;
#CDIMAGE:;
#DISCIMAGE:;
#BGCHANGES:;
#FGCHANGES:;

//--------------- dance-single - Highflyer ----------------
#NOTEDATA:;
#STEPSTYPE:dance-single;
#DESCRIPTION:Highflyer;
#DIFFICULTY:Beginner;
#METER:3;
#RADARVALUES:0,0,0,0,0;
#NOTES:
0000
0000
0000
0000
,
0000
0000
0000
0000
,
0000
0000
0000
0000
,
0000
0000
0000
0000
,
0000
0000
0000
0000
,
0000
0000
0000
0000
,
0100
0000
0100
0000
,
0010
0000
0010
0000
,
1000
0001
1000
0001
,
1000
0000
0000
0000
,
0001
0000
0001
0000
,
0010
0000
0010
0000
,
0200
0300
0100
0000
,
0000
1000
0000
0001
,
0001
0000
0100
0000
,
0010
0000
1000
0000
,
0100
0000
0000
0100
0000
0000
0100
0000
,
0010
0000
0020
0030
,
0001
0000
0100
0000
,
0010
0000
0100
0000
,
0002
0003
1000
0002
,
0003
0020
0030
0000
,
1001
0000
0001
0000
,
1000
1000
0000
0010
,
0100
0000
0001
0000
,
1000
0000
2000
0000
,
3001
0000
0010
0000
,
0100
0000
0010
0000
,
0001
0000
1000
0000
,
0020
0000
0000
0030
,
0100
0000
0100
0000
,
0010
0000
0010
0000
,
1000
0000
0001
0000
,
0010
0000
0010
0000
,
0100
0000
1000
0000
,
0001
0000
0001
0000
,
0100
0000
0010
0000
,
0100
0000
0100
0000
,
0010
0000
0010
0000
,
1000
0000
0000
0000
0001
0000
0000
0001
,
0000
0000
0000
0010
0000
0000
0000
0100
,
0000
0000
1000
0000
,
0001
0000
1000
0000
,
0020
0030
0200
0300
,
0002
0003
1000
0000
,
0200
0300
0020
0030
,
0001
1000
1000
0000
,
0001
0000
0100
0000
,
0010
0000
0100
0000
,
0010
0000
1000
0000
,
1001
0000
0000
0000
,
0001
0000
0000
0000
,
0010
0000
0000
0000
,
0100
0000
0000
0000
,
1000
0000
0001
0000
,
1000
0000
0001
0000
,
1000
0000
0010
0000
,
0100
0000
0010
0000
,
0100
0000
0001
0000
,
1000
0000
0001
0000
,
0010
0000
0100
0000
,
0010
0000
0001
0000
,
1000
0000
0010
0000
,
0100
0000
0010
0000
,
0010
0000
0100
0000
,
0100
0000
0100
0000
,
0001
0000
1000
0000
,
0100
0000
0010
0000
,
0100
0000
0000
0000
1000
0000
0000
0001
,
0000
0001
0000
0001
0000
0000
0000
0000
,
0000
0100
0100
0000
,
0010
0000
1000
0000
,
0001
0000
0020
0000
,
0230
0000
2300
0000
,
0000
0000
0000
0000
,
0000
0000
0000
0000
,
0000
0000
3002
0000
,
0000
0003
0000
0000
0001
0000
0000
0000
,
1000
0000
0001
0000
,
1000
0000
0001
0000
,
1000
0000
0001
0000
,
1000
0000
0010
0000
,
0100
0000
0010
0000
,
1000
0000
0001
0000
,
0010
0000
0100
0100
,
0100
0100
0000
0000
;

//--------------- dance-single - Highflyer ----------------
#NOTEDATA:;
#STEPSTYPE:dance-single;
#DESCRIPTION:Highflyer;
#DIFFICULTY:Easy;
#METER:6;
#RADARVALUES:0,0,0,0,0;
#NOTES:
0000
0000
0000
0000
,
0000
0000
0000
0000
,
0000
0000
0000
0000
,
0000
0000
0000
0000
,
0000
0000
0000
0000
,
0000
0000
1000
0000
,
1001
0000
0001
0000
,
0100
0000
0010
0000
,
0100
0001
0010
0100
,
1000
0000
0000
0000
,
0001
0000
0001
0100
,
0010
1000
0100
1000
,
0100
0000
0010
0001
,
0000
1000
0000
0010
,
1001
0000
0001
0000
,
0010
0000
0100
0000
,
2000
0000
0000
3002
0000
0000
0023
0000
,
0230
0300
1000
1001
,
0001
0000
0100
0000
,
0010
0100
0001
0010
,
0200
0000
0300
1000
0000
0000
0002
0000
,
0000
0203
0000
0310
,
1001
0000
0001
0000
,
1000
0000
0010
0000
0000
0100
0000
0000
,
1001
0000
0000
0011
0000
0000
1100
0000
,
0002
0000
0203
0000
,
0310
0000
1000
0000
,
0100
0010
0100
0000
,
1000
0000
0001
0000
,
0100
0010
0100
0000
,
1001
0001
0100
1000
,
0100
0010
1000
0001
,
1000
0100
0001
0100
,
1000
0010
0200
0310
,
1001
0001
0010
0100
,
1000
0010
0001
0010
,
0100
0000
0001
0000
,
0010
0000
0100
0000
,
1000
0001
0100
0010
,
0100
0000
0001
0000
2000
0000
3000
0110
,
0000
0000
0000
0101
0000
0000
0000
1100
,
0000
0000
0001
1000
,
0200
0300
0000
0010
,
0001
0100
0010
0100
,
0002
0000
1003
0010
,
1000
0100
0001
0100
,
2000
0000
0010
0000
3001
0000
0000
1000
,
1000
0002
0013
0001
,
0100
0020
1030
0001
,
0010
0000
0100
0000
,
1001
0001
0100
0010
,
0100
0001
0010
0100
,
1000
0000
0001
0100
,
0010
0000
1000
0000
0200
0000
0000
0300
,
1001
0000
0000
1000
0000
0000
0100
0000
,
0010
0000
0000
0001
0000
1000
0000
0000
,
0010
0000
0100
0000
,
0002
0000
0003
0000
1001
0000
0000
1000
,
0000
0000
0200
0300
0000
0020
0000
0000
,
0032
0000
0000
0000
1003
0000
0000
0010
,
0000
0100
0000
0020
0000
0000
0030
0000
,
0100
0000
0001
0000
,
1000
0100
0001
0100
,
2000
0000
3010
0000
,
0100
0001
0010
0100
,
1000
0010
1001
0000
,
0002
0103
0002
0013
,
0200
1300
0001
0100
,
1000
0000
0100
0000
0001
0000
0000
1001
,
0000
0110
0000
2002
0000
0000
0000
0000
,
3003
1000
0020
0000
,
0230
0000
0301
0000
,
1000
0000
0100
0000
,
0010
0000
2002
0000
,
0000
0000
0000
0000
,
0000
0000
0000
0000
,
0000
3003
0000
0000
1000
0000
1000
0000
,
2000
3000
1001
0001
,
0100
0010
0100
0001
,
0010
0100
1000
0100
,
0010
0001
1000
0001
,
0100
0000
0010
0000
0100
0000
0000
0001
,
0000
0000
0010
0000
0000
0100
0000
0000
,
1000
0000
0000
0001
0100
0000
0010
0000
,
0100
0001
0020
0100
,
0100
0031
0000
0000
;

//--------------- dance-single - Highflyer ----------------
#NOTEDATA:;
#STEPSTYPE:dance-single;
#DESCRIPTION:Highflyer;
#DIFFICULTY:Medium;
#METER:11;
#RADARVALUES:0,0,0,0,0;
#NOTES:
0000
0000
0000
0000
,
0000
0000
0000
0000
,
0000
0000
0000
0000
,
0000
0000
0000
0000
,
0000
0000
0000
0000
,
0000
0000
0000
0000
0000
0000
0000
0000
1000
0000
0000
0001
0000
0000
0100
0000
,
0010
0000
1000
0000
0100
0010
0000
0001
,
0100
0000
0010
1000
0000
0002
0003
2000
,
3000
0100
0010
0000
0100
1000
0100
1000
,
0001
0000
0000
0000
,
1001
0000
1000
0010
0000
0100
0000
0001
,
1000
0000
0100
0000
0010
0000
0100
1000
,
0001
0000
0000
1000
1000
0010
0100
0000
,
0000
0001
0010
0000
0100
0000
0010
0000
,
1001
0000
0000
0001
0200
0000
0310
0100
,
0002
0000
0003
1000
0200
0000
0300
0010
,
0100
1000
0000
0001
0100
0000
0010
0100
,
0001
1000
0001
0000
0020
0000
0130
0000
,
1001
0000
0001
0100
0001
0100
0000
0010
,
1000
0000
0001
0010
0001
0010
0100
0000
,
2000
0000
3000
0001
0100
0000
0020
0000
,
0030
0100
0002
0000
0000
0003
1000
0100
,
0020
0000
0030
0100
2000
0000
3000
0001
,
0100
0010
0100
0001
0000
1000
0100
0010
,
0200
0000
0300
0020
0000
0030
0200
0000
,
1300
0000
0001
0000
1000
0000
0002
0000
0000
0100
0000
0000
,
2003
0000
3100
0000
,
0002
0000
0103
0000
,
1000
0000
0010
0100
0010
0000
0100
0000
,
0001
1000
0001
1000
0001
0100
0000
0000
,
0001
0010
0001
0000
1000
0010
1000
0000
,
0100
0010
0000
0010
0000
0010
0100
0000
,
1000
0001
1000
0000
0001
1000
0001
0000
,
0100
0010
0000
0010
0000
0010
0200
0000
,
0301
0010
0001
0000
1000
0100
1000
0000
,
0001
1000
0000
1000
0010
0100
0010
0100
,
0020
0000
0030
1000
0100
0010
0001
0000
,
1000
0010
0100
0000
0001
0010
0100
0000
,
2000
0000
0000
3001
0200
0000
0310
0000
,
0100
0001
0100
0000
0010
1000
0001
0010
,
0000
0100
1000
0010
0000
0100
0001
0010
,
0000
0100
1000
0000
0001
0100
0001
0100
,
0020
0000
1030
0100
0000
0100
0000
0100
,
0020
0000
0032
0000
2003
0000
3010
0100
,
0020
0000
0030
0100
0002
0000
0023
0000
,
0031
0100
0001
0000
1000
0010
1000
0000
,
0200
0000
0320
0000
0032
0000
0003
1000
,
0020
0000
0130
0001
0100
0000
0010
0000
,
1000
0000
0100
0010
0100
0000
0010
0000
,
0001
0000
0000
1000
0010
0000
0000
0100
,
0001
0001
1000
1000
,
0100
0000
0010
0001
0010
0000
0100
0000
,
1000
0000
0010
0100
0010
0000
0100
0000
,
0001
0000
0000
0000
0000
0000
1000
0000
0000
0100
0000
0000
1000
0000
0000
0000
0001
0000
0000
0000
1000
0000
0000
0000
,
0001
0000
0100
0010
0000
0010
0100
0000
,
0001
0000
1000
0100
0000
0100
2000
0000
,
3010
0000
0000
0100
0000
0000
0001
1000
,
0002
0000
0003
0000
1000
0000
0001
0100
,
0000
0001
0100
0000
0010
0000
1000
0100
,
1000
0000
0001
0000
0010
0000
0001
0100
,
0000
0001
0100
0000
0010
1000
0010
0000
,
2000
0000
3100
0000
1001
0000
0000
1000
,
0010
0010
0100
0100
,
0001
1000
0001
1000
0200
0000
0300
0010
,
0001
0001
2000
3020
,
0230
0302
0013
0010
,
0100
1000
0100
0000
1000
0000
0001
0000
,
0100
0010
0100
0000
0001
1000
0001
0000
,
1000
0001
1000
0000
0200
0000
0300
0110
,
0000
1001
0000
1000
0002
0000
0103
0000
,
0010
0000
0100
0000
0001
0010
0001
0000
,
1000
0100
1000
0000
0002
0000
0000
0103
,
0020
0000
1030
0100
1000
0000
0001
0000
,
0100
0000
0010
0000
0100
0000
0020
0000
0000
0000
0000
0000
,
0000
0000
0000
0000
,
0000
0000
0000
0000
,
0000
0030
1000
1000
,
0001
0020
0000
0030
0100
1000
0100
0000
,
1000
0001
0000
1000
0001
0000
0100
0010
,
0000
0010
1000
0000
0100
0010
0100
0000
,
0010
0001
0000
1000
0010
0000
1000
0100
,
0000
0010
0001
1000
0001
0100
0000
0010
,
1000
0000
0001
0010
0000
0100
1000
0000
,
0001
0100
0000
0010
1000
0001
1000
0001
,
0010
0100
0010
0100
2000
0000
0010
0000
,
0001
3100
0000
0000
;

//--------------- dance-single - Highflyer ----------------
#NOTEDATA:;
#STEPSTYPE:dance-single;
#DESCRIPTION:Highflyer;
#DIFFICULTY:Hard;
#METER:14;
#RADARVALUES:0,0,0,0,0;
#NOTES:
0000
0000
0000
0000
,
0000
0000
0000
0000
,
0000
0000
0000
0000
,
0000
0000
0000
0000
,
0000
0000
0000
0000
,
0000
0000
0000
0000
0000
0000
0000
0000
1000
0000
0000
0001
0000
0000
0100
0000
,
0010
0000
1000
0000
0100
0010
0000
0100
,
1000
0000
0001
0100
0000
0010
0000
0100
,
0001
1000
0001
1000
0100
0010
0001
0100
,
0020
0000
0000
0000
0000
0000
0000
0030
,
1001
0000
1000
0010
0000
0001
0000
0010
,
0100
0001
1000
0100
1000
0001
0010
0100
,
0002
0000
0003
0100
1000
0010
0002
0000
,
0003
0010
2000
0000
3001
0000
0010
0100
,
2002
0000
3003
0001
0200
0000
0301
0010
,
0200
0000
1300
0010
0200
0000
0300
0010
,
1000
0100
0001
0100
1000
0010
0100
0001
,
1000
0100
1000
0000
0001
0000
0010
0000
0001
0000
0100
0000
2000
0000
3000
0000
,
0210
0000
0301
1000
0001
0010
0000
0100
,
0010
0001
0000
1000
0010
0100
0001
1000
,
0001
0100
1000
0100
0010
1000
0001
0010
,
1000
0010
0200
0000
0300
0000
0010
0001
,
0200
0000
0310
1000
0002
0000
1003
0100
,
0010
0001
0100
1000
0000
0100
0010
1000
,
1002
0000
0013
0200
0000
1300
0020
0000
,
0130
0000
0001
0000
0010
0000
0001
0100
0001
0100
0001
0100
,
0001
1000
0100
0000
0010
0100
0000
1000
,
0010
0000
0100
0000
0000
0000
0010
0000
1000
0000
0100
0000
0010
0000
0001
1000
,
0001
0000
0100
0000
0010
0000
0100
0000
0001
0000
0010
0000
0001
0000
1000
0100
,
1000
0000
0001
0100
0001
0000
1000
0010
1000
0000
0001
0000
0000
0000
0000
0000
,
1001
1000
0010
0100
0001
0010
1000
0010
,
0001
0100
0010
0100
1000
0100
0010
0100
,
0001
0010
0100
1000
0001
0100
0010
1000
,
0001
0000
0010
0000
0001
0000
0100
0000
0010
0000
0100
0000
0001
0000
1000
0100
,
1000
0001
0100
0001
1000
0100
0010
0001
,
1000
0100
0001
0100
1000
0010
0100
0001
,
0020
0000
0000
0000
0030
0000
0001
1000
0001
0000
0100
0000
0010
0000
1000
0000
,
0001
0010
1000
0010
0001
0100
1000
0100
,
0002
0000
0000
0000
0013
0000
0100
0000
1000
0001
1000
0000
0010
0000
1000
0000
,
0001
0100
1000
0001
0010
1000
0001
0011
,
0000
1000
0100
1100
0000
0001
0100
0101
,
0000
1000
0010
0100
0001
0010
1000
0010
,
0001
0100
0010
0100
0000
0001
0100
0010
,
1000
0100
0001
0100
1000
0010
0100
0001
,
0020
0000
0000
0130
1000
0001
0100
0010
,
1000
0100
1000
0000
0001
0100
0001
0000
1000
0010
1000
0000
0001
0010
0001
0000
,
0200
0000
0000
0310
0100
0000
0000
0000
0001
0000
0000
0010
0000
0000
0100
1000
,
0010
0000
0000
0000
0000
0000
0000
0000
0000
0100
0000
0000
0001
0000
0000
1000
0000
0000
0100
0000
0000
0010
0000
0000
0001
0000
0000
0000
0000
0000
0000
0000
0000
1000
0000
0000
0010
0000
0000
0000
0100
0000
0000
0000
0001
0000
0000
0000
,
0010
0000
0000
0000
0100
1000
0001
0100
0010
0000
0100
0001
0000
1000
0100
0000
,
0010
0000
0000
0100
0000
0000
1000
0000
0001
0000
0000
0100
0000
0000
0010
0000
,
1001
1000
0100
0010
0001
0100
1000
0100
,
0010
0000
1000
0000
0100
0000
1000
0001
1000
0000
0010
0000
0100
0000
0001
0000
,
2000
0000
3000
0100
0010
0001
0100
0010
,
1000
0000
0000
0001
0000
0000
0010
0000
0000
0100
0000
0000
1000
0000
0000
0000
1000
0000
0000
0000
1000
0000
0000
0000
,
1000
0010
0100
1000
0000
0100
0001
0010
,
0100
1000
0100
0001
1000
0010
0100
1000
,
0010
0100
0010
0100
0001
1000
0100
0010
,
0002
0000
0003
0000
1001
0000
1000
1000
,
0000
0010
1000
0100
0000
0010
0001
0100
,
1000
0100
0001
1000
0100
0000
0010
0001
,
0000
1000
0010
0200
0000
0310
1000
0001
,
1000
0100
0001
0100
0020
0000
0030
0001
,
0100
0010
0100
0010
1000
0100
1000
0100
,
0010
0001
0100
1000
0200
0000
0300
0010
,
0100
0000
0000
0001
0000
0000
0010
0000
0000
0100
0000
0000
1000
0000
0100
0000
1000
0000
0100
0000
1000
0000
0100
0000
,
0010
0001
0100
0010
2000
0000
3010
0100
,
0001
0000
0010
0000
0100
0000
0010
0000
0001
0000
1000
0010
1000
0000
0001
0000
,
1000
0010
0001
0010
0100
0001
0010
0100
,
1000
0100
0010
0001
1000
0010
0100
0110
,
0000
0101
0000
1001
1000
0100
0010
0100
,
1000
0000
0001
0000
0100
0000
0010
0000
1000
0000
0001
0000
0010
0100
0010
0000
,
0001
0000
1000
0000
0010
0100
0010
0000
2000
0000
0000
0000
0000
0000
3001
0000
,
0020
0000
0000
0000
0000
0000
0130
0000
0000
0010
0000
0000
0001
0000
1000
0000
0001
0000
1000
0000
0001
0000
1000
0000
,
0001
0000
0100
0000
0010
0000
2000
0000
0000
0000
0000
0000
,
0000
0000
0000
0000
,
0000
0000
0000
0000
,
0000
0000
0000
0000
3001
0010
1000
0010
,
0001
0200
0000
0300
0010
0100
0001
1000
,
0100
0000
0010
0000
0100
0000
1000
0000
0001
0100
0001
0000
1000
0000
0001
0010
,
0001
1000
0010
0100
0010
1000
0200
0000
,
0310
0001
0000
1000
0010
0000
0100
0001
,
0000
0000
1000
0000
0001
0100
0001
0000
1000
0000
0100
0000
0001
0000
0100
0010
,
0100
0000
0010
0000
0001
0000
1000
0010
1000
0000
0001
0000
0010
0100
0010
0000
,
0001
0000
0100
0000
1000
0000
0100
0010
0100
0000
0001
0000
1000
0000
0100
0000
,
0010
0000
0001
0000
1000
0000
0010
1000
0010
0000
0100
0000
0001
0000
1000
0000
,
0100
0010
0100
0000
1000
0000
0000
0000
0000
0000
0000
0000
0000
0000
0000
0000
;

//--------------- dance-single - Highflyer ----------------
#NOTEDATA:;
#STEPSTYPE:dance-single;
#DESCRIPTION:Highflyer;
#DIFFICULTY:Challenge;
#METER:16;
#RADARVALUES:0.91405,1.06228,0.128999,0.180599,0.812694,744,729,15,21,0,0,0,0,0,0.91405,1.06228,0.128999,0.180599,0.812694,744,729,15,21,0,0,0,0,0;
#CHARTNAME:Highflyer;
#CHARTSTYLE:;
#CREDIT:Highflyer;
#NOTES:
0000
0000
0000
0000
,
0000
0000
0000
0000
,
0000
0000
0000
0000
,
0000
0000
0000
0000
,
0000
0000
0000
0000
,
0000
0000
0000
0000
0000
0000
1000
0010
1000
0000
0000
0001
0000
0000
0010
0000
,
0100
1000
0010
0000
0100
0001
0000
1000
,
0100
0000
0000
0000
0010
0000
0001
0000
0000
0000
1000
0100
1000
0000
0001
0100
,
0001
1000
0010
0100
0001
0010
0100
1000
,
0002
0000
0000
0000
0000
0000
1003
0010
1000
0010
0100
0001
0100
0001
1000
0100
,
0010
0001
0100
0001
1000
0100
1000
0010
,
1000
0100
0001
1000
0010
0001
1000
0010
,
0200
0000
0000
0000
0301
0000
0010
0100
0010
0000
0001
0000
2000
0000
0000
0000
,
3010
0000
0100
0001
0100
0000
0010
0000
1000
0100
1000
0000
0001
1000
0001
0100
,
0010
0000
1000
0000
0001
0000
0010
0100
1000
0000
0001
0000
0100
0000
0010
0100
,
0001
0000
1000
0000
0001
0000
0100
0010
1000
0000
0001
0000
0010
0000
0100
0000
,
0010
0001
0010
0001
1000
0000
0010
1000
0001
0000
0100
0000
0010
0000
1000
0000
,
0001
0010
0100
0000
1000
0000
0001
0100
0010
0100
0001
1000
0200
0000
0300
0000
,
1001
0001
0100
1000
0100
0001
0010
0100
,
0001
0100
0010
0001
0100
0010
1000
0001
,
1000
0100
1000
0100
1000
0000
0001
0000
0100
0000
0010
0000
1000
0001
1000
0001
,
1000
0000
0100
0010
0001
0000
1000
0000
0010
0000
0100
0000
0001
1000
0001
0100
,
0010
0000
1000
0000
0001
0000
1000
0100
0010
0000
0001
0000
1000
0000
0001
0100
,
0010
1000
0100
0010
0000
0200
1300
0001
,
1002
0010
0000
2003
0010
0000
3001
0100
,
0010
0000
1000
0000
0100
0000
0010
0001
1000
0010
0100
0001
,
0010
0000
0100
0000
1000
0000
0001
0000
0100
0000
0010
0000
0000
0000
0100
0001
,
1000
0000
0100
0000
0010
0000
0001
1000
0100
0000
1000
0001
0100
0000
0001
0010
,
0100
0000
1000
0000
0010
0000
0100
0001
0100
0000
0010
0000
1000
0000
0001
0010
,
0001
0010
0100
1000
0100
1000
0001
0100
0010
1000
0001
0010
0100
0000
0000
0000
,
1001
0000
1000
0000
0010
0000
0100
0000
0001
0000
0010
0000
1000
0000
0010
0100
,
0010
0001
0100
1000
0100
0001
1000
0100
,
1000
0010
0001
1000
0100
0001
0100
1000
,
0001
0000
0010
0000
1000
0000
0001
0010
0001
0010
0001
0000
1000
0000
0010
0100
,
0010
0000
1000
0000
0100
0000
1000
0000
0001
0000
0100
0000
1000
0000
0100
0010
,
0100
0000
0001
0000
0010
0000
1000
0000
0001
0000
0100
0000
1000
0000
0001
0100
,
0020
0000
0000
0000
0030
0000
0100
0001
1000
0100
0010
0001
1000
0000
0010
0000
,
0100
0000
0001
0000
1000
0000
0100
0010
0000
0001
1000
0000
0010
0100
0010
1000
,
0200
0000
0000
0000
0310
0000
0001
0000
1000
0010
1000
0001
0100
0000
0010
1000
,
0001
0010
1000
0010
0001
1000
0001
0101
,
0000
1000
0100
1100
0000
0001
0010
0011
,
0000
1000
0010
0100
0001
0010
1000
0010
,
0001
0000
1000
0010
0100
0000
0010
0000
0000
0000
0010
0000
0000
0000
0010
0000
,
0100
0001
1000
0001
0010
0000
0100
0000
1000
0000
0001
0000
0100
0000
0010
0000
,
0002
0000
0000
0013
0100
0001
1000
0100
,
0010
0001
1000
0001
0100
0010
1000
0001
0100
0001
1000
0100
0010
0001
1000
0000
,
0010
0000
0000
0100
0001
0000
0000
0000
1000
0000
0000
0100
0000
0000
0010
0001
,
0100
0000
0000
0000
0000
0000
0000
0000
0000
0000
0000
0000
0000
0000
0000
0000
0000
0000
0000
0000
0000
0000
0000
0000
0010
0000
0000
0000
0000
0000
0100
0000
0000
0000
0000
0000
0001
0000
0000
0000
0000
0000
1000
0000
0000
0000
0000
0000
0100
0000
0000
0000
0000
0000
0000
0000
0000
0000
0000
0000
0000
0000
0000
0000
0000
0000
0010
0000
0000
0001
0000
0000
0010
0000
0000
0000
0000
0000
0000
0000
0100
0000
0000
0000
0000
0000
0000
0000
1000
0000
0000
0000
0000
0000
0000
0000
,
0001
0000
0000
0000
0000
0000
0000
0000
0100
0000
0010
0000
1000
0000
0001
0000
0010
0000
0000
0000
0100
1000
0100
0000
0000
0000
1000
0000
0001
0000
0100
0000
,
0010
0000
0000
0000
0000
0000
0100
0000
0000
0000
0000
0000
0001
0000
0000
0000
0010
0000
0000
0000
0000
0000
0100
0000
0000
0000
1000
0001
1000
0000
0000
0000
,
0010
1000
0100
0010
1000
0010
0001
0100
,
1000
0000
0100
0000
0001
0000
1000
0100
0010
0000
0001
0000
1000
0000
0010
0000
,
0100
0000
0000
0000
0010
0000
1000
0100
1000
0000
0001
0000
0100
0000
0010
0000
,
0100
0000
0000
0000
0000
0000
0001
0000
0000
0000
0000
0000
0010
0000
0000
0000
0000
0000
0100
0000
0000
1000
0000
0000
0001
0000
0000
0000
0100
0000
0000
0000
0010
0000
0000
0000
0100
0000
0000
0000
0001
0000
0000
0000
1000
0000
0000
0000
,
0100
0000
0010
0001
1000
0000
0010
0000
0000
0000
0100
0001
1000
0000
0100
0000
,
0010
0000
0100
1000
0001
0000
0100
0000
0010
0000
1000
0001
1000
0100
0010
0001
,
1000
0000
0010
0000
0100
0000
0001
1000
0001
0010
0100
0010
0001
1000
0001
0100
,
0020
0000
0000
0000
0030
0100
0001
1000
1100
0000
0000
0000
0001
0000
0101
0000
,
0000
0000
1000
0000
1010
0000
0001
0000
0000
0000
1000
0100
1000
0000
0001
0000
,
0010
1000
0010
0001
0200
0000
0310
2000
,
0000
0000
3001
0000
0100
0000
0020
0000
0000
0000
0130
0001
1000
0000
0100
0000
,
0010
0100
1000
0010
0110
0000
0000
0010
,
1000
0100
0001
0100
1000
0010
0001
1000
,
0100
0010
0100
0001
1000
0100
1000
0001
0200
0000
0000
0000
0310
0000
0100
0000
,
0001
0000
0000
0100
0000
0000
0010
0000
0000
1000
0000
0000
0100
0000
0010
0000
0001
0000
1000
0000
0010
0000
0100
0000
,
0001
1000
0100
1000
0001
0100
0010
1000
0200
0000
0000
0000
0310
0000
0001
1000
,
0010
0000
0100
0000
0001
0000
0010
0100
1000
0000
0001
0000
0100
0000
0010
0000
,
0100
0001
0010
0100
1000
0010
0001
0010
,
1000
0100
0001
0100
1100
1000
0001
0101
,
0000
0000
1001
0000
0000
0000
1100
0000
1000
0000
0000
0001
0010
0000
0100
0000
,
1000
0000
0010
0000
0100
0001
1000
0100
0010
0001
0010
0001
1000
0010
1000
0010
,
0100
0001
0100
0001
1000
0100
0010
0001
0200
0000
0000
0000
0000
0000
0310
0000
,
2000
0000
0000
0000
0000
0000
3001
0000
0000
0010
0000
0000
0001
0000
0100
0000
0010
0000
0100
0000
1000
0000
0100
0000
,
0010
0000
1000
0000
0001
0000
2002
0000
0000
0000
0000
0000
,
0000
0000
0000
0000
,
0000
0000
0000
0000
,
0000
0000
0000
0000
3003
0000
0000
0000
1000
0010
1000
0001
1000
0100
0010
0001
,
1000
0010
0200
0000
0000
0000
0300
0000
0010
0000
1000
0001
1000
0000
0100
0000
,
0010
0001
0010
0001
1000
0000
0010
0100
0001
1000
0001
0000
1000
0000
0100
0010
,
0001
0000
1000
0010
0100
0001
1000
0000
0100
0000
0010
0001
1000
0000
0010
0000
,
1000
0010
0100
0001
1000
0000
0001
0100
0001
0100
0001
0000
1000
0000
0100
0010
,
0001
0000
1000
0000
0001
0100
0010
1000
0001
0100
0001
0100
0001
0000
1000
0100
,
1000
0100
1000
0000
0001
0010
0001
0010
0001
0000
1000
0010
1000
0010
1000
0000
,
0001
0010
0100
0010
0001
0000
1000
0010
0100
0000
0001
0000
1000
0000
0100
0010
,
0001
0000
1000
0000
0010
0000
0100
0001
1000
0001
0010
0100
0010
0001
1000
0010
,
0100
0001
1000
0100
0000
0000
0000
0000
0000
0000
0000
0000
0000
0000
0000
0000
;
