#TITLE:Germs;
#SUBTITLE:;
#ARTIST:"Weird Al" Yankovic;
#TITLETRANSLIT:;
#SUBTITLETRANSLIT:;
#ARTISTTRANSLIT:Weird Al Yankovic;
#GENRE:Industrial Rock;
#CREDIT:;
#BANNER:Germs.png;
#BACKGROUND:Germs-bg.png;
#LYRICSPATH:Germs.lrc;
#CDTITLE:;
#MUSIC:Germs.ogg;
#OFFSET:-0.353000;
#SAMPLESTART:53.035999;
#SAMPLELENGTH:21.353001;
#SELECTABLE:YES;
#BPMS:0.000000=89.915001
;
#STOPS:
;
#BGCHANGES:8.000=Germs.avi=1.000=1=0=1===CrossFade==,
176.000=Germs-bg.png=1.000=1=0=1===CrossFade==,
99999=-nosongbg-=1.000=0=0=0 // don't automatically add -songbackground-
;
#KEYSOUNDS:;
#ATTACKS:;

//---------------dance-single - ----------------
#NOTES:
     dance-single:
     :
     Hard:
     13:
     0.409479,0.445446,0.061975,0.092963,0.395092,370.000000,362.000000,8.000000,12.000000,2.000000,0.000000,0.409479,0.445446,0.061975,0.092963,0.395092,370.000000,362.000000,8.000000,12.000000,2.000000,0.000000:
// measure 0
0000
0000
0000
0000
,  // measure 1
0000
0000
0000
0000
,  // measure 2
0000
0000
0000
0000
,  // measure 3
0000
0000
0000
0110
,  // measure 4
1001
0001
1000
0100
0010
0001
0010
0100
,  // measure 5
0010
0001
0010
0001
0010
0000
0100
1000
0000
1000
0010
0000
0110
0000
0000
0000
,  // measure 6
1001
0000
1000
0000
0001
0000
0100
0000
0010
0000
1000
0000
0010
0100
0000
0100
,  // measure 7
0001
1000
0001
1000
0001
0000
1000
0010
0000
0010
0100
0000
0110
0000
0000
0000
,  // measure 8
1001
1000
0001
0010
0100
1000
1000
0010
,  // measure 9
0100
0000
0001
0000
0001
0010
0000
0100
0000
1000
0000
0000
0110
0000
0000
0000
,  // measure 10
1001
0000
1000
0000
0001
0000
0001
0000
0100
0000
0100
0001
0000
0001
0000
0000
,  // measure 11
0001
0100
0000
1000
0000
0100
0000
0001
0000
0000
1000
0000
0100
1000
0100
1000
,  // measure 12
0200
1000
1000
1300
0002
0010
0023
0100
,  // measure 13
0130
0000
0000
1000
0010
1000
0000
0000
0100
0000
0000
1000
0010
1000
0000
0000
,  // measure 14
0200
1000
1000
1300
0002
0010
0023
0100
,  // measure 15
0130
0000
0000
0100
0010
0001
0000
0000
0100
0000
0000
0100
0010
1000
0000
0000
,  // measure 16
0200
0010
0010
0310
0002
1000
2003
0001
,  // measure 17
3001
0000
0000
0100
0001
1000
0000
0000
1000
0000
0000
0100
1000
0001
0000
0000
,  // measure 18
2000
0000
0100
0000
0001
0001
3100
0000
,  // measure 19
0002
0000
0000
0000
0100
0000
0000
0000
1003
0000
1000
0000
1000
0001
1000
0001
,  // measure 20
1000
0010
0100
0000
0001
0000
0010
0100
0000
1000
0100
0000
1000
0000
0001
0000
,  // measure 21
0100
0010
1000
0000
0100
0000
1000
0001
0000
1000
0001
0000
0010
0000
0010
0000
,  // measure 22
0100
1000
0001
0000
1000
0000
0100
0010
0000
0001
0010
0000
0001
0000
0001
0000
,  // measure 23
0100
0000
0001
0100
0001
0100
0001
0100
00M0
0100
1000
0000
0010
1000
0010
1000
,  // measure 24
0100
0010
0001
0000
1000
0000
0010
0100
0000
0001
1000
0000
0100
0000
0100
0000
,  // measure 25
0010
0001
0100
0000
0001
0000
1000
0010
0000
1000
0100
0000
1000
0000
1000
0000
,  // measure 26
0010
0100
0010
0000
1000
0000
0010
0100
0000
0010
0100
0000
0001
0000
1000
0000
,  // measure 27
0100
0000
0010
0100
0010
0100
0010
0100
M000
0100
0001
0000
0100
0001
0100
0001
,  // measure 28
0100
0000
0010
0000
1000
0000
1000
0100
0000
0010
0001
0000
0100
0000
0100
0000
,  // measure 29
0001
0000
0010
0000
0100
0000
0100
1000
0000
1000
0010
0000
1000
0000
1000
0000
,  // measure 30
0100
0000
0001
0000
0100
0000
1000
0001
0000
0001
1000
0000
0001
0000
0100
0000
,  // measure 31
0001
0000
1000
0100
0010
0001
0010
0100
0000
0100
2000
0000
0001
0000
3000
0000
,  // measure 32
0001
0000
0100
0000
0010
0000
0100
1000
0000
1000
0100
0000
0001
0000
0001
0000
,  // measure 33
1000
0000
0100
0000
0010
0000
0100
0001
0000
0001
0100
0000
1000
0000
1000
0000
,  // measure 34
0001
0000
0010
0000
0100
0000
0010
1000
0000
1000
0010
0000
0001
0000
0001
0000
,  // measure 35
0100
0000
0010
1000
0010
0100
0001
0100
0000
0100
0001
0000
1000
0001
1000
0001
,  // measure 36
4000
0000
0000
0000
3000
0000
0004
0000
0000
0000
0003
0000
0100
0010
0100
0000
,  // measure 37
0004
0000
0000
0000
0003
0000
0040
0000
0000
0000
0030
0000
0100
1000
0100
0000
,  // measure 38
4000
0000
0000
0000
3000
0000
0004
0000
0000
0000
0003
0000
1000
0010
1000
0000
,  // measure 39
0040
0000
0000
0000
0030
0000
0100
0000
0100
0000
0010
0000
1000
0010
1000
0010
,  // measure 40
0000
0010
0100
0000
0100
0000
0001
0000
0001
0000
0010
0000
0010
0100
0010
0100
,  // measure 41
0000
0100
1000
0000
1000
0000
0100
0000
0100
0000
0010
0000
0010
0100
0010
0100
,  // measure 42
0000
0100
1000
0000
1000
0000
0001
0000
0001
0000
1000
0000
1000
0100
0010
0001
,  // measure 43
0000
0001
0100
0000
0001
0000
1000
0000
0010
0000
1000
0000
0010
0000
0000
0000
,  // measure 44
1000
0000
0000
0100
0000
0000
0010
0000
,  // measure 45
0001
0000
0000
0100
0000
0000
0010
0000
,  // measure 46
1000
0000
0000
0000
;

//---------------dance-single - ----------------
#NOTES:
     dance-single:
     :
     Medium:
     8:
     0.316516,0.338539,0.069722,0.170432,0.023241,286.000000,277.000000,9.000000,22.000000,11.000000,0.000000,0.316516,0.338539,0.069722,0.170432,0.023241,286.000000,277.000000,9.000000,22.000000,11.000000,0.000000:
// measure 0
0000
0000
0000
0000
,  // measure 1
0000
0000
0000
0000
,  // measure 2
0000
0000
0000
0000
,  // measure 3
0000
0000
0000
1001
,  // measure 4
1001
0000
0001
0100
0010
0000
1000
0100
,  // measure 5
0010
0002
2000
0000
3003
0000
1001
0000
,  // measure 6
1001
0000
0001
0010
0100
0000
1000
0010
,  // measure 7
0100
0001
1000
1001
,  // measure 8
1001
0000
0001
0010
0100
0000
1000
0100
,  // measure 9
0010
0001
0010
0100
1000
0000
1001
0000
,  // measure 10
1001
0000
0001
0100
0001
0000
1000
0100
,  // measure 11
1000
0000
0001
0010
0001
0000
1000
1000
,  // measure 12
0001
1000
0001
0100
0010
1000
0010
0100
,  // measure 13
0001
1000
0010
1000
0002
0000
1000
0000
,  // measure 14
0103
0001
0100
0010
1000
0010
1000
0001
,  // measure 15
0020
0230
0320
0032
,  // measure 16
0103
0010
1000
0010
0100
0001
1000
0001
,  // measure 17
1000
0100
1000
0010
0100
0001
0100
0010
,  // measure 18
2000
3100
0M02
0103
,  // measure 19
2M00
0000
3010
0000
00M2
0000
0013
0010
,  // measure 20
0001
0010
0001
0000
0100
0000
0100
0000
0010
0000
1000
0000
0100
0000
1000
0000
,  // measure 21
0010
1000
0010
0000
0100
0000
0100
0000
0001
0000
1000
0000
0010
0000
1000
0000
,  // measure 22
0001
0100
0001
0000
1000
0000
1000
0000
0100
0000
0010
0000
0001
0000
0010
0000
,  // measure 23
0200
0000
0000
0000
0300
0000
0100
0100
,  // measure 24
1000
0010
1000
0000
0010
0000
0100
0000
0001
0000
0010
0000
0001
0000
1000
0000
,  // measure 25
0100
1000
0100
0000
1000
0000
0001
0000
0100
0000
0010
0000
0100
0000
0001
0000
,  // measure 26
0010
0100
0010
0000
0100
0000
1000
0000
0100
0000
0010
0000
0001
0000
0100
0000
,  // measure 27
0002
0000
0000
0000
0003
0000
0100
0100
,  // measure 28
0100
0010
1000
0001
0100
0010
1000
0001
,  // measure 29
1000
0001
0010
0100
1000
0001
0010
0100
,  // measure 30
1000
0001
0100
0010
1000
0001
0100
0010
,  // measure 31
2000
3200
2300
3200
,  // measure 32
1300
0010
0100
0001
1000
0010
0100
0001
,  // measure 33
0010
0001
1000
0100
0010
0001
1000
0100
,  // measure 34
M001
0100
1000
0010
1000
0001
0100
0010
,  // measure 35
2000
0000
3002
0000
0203
0000
0301
0001
,  // measure 36
1000
0010
0100
0001
0010
0100
1000
1000
,  // measure 37
0001
0100
0010
1000
0100
0010
0100
0100
,  // measure 38
1000
0001
0100
0001
1000
0100
1000
1000
,  // measure 39
0001
1000
0010
1000
0001
0100
0010
0010
,  // measure 40
0100
0001
0010
0100
1000
0010
0100
0100
,  // measure 41
0001
0010
0100
1000
0010
0100
0001
0001
,  // measure 42
0010
0001
0100
0010
1000
0100
0010
0010
,  // measure 43
0001
0100
0010
1000
0010
0100
0001
0000
,  // measure 44
2M02
0000
0000
00M0
0000
0000
0M00
0000
,  // measure 45
00M0
0000
0000
0M00
0000
0000
00M0
0000
,  // measure 46
3M03
0000
0000
0000
;

//---------------dance-single - ----------------
#NOTES:
     dance-single:
     :
     Easy:
     7:
     0.161578,0.195996,0.061975,0.131697,0.000000,146.000000,138.000000,8.000000,17.000000,0.000000,0.000000,0.161578,0.195996,0.061975,0.131697,0.000000,146.000000,138.000000,8.000000,17.000000,0.000000,0.000000:
// measure 0
0000
0000
0000
0000
,  // measure 1
0000
0000
0000
0000
,  // measure 2
0000
0000
0000
0000
,  // measure 3
0000
0000
0000
0000
,  // measure 4
0001
1000
0010
1000
,  // measure 5
0001
0010
0000
0010
,  // measure 6
0001
1000
0100
0010
,  // measure 7
0100
0000
0000
1000
,  // measure 8
0001
1000
0010
0010
,  // measure 9
0100
0100
0001
1000
,  // measure 10
0001
0100
0010
0000
,  // measure 11
1000
0100
0010
0001
,  // measure 12
2000
0000
3100
0100
,  // measure 13
1100
0000
1100
0000
,  // measure 14
0002
0000
0103
0100
,  // measure 15
0101
0000
0101
0000
,  // measure 16
2000
0000
3010
0010
,  // measure 17
1010
0000
1010
0000
,  // measure 18
0022
0000
0000
0033
,  // measure 19
2002
0000
0000
3003
,  // measure 20
0001
0000
0001
0000
0001
0100
0001
0000
,  // measure 21
1000
0000
1000
0000
1000
0100
1000
0000
,  // measure 22
0001
0000
0001
0000
0001
0100
0001
0000
,  // measure 23
2000
0000
0000
3000
,  // measure 24
1000
0000
1000
0000
1000
0100
0010
0000
,  // measure 25
0001
0000
0001
0000
0001
0100
0010
0000
,  // measure 26
1000
0000
1000
0000
1000
0010
0100
0000
,  // measure 27
0002
0000
0000
0003
,  // measure 28
0010
0001
0010
0001
,  // measure 29
1000
0100
1000
0100
,  // measure 30
1000
0001
1000
0001
,  // measure 31
2000
0000
3002
0000
,  // measure 32
1003
0010
1000
0010
,  // measure 33
0100
0001
0100
0001
,  // measure 34
1000
0100
1000
0100
,  // measure 35
2000
0000
3002
0000
,  // measure 36
1003
0010
0100
0010
,  // measure 37
1000
0100
0010
0100
,  // measure 38
1000
0001
0100
0001
,  // measure 39
2000
3000
2000
3000
,  // measure 40
0001
1000
0010
1000
,  // measure 41
0001
0010
0100
0010
,  // measure 42
0001
0100
0010
0100
,  // measure 43
0002
0003
0002
0003
,  // measure 44
1000
0000
0010
0000
,  // measure 45
0100
0000
0001
0000
,  // measure 46
1000
0000
0000
0000
;
