#TITLE:G59;
#SUBTITLE:;
#ARTIST:怒れる金の獅子;
#TITLETRANSLIT:;
#SUBTITLETRANSLIT:;
#ARTISTTRANSLIT:Ikareru kin no shishi;
#GENRE:EXPERIMENTAL MUSIC;
#CREDIT:;
#MUSIC:G59.ogg;
#BANNER:G59.png;
#BACKGROUND:G59-bg.png;
#CDTITLE:;
#SAMPLESTART:56.800;
#SAMPLELENGTH:15.000;
#SELECTABLE:YES;
#OFFSET:1.075;
#BPMS:0.000=170.000;
#STOPS:;
#BGCHANGES:4.700=G59.mp4=1.000=0=0=1,
999.000=G59-bg.png=1.000=0=0=1,
99999.000=-nosongbg-=1.000=0=0=0=StretchNoLoop====
;
#FGCHANGES:;

//--------------- dance-single - forcednature ----------------
#NOTES:
     dance-single:
     forcednature:
     Beginner:
     7:
     0,0,0,0,0:
0000
0000
0000
0000
,
0000
0000
0000
0000
,
0000
0000
0000
0000
,
0000
0000
0000
0000
,
0000
0000
0000
0000
,
0000
0000
0000
0000
,
0000
0000
0000
0000
,
0000
0000
0000
0000
,
0000
0000
0000
0000
,
0001
0000
0001
0000
,
0001
0000
0010
0100
,
1000
0000
1000
0000
,
1000
0000
0010
0100
,
0001
0000
0010
0100
,
1000
0001
1000
0010
,
0200
0000
0000
0300
,
2002
0000
0000
3003
,
1000
0000
0100
0000
,
1000
0000
0010
0000
,
0100
0001
0100
0000
,
0010
1000
0010
0000
,
1000
0100
1000
0000
,
0001
0010
0001
0000
,
0100
0000
0010
0000
,
1000
0000
0001
0010
,
0100
0000
0000
0100
0000
0000
0100
0000
,
0000
0100
0000
0000
1000
0000
0001
0000
,
0100
0000
0000
0100
0000
0000
0100
0000
,
0000
0100
0000
0000
0010
0000
1001
0000
,
1000
0000
0000
1000
0000
0000
1000
0000
,
0000
1000
0000
0000
0100
0000
0010
0000
,
0001
0000
0000
0001
0000
0000
0001
0000
,
0000
0001
0000
0000
0100
0000
0010
0000
,
1000
0000
1000
0000
,
1000
0000
0100
0010
,
0001
0000
0001
0000
,
0001
0000
0100
0010
,
1000
0000
1000
0000
,
1000
0000
0100
0010
,
0100
0000
1000
0001
,
1000
0000
0010
0100
,
0010
0000
0000
1000
0000
0000
0010
0000
,
0000
1000
0000
0000
0001
0000
1000
0000
,
0001
0000
0000
0010
0000
0000
0001
0000
,
0000
0010
0000
0000
0100
0000
1001
0000
,
1000
0000
0000
0100
0000
0000
1000
0000
,
0000
0100
0000
0000
0010
0000
0001
0000
,
0100
0000
0000
0001
0000
0000
0100
0000
,
0000
0001
0000
0000
0010
0000
0100
0000
,
2002
0000
0000
0000
,
3003
0000
0000
0000
,
1000
0100
1000
0010
,
0100
0001
0010
0001
,
0100
0010
1000
0001
,
0010
0100
1000
0000
,
0010
0100
0001
0000
,
1000
0100
0010
0010
,
0001
1000
0010
0100
,
0001
0010
0001
1000
,
0001
0000
0100
0100
,
0010
1000
0100
1000
,
0010
0100
0001
0010
,
0100
1000
0100
0010
,
0001
0100
0010
0010
,
1000
0001
1000
0100
,
0010
0000
0000
0000
0001
0000
0000
0000
1000
0000
0000
0001
0000
0000
1000
0000
,
0001
0000
0000
1000
0000
0000
0001
0000
1000
0000
0000
0001
0000
0000
1000
0000
,
0020
0000
0000
0030
,
2002
0000
0000
3003
,
1000
0100
0000
0100
,
0000
0100
0010
0010
,
0001
0100
0000
0100
,
0000
0100
0010
0010
,
1000
0001
0000
0001
,
0010
0100
1000
1000
,
0001
0001
0100
0100
,
0010
1000
0001
0010
,
0100
0000
0000
0010
0000
0000
0100
0000
,
0000
0010
0000
0000
0001
1000
0001
1000
,
0010
0000
0000
0100
0000
0000
0010
0000
,
0000
0100
0000
0000
0001
1000
0001
0000
,
1000
0000
0000
0100
0000
0000
0010
0000
,
0000
0001
0000
0000
0100
0010
1000
0001
,
0010
0000
0000
0100
0000
0000
1000
0000
,
0000
0001
0000
0000
0100
0001
1000
0100
,
0020
0000
0000
0030
,
0002
0003
2000
3000
,
2002
0000
0000
0000
,
0000
0000
0000
3003
;

//--------------- dance-single - forcednature ----------------
#NOTES:
     dance-single:
     forcednature:
     Easy:
     11:
     0,0,0,0,0:
0000
0000
0000
0000
,
0000
0000
0000
0000
,
0000
0000
0000
0000
,
0000
0000
0000
0000
,
0000
0000
0000
0000
,
0000
0000
0000
0000
,
0000
0000
0000
0000
,
0000
0000
0000
2002
0000
0000
0000
0000
0000
0000
0000
0000
0000
0000
0000
0000
0000
0000
0000
0000
0000
0000
0000
0000
0000
0000
0000
0000
0000
0000
0000
0000
,
0000
0000
3003
0000
,
1000
0001
1000
0001
,
1000
0000
0000
0000
0001
0000
0000
0000
0100
0000
0000
0010
0000
0000
0100
0000
,
0001
1000
0001
1000
,
0001
0000
0000
0000
1000
0000
0000
0000
0100
0000
0000
0010
0000
0000
0100
0000
,
1000
0000
0000
0000
0001
0000
0000
0000
0010
0000
0000
0100
0000
0000
0010
0000
,
0001
0000
0000
1000
0000
0000
0001
0000
0100
0000
0000
0010
0000
0000
0100
0000
,
0002
0000
0000
0000
,
2000
0000
0000
3003
,
1000
0100
1000
0000
0010
0000
0100
0000
,
0001
0010
0001
0000
1000
0010
1000
0000
,
0001
0020
0100
0031
,
1000
0000
0010
0000
0100
0001
0100
0001
,
0010
0200
1000
0310
,
0001
2000
3020
0230
,
0302
0000
1003
0100
1000
0001
0100
0001
,
0020
0000
0130
1000
,
0001
0000
1000
0100
0000
1000
0010
0000
,
1000
0001
0000
1000
0100
1000
0010
1000
,
0001
0000
0100
0001
0000
0010
0001
0000
,
1000
0001
0000
0100
0001
0010
0001
0000
,
0100
0000
1000
0100
0000
0001
0100
0000
,
0010
0100
0000
1000
0100
0001
0100
0010
,
0100
0000
0001
1000
0000
0100
0010
0000
,
0001
1000
0000
0010
0100
0001
1000
0010
,
0100
0001
0100
0000
0001
0100
0001
0000
,
0100
0000
0001
0000
0100
0000
0000
0000
0010
0000
0000
1000
0000
0000
1000
0000
,
0100
1000
0100
0000
1000
0100
1000
0000
,
0100
0000
1000
0000
0100
0000
0000
0000
0010
0000
0000
0001
0000
0000
0001
0000
,
0100
0001
0100
0000
0001
0100
0001
0000
,
0100
0000
0001
0000
0100
0000
0000
0000
0010
0000
0000
1000
0000
0000
1000
0000
,
0001
0000
0000
0010
0000
0000
0010
0000
0100
0000
0000
1000
0000
0000
1000
0000
,
0001
0000
0000
0100
0000
0000
0100
0000
0010
0000
0000
0000
0010
0000
0000
0000
,
1000
0100
0010
0001
0010
0100
1000
0100
,
0010
0001
0010
0100
1000
0001
1000
0001
,
1000
0010
0100
0001
0100
0010
1000
0010
,
0100
0001
0100
0010
1000
0001
0010
0000
,
0100
1000
0001
0100
0001
1000
0100
1000
,
0001
0100
0001
1000
0010
0100
0010
0100
,
0001
0010
0001
1000
0010
1000
0001
0010
,
0001
1000
0010
1000
0100
0010
0100
0010
,
0002
0000
0000
0000
,
2000
0000
0000
3003
,
0001
0100
0010
1000
0001
0010
0100
0000
,
0010
0001
1000
0010
0100
0001
1000
0000
,
0100
0010
0001
0100
0010
1000
0001
0000
,
0010
0100
1000
0010
0200
0000
0000
0000
,
0301
0010
0001
0100
0001
2000
0000
0000
,
3010
0000
1000
0000
0001
0000
1000
0000
0100
0000
0000
0100
0000
0000
0100
0000
,
0010
0001
0010
0100
1000
0001
0100
0000
,
0010
1000
0001
0010
0100
1000
0010
0000
,
0200
0000
0000
0000
0000
0000
0000
0000
0301
0000
0000
0001
0000
0000
0001
0000
,
1000
0100
1000
0010
1000
0100
0010
0001
,
0001
0100
0001
0010
0001
0100
0010
1000
,
1000
0100
1000
0010
1000
0100
0010
0001
,
0100
0000
0010
0000
1000
0000
0001
0000
0010
0000
0000
0010
0000
0000
0010
0000
,
0100
1000
0001
0100
0010
1000
0001
0010
,
0001
0000
1000
0000
0010
0000
0100
0000
0001
0000
0000
1000
0000
0000
0001
0000
,
1000
0000
0000
0100
0000
0000
1000
0000
0001
0000
0000
0100
0000
0000
0001
0000
,
0020
0000
0000
0000
,
0200
0000
0000
0330
,
0001
0100
0001
0000
1000
0010
1000
0000
,
0001
0000
0100
0000
0001
0000
0000
0000
0010
0000
0000
0010
0000
0000
0100
0000
,
1000
0100
1000
0000
0001
0010
0001
0000
,
1000
0000
0100
0000
1000
0000
0000
0000
0010
0000
0000
0100
0000
0000
0100
0000
,
0001
0010
0001
0000
1000
0010
1000
0000
,
0100
0010
0001
1000
0010
0100
0001
1000
,
0100
1000
0001
0100
0010
1000
0001
0000
,
0010
0100
0010
0100
1000
0000
0001
0000
,
0100
0001
1000
0010
1000
0001
0100
0001
,
1000
0010
1000
0001
1000
0100
1000
0100
,
0010
0001
0100
0010
1000
0100
0010
0001
,
0100
0010
1000
0100
0010
0001
1000
0000
,
0010
0100
1000
0100
0001
1000
0010
0100
,
1000
0100
0001
1000
0100
0010
0100
0010
,
0001
1000
0100
0001
0100
0010
0001
1000
,
0100
0001
0100
0010
0001
1000
0001
1000
,
0020
0000
0000
0030
,
0202
0303
2200
3300
,
0220
0330
2002
0000
,
0000
0000
0000
3003
;

//--------------- dance-single - forcednature ----------------
#NOTES:
     dance-single:
     forcednature:
     Medium:
     14:
     0,0,0,0,0:
0000
0000
0000
0000
,
0000
0000
0000
0000
,
0000
0000
0000
0000
,
0000
0000
0000
0000
,
0000
0000
0000
0000
,
0000
0000
0000
0000
,
0000
0000
0000
0000
,
0000
0000
0000
2002
0000
0000
0000
0000
0000
0000
0000
0000
0000
0000
0000
0000
0000
0000
0000
0000
0000
0000
0000
0000
0000
0000
0000
0000
0000
0000
0000
0000
,
0000
0000
3003
0000
,
1000
1000
1000
1000
,
1000
0000
0000
0000
1000
0000
0000
0000
1100
0000
0000
1000
0000
0000
0001
0000
,
0101
0001
0001
0001
,
0001
0000
0000
0000
0001
0000
0000
0000
0011
0000
0000
0001
0000
0000
1000
0000
,
1010
0000
0000
0000
1000
0000
0000
0000
1100
0000
0000
1000
0000
0000
0010
0000
,
0101
0000
0000
0001
0000
0000
0010
0000
0110
0000
0000
1000
0000
0000
0001
0000
,
0220
0000
0000
0330
,
2002
0000
0000
3003
,
0001
0100
0010
1000
0001
0100
0010
1000
,
0001
0010
0100
1000
0001
0010
1000
0010
,
0100
1000
0002
0000
1000
0000
0010
0000
,
0103
0001
2000
0000
0100
0100
0001
3001
,
1000
1000
0020
0000
0001
0000
0100
0000
,
1030
0010
0100
0001
1000
0100
0010
0001
,
0100
0010
1000
0001
0010
0001
1000
0010
,
0200
0000
1000
0000
0301
0100
0001
0100
,
0010
1000
0100
0010
0001
0100
0010
1000
,
0100
0010
0001
0100
1000
0100
0001
0100
,
0010
0000
1000
0000
0001
0010
0100
0000
1000
0000
0001
0000
0100
0000
0001
0000
,
1000
0000
0100
0000
0010
0000
0001
0000
1000
0000
0001
0100
0010
0000
0000
0000
,
1000
0100
0001
0100
1000
0010
1000
0100
,
0001
0100
1000
0010
0100
1000
0100
0001
,
0010
0000
0100
0000
1000
0001
0100
0000
0010
0000
0001
0000
0010
0000
1000
0000
,
0001
0000
0010
0000
0100
0000
0010
0000
0001
0000
0100
0001
0100
0000
0100
0000
,
0010
1000
0100
1000
0010
1000
0100
1000
,
0010
0000
1000
0000
0100
0000
1000
0000
0010
0000
0000
0100
0000
0000
0110
0000
,
0001
0010
0001
0100
0001
0010
0001
0100
,
0001
0010
0001
0100
0010
0010
0100
0100
,
0001
0010
1000
0010
0001
0010
1000
0010
,
0001
0000
0010
0000
1000
0000
0010
0000
0100
0000
0000
1000
0000
0000
1100
0000
,
0010
0000
0000
0001
0000
0000
0011
0000
1000
0000
0000
0010
0000
0000
1010
0000
,
0001
0000
0000
0100
0000
0000
0101
0000
1000
0000
1000
0000
0001
0000
0001
0000
,
1000
0100
0001
1000
0010
0001
1000
0100
,
0001
1000
0010
0001
1000
0010
0001
0010
,
0100
1000
0001
0010
1000
0001
0100
1000
,
0001
0000
0010
0000
1000
0000
0001
0000
0010
0000
0100
1000
0001
0000
0000
0000
,
1000
0010
0001
1000
0100
0001
1000
0010
,
0001
1000
0100
0001
0010
1000
0010
0001
,
0100
1000
0001
0010
1000
0001
0100
1000
,
0001
0000
0010
0000
1000
0000
0001
0000
0010
0000
1000
0000
0010
0001
0010
0000
,
0200
0000
0000
0000
,
0020
0000
0000
0330
,
1000
0100
1000
0000
0010
0000
0100
0000
0001
0000
0010
0000
0100
0000
1000
0000
,
0001
0100
0001
0000
0010
0000
0100
0000
1000
0000
0010
0000
0100
0000
0001
0000
,
0010
0100
0010
0000
0001
0000
0100
0000
0001
0000
0010
0000
0100
0000
1000
0000
,
0010
0100
0010
0000
1000
0000
0001
0000
0020
0000
0000
0000
0000
0000
0130
0000
,
1000
0001
1000
0000
0010
0000
0100
0000
0001
0000
2000
0000
0000
0000
0000
0000
,
3001
1000
0001
0000
0010
0000
0100
0000
1000
0000
0000
0101
0000
0000
1010
0000
,
0001
0010
0001
0000
1000
0000
0010
0000
0001
0000
0010
0000
0100
0000
0001
0000
,
1000
0010
1000
0000
0001
0000
0010
0000
1000
0000
0010
0000
0001
0000
0010
0000
,
0200
0000
0000
0000
0000
0000
0000
0000
0310
0000
0000
0110
0000
0000
1001
0000
,
1000
0010
1000
0010
0100
0000
0001
0100
0010
0000
1000
0000
0100
0000
0010
0000
,
0001
0010
0001
0010
0100
0000
1000
0100
0010
0000
0001
0000
0100
0000
0010
0000
,
1000
0001
1000
0001
0010
0000
0100
1000
0001
0000
0100
0000
1000
0000
0100
0000
,
0001
0000
0100
0000
1000
0000
0100
0000
0010
0000
0000
0110
0000
0000
1001
0000
,
1000
0100
0010
0001
1000
0000
0001
0010
0100
0000
1000
0000
0010
0000
1000
0000
,
0001
0100
0010
1000
0001
0000
1000
0000
1001
0000
0000
1100
0000
0000
0011
0000
,
1001
0000
0000
0101
0000
0000
1010
0000
0110
0000
0000
1001
0000
0000
0110
0000
,
0002
0000
0000
0000
,
2000
0000
0000
3003
,
1000
0000
0100
0000
0010
0000
0001
1000
0001
0000
0100
0000
0010
0000
1000
0001
,
1000
0000
0100
0000
0010
0000
0001
1000
0001
0000
0000
0101
0000
0000
1010
0000
,
0001
0000
0100
0000
0001
0000
0010
0100
0010
0000
0001
0000
1000
0000
0010
0100
,
0010
0000
1000
0000
0001
0000
0010
0100
1000
0000
1000
0000
0001
0000
0001
0000
,
0100
0000
1000
0000
0100
0000
0010
1000
0010
0000
0100
0000
0001
0000
0010
0001
,
0010
0000
0100
0000
0001
0000
0100
0000
1000
0000
1000
0010
0000
0010
0100
0000
,
0001
0000
0001
0010
0000
0010
0100
0000
1000
0000
0001
0100
0000
0010
1000
0000
,
0001
0000
1000
0100
0000
0010
0001
0000
0100
0000
0100
0000
0010
0000
0010
0000
,
0101
0100
0010
1010
0010
0100
0101
0001
,
1000
1100
1000
0001
0010
1000
0010
0001
,
1001
0000
1000
0000
0010
0100
0001
0000
0010
0000
0100
0000
1100
0000
0100
0000
,
0010
0000
0011
0000
0001
0000
1000
0000
0010
0000
0100
0001
0010
0000
0100
0000
,
1100
1000
0001
0101
0001
1000
1010
0010
,
0100
0101
0001
0010
0100
0001
0100
1000
,
1001
0000
0001
0000
0100
0010
1000
0000
0100
0000
0010
0000
0011
0000
0001
0000
,
0100
0000
0110
0000
0010
0000
1000
0000
0100
0000
0010
0000
0001
1000
0001
1000
,
0020
0000
0000
0030
,
0202
0303
2200
3300
,
0220
0330
2002
0000
,
0000
0000
0000
3003
;

//--------------- dance-single - forcednature ----------------
#NOTES:
     dance-single:
     forcednature:
     Hard:
     17:
     0,0,0,0,0:
0000
0000
0000
0000
,
0000
0000
0000
0000
,
0000
0000
0000
0000
,
0000
0000
0000
0000
,
0000
0000
0000
0000
,
0000
0000
0000
0000
,
0000
0000
0000
0000
,
0000
0000
0000
2002
0000
0000
0000
0000
0000
0000
0000
0000
0000
0000
0000
0000
0000
0000
0000
0000
0000
0000
0000
0000
0000
0000
0000
0000
0000
0000
0000
0000
,
0000
0000
3003
0000
,
0001
0000
0000
0100
0001
0000
0000
0100
0001
0000
0000
0100
0001
0000
0000
0100
,
0001
0000
0000
0100
0001
0000
0000
0100
0010
0000
0000
0110
0000
0000
1001
0000
,
1100
0000
0000
1000
0100
0000
0000
1000
0100
0000
0000
1000
0100
0000
0000
1000
,
0100
0000
0000
1000
0100
0000
0000
1000
0100
0000
0000
0110
0000
0000
1001
0000
,
0011
0000
0000
0001
0010
0000
0000
0001
0010
0000
0000
0110
0000
0000
1001
0000
,
1100
0000
0000
0011
0000
0000
1001
0000
0101
0000
0000
1010
0000
0000
1001
0000
,
0220
0000
0000
0330
,
2002
0000
0000
3003
,
1200
0010
1000
0310
,
0012
1003
0201
0310
,
1001
0000
0000
1000
0200
0000
0000
0000
0001
0000
0000
0000
1300
0000
0000
0000
,
1001
0000
0000
0001
0020
0000
0000
0000
1000
0000
0100
0000
0100
0000
0031
0000
,
0110
0000
0000
0001
2000
0000
0000
0000
0100
0000
0000
0000
3010
0000
0000
0000
,
1000
0000
0000
1000
0100
0000
0010
0000
0001
0100
0001
0000
1000
0100
1000
0000
,
0001
0010
0001
0000
1000
0010
1000
0010
0100
0001
0100
0001
1000
0100
0010
0001
,
0200
0000
0010
0000
0301
0001
1000
1000
,
1001
0000
1000
1100
0000
0001
0101
0000
,
1000
1010
0000
0001
0011
0010
0110
0100
,
1100
0000
0000
0000
1000
0001
0100
0000
0000
0000
0010
0000
1010
0000
0000
0000
,
0100
0000
0000
0101
0000
0000
0000
0000
0000
0001
0000
0000
1000
0000
0000
0001
0010
0100
2000
0000
0000
0000
0000
0000
,
3100
0000
0010
0011
0000
0100
1100
0000
,
0010
1010
0000
0100
0101
0001
1001
1000
,
1010
0000
0000
0000
0001
0010
0100
0000
0000
0000
1000
0000
1010
0000
0000
0000
,
0001
0000
0011
0000
0000
0000
0100
0000
0001
0000
1000
0100
0010
0001
0010
0001
,
1000
0000
0001
0100
0001
0000
1000
0010
1000
0000
0001
0100
0001
0000
1000
0010
,
1000
0000
0001
0100
0001
0000
1000
0010
2000
0000
0000
0100
0000
0000
0010
0000
,
3001
0000
1000
0100
1000
0000
0001
0010
0001
0000
1000
0100
1000
0000
0001
0010
,
0001
0000
1000
0100
1000
0000
0001
0010
0100
0000
0100
0001
0100
0000
0100
0000
,
1001
0000
0001
1000
0100
0000
1000
0001
0100
0000
0001
1000
0100
0000
1000
0001
,
0100
0000
0001
1000
0100
0000
1000
0001
0010
0000
0001
1000
0000
0001
0100
0000
,
0010
0000
1000
0001
0000
1000
0100
0000
0010
0000
0001
0100
0000
0010
1000
0000
,
0100
0000
0010
0001
0000
1000
0100
0000
0010
0000
0001
1000
0010
0000
0010
1000
,
0100
1000
0010
0101
0001
0010
1100
1000
,
0010
0101
0001
0010
0011
1100
0011
1100
,
1010
0000
0001
0000
1000
0010
0001
0000
0010
0000
0100
0000
0101
0000
1000
0000
,
0010
0000
0000
1100
0000
0000
0001
0000
0000
0010
0000
0000
1001
0000
0000
0001
0100
0010
1000
0000
0000
0000
0000
0000
,
0011
1000
0100
1010
0001
0100
0011
1000
,
0100
1010
0001
0100
1010
0101
1010
0101
,
0011
0000
1000
0000
0001
0010
1000
0000
0010
0000
0100
0000
1010
0000
0001
0000
,
0100
0000
0011
0000
1000
0000
0100
0000
0010
0000
0001
1000
0001
0100
0010
1000
,
0100
1000
0010
0100
0001
0010
0100
1000
0001
0100
0001
1000
,
0020
0000
0000
0030
,
0100
0001
1000
0001
0010
0000
0100
1000
0001
0000
0100
0001
1000
0000
0010
0000
,
0100
0001
0100
0010
1000
0000
0001
0010
0100
0000
1000
0100
0010
0000
0001
0000
,
1000
0010
0100
0001
1000
0000
0001
0010
0100
0000
1000
0001
0100
0000
0010
0000
,
1000
0100
1000
0100
0010
0000
0001
0000
0200
0000
0000
0000
0000
0000
0310
0000
,
0010
1000
0001
1000
0100
0000
0100
0010
0001
0000
0002
0000
0000
0000
0000
0000
,
0103
0001
1000
0010
0100
0000
0001
0000
1001
0000
0000
0110
0000
0000
1001
0000
,
1000
0100
0010
0001
1000
0000
0010
0100
0001
0000
0010
0100
1000
0000
0001
0000
,
0100
0001
1000
0001
0010
0000
0100
1000
0001
0000
0100
0001
1000
0000
0100
1000
,
0020
0000
0000
0000
0000
0000
0030
0000
1001
0000
0000
0110
0000
0000
1001
0000
,
1000
0100
0010
0001
0010
0100
1000
0001
0100
0001
1000
0010
0100
0001
1000
0001
,
0010
0100
1000
0100
0010
0001
1000
0010
0100
0001
1000
0100
1000
0001
0100
0010
,
1000
0100
0010
0001
1000
0001
0100
0010
1000
0100
0010
0001
1000
0100
0010
0001
,
0010
0100
1000
0100
0010
0001
1000
0001
0100
0000
0000
0110
0000
0000
1001
0000
,
0001
0010
0100
1000
0010
1000
0100
0010
0001
1000
0010
1000
0100
0010
0001
1000
,
0010
0100
0001
0100
0010
1000
0100
0010
0001
0000
0100
1000
0000
0100
0001
0000
,
0110
0000
1000
0100
0000
0001
0100
0000
1001
0000
0001
0010
0000
1000
0010
0000
,
0100
0000
0000
0000
1000
0000
0000
0000
0001
0000
0000
0000
0100
0000
0000
0000
0001
0000
0000
0000
1000
0000
0000
0000
0100
0000
0000
0000
0010
0000
0000
0000
0001
0000
0000
0000
1000
0000
0000
0001
0000
0000
0100
0000
0000
0010
0000
0000
,
2000
0000
0002
3003
,
0001
0100
0010
0000
0001
0000
0010
0100
0001
0000
0010
0000
1000
0000
0010
0100
,
1000
0000
0010
0000
0001
0000
0010
1000
0200
0000
0000
0001
0000
0000
1300
0000
,
0100
0010
0001
0000
0100
0000
0010
1000
0001
0000
0010
0000
1000
0000
0010
0100
,
1000
0000
0010
0000
0001
0000
0010
1000
0100
0000
0100
0001
0100
0000
0100
1000
,
0100
0010
0001
0000
0100
0000
0010
1000
0001
0000
0100
0000
1000
0000
0100
0001
,
1000
0001
0010
0100
1000
0001
0100
0010
1000
0100
0010
0001
0100
0001
0010
0100
,
1000
0010
0100
0001
0010
0001
0100
0010
1000
0100
0010
0001
0010
0100
1000
0000
,
0001
0100
0010
1000
0001
0010
0100
1000
0100
0000
0100
0001
0100
0000
0100
0000
,
1100
0000
1000
0001
0010
0000
0101
0000
0001
1000
0010
0000
1010
0000
1000
0001
,
0100
0000
0011
0000
0001
1000
0100
0000
1100
0000
0011
0000
0101
0000
1010
0000
,
1001
0000
1000
0100
0001
0100
0010
0000
0001
1000
0010
0000
1100
0000
1000
0001
,
0010
0000
0000
0000
0000
0000
0101
0000
0000
0000
0000
0000
0001
0000
0000
1000
0000
0000
0100
0000
0000
0000
0000
0000
0110
0000
0000
0000
0000
0000
1000
0000
0100
0000
0010
0000
0001
0000
0000
0000
0000
0000
0100
0000
0000
0000
0000
0000
,
0110
0000
0010
1000
0100
0000
0110
0000
0010
0001
0100
0000
1010
0000
0001
0010
,
0100
0000
0011
0000
1000
0010
0100
0000
0101
0000
0011
0000
1100
0000
1010
0000
,
1001
0000
0001
0100
1000
0100
0010
0000
1000
0001
0010
0000
1100
0000
0001
1000
,
0010
0000
0000
0000
0000
0000
0101
0000
0000
0000
0000
0000
1000
0000
0000
0001
0000
0000
0100
0000
0000
0000
0000
0000
0010
0000
0000
0000
0000
0000
0100
0000
0001
0000
1000
0000
0001
0000
0000
0010
0000
0000
0100
0000
0000
1000
0000
0000
,
0010
0000
0100
0000
0001
0000
0010
0000
0100
0000
1000
0000
0001
0000
0100
0000
0010
0000
1000
0100
0010
0001
0010
0100
,
2000
3000
0220
0330
,
2002
0003
0010
0000
,
0000
0000
0000
3000
;

//--------------- dance-single - forcednature ----------------
#NOTES:
     dance-single:
     forcednature:
     Challenge:
     18:
     0,0,0,0,0:
0000
0000
0000
0000
,
0000
0000
0000
0000
,
0000
0000
0000
0000
,
0000
0000
0000
0000
,
0000
0000
0000
0000
,
0000
0000
0000
0000
,
0000
0000
0000
0000
,
0000
0000
0000
2002
0000
0000
0000
0000
0000
0000
0000
0000
0000
0000
0000
0000
0000
0000
0000
0000
0000
0000
0000
0000
0000
0000
0000
0000
0000
0000
0000
0000
,
0000
0000
3003
0000
,
1000
0000
0001
0010
0001
0000
1000
0100
1000
0000
0001
0010
0001
0000
1000
0100
,
1000
0000
0001
0010
0001
0000
1000
0100
1000
0000
0000
1010
0000
0000
0101
0000
,
1001
0000
1000
0010
1000
0000
0001
0100
0001
0000
1000
0010
1000
0000
0001
0100
,
0001
0000
1000
0010
1000
0000
0001
0100
0001
0000
0000
0011
0000
0000
1100
0000
,
1001
0000
1000
0100
0010
0000
0001
0010
0100
0000
0000
0110
0000
0000
1001
0000
,
0101
0000
0000
0011
0000
0000
1001
0000
1100
0000
0000
1010
0000
0000
1001
0000
,
0110
0000
1000
0000
0001
0000
0010
0000
0001
0000
0100
0000
0010
0000
1000
0000
0001
0000
1000
0100
0010
0001
0010
0100
,
2000
0000
0000
3000
,
0001
0100
0010
1000
0100
0010
0001
0100
,
0010
1000
0100
1000
0001
0010
0001
0100
,
0010
1000
0001
0100
0010
0000
1000
0000
0100
0000
0010
0000
0100
0000
1000
0000
,
0001
0010
0100
1000
0001
0000
0100
0000
0010
0000
0110
0000
0100
0000
0110
0000
,
0001
1000
0100
1000
0010
0000
0100
0000
0001
0000
0010
0000
0001
0000
0100
0000
,
0010
1000
0100
0010
0001
0000
0100
0001
1000
0010
1000
0001
1000
0100
0010
0001
,
0100
0010
0100
0001
1000
0100
1000
0001
1000
0100
0010
0001
0100
0010
1000
0001
,
0020
0000
1000
0000
0130
0110
0010
0110
,
1100
0001
0010
0101
1000
0010
1100
0001
,
0010
0101
1000
0010
1100
1010
0101
0011
,
1001
0000
0001
0000
1000
0100
0100
0000
0001
0000
0010
0000
0110
0000
1000
0000
,
0010
0000
0000
0110
0000
0000
0100
0000
0000
0001
0000
0000
1000
0000
0000
0001
0010
0100
1000
0000
0000
0000
0000
0000
,
0101
1000
0010
1100
0001
0010
0110
1000
,
0001
0110
0001
1000
1010
1100
0011
0101
,
1001
0000
1000
0000
0001
0100
0100
0000
1000
0000
0010
0000
0101
0000
0001
0000
,
0010
0000
0000
0000
0000
0000
1100
0000
0000
0000
0000
0000
1000
0000
0000
0000
0000
0000
0010
0000
0000
0000
0000
0000
0110
0000
0000
0000
0000
0000
0100
0000
0001
0000
1000
0000
0100
0000
0000
0010
0000
0000
0100
0000
0000
0010
0000
0000
,
0001
0100
0010
1000
0001
0100
0010
1000
0001
0100
0010
1000
0001
0100
0010
1000
,
0001
0100
0010
1000
0001
0100
0010
1000
0100
0000
0000
0110
0000
0000
1001
0000
,
1000
0100
0010
0001
1000
0100
0010
0001
1000
0100
0010
0001
1000
0100
0010
0001
,
1000
0100
0010
0001
1000
0100
0010
0001
0100
0000
0100
1000
0100
0000
0100
0001
,
0100
0010
1000
0001
0100
0010
1000
0001
0100
0010
1000
0001
0100
0010
1000
0001
,
0100
0010
1000
0001
0100
0010
1000
0001
0010
0000
0100
0001
0000
0100
1000
0000
,
0010
0000
0001
0010
0000
1000
0001
0000
0010
0000
0100
0001
0000
0100
1000
0000
,
0010
0000
0100
1000
0000
0100
0001
0000
0010
0000
0010
0100
1000
0000
1000
0000
,
1001
0000
0001
0100
0010
0000
1001
0000
1000
0100
0010
0000
1100
0000
0001
1000
,
0010
0000
0101
0000
1000
0001
0010
0000
1100
0000
0011
0000
1100
0000
0011
0000
,
1001
0000
0001
1000
0100
0100
0001
0000
0010
0001
0100
0000
0110
0000
0010
1000
,
0100
0000
0000
0000
0000
0000
0110
0000
0000
0000
0000
0000
0010
0000
0000
0001
0000
0000
1000
0000
0000
0000
0000
0000
1010
0000
0000
0000
0000
0000
0001
0000
0010
0000
0100
0000
1000
0000
0000
0000
0000
0000
0000
0000
0000
0000
0000
0000
,
0101
0000
1000
0001
0010
0000
1100
0000
0001
1000
0010
0000
0110
0000
1000
0100
,
0001
0000
0110
0000
0001
0100
1000
0000
0101
0000
1010
0000
0101
0000
1010
0000
,
1001
0000
1000
0001
0100
0100
1000
0000
0010
0100
0001
0000
0011
0000
0010
0100
,
1000
0000
0000
0000
0000
0000
1010
0000
0000
0000
0000
0000
0001
0000
0000
1000
0000
0000
0100
0000
0000
0000
0000
0000
0110
0000
0000
0000
0000
0000
0010
0000
0001
0000
1000
0000
0010
0000
0000
0100
0000
0000
0010
0000
0000
0100
0000
0000
,
0001
0010
0001
0100
0010
1000
0100
1000
0010
0100
0001
1000
,
0200
0000
0000
0300
,
0010
0001
0100
0010
0100
0010
1000
0001
0100
0001
0100
0010
1000
0001
0010
0001
,
0100
0010
0100
0001
1000
0100
1000
0010
0100
0001
0010
0100
0010
0001
1000
0100
,
0010
0001
0100
0001
0010
0100
1000
0100
0010
0001
1000
0100
1000
0010
0100
0010
,
0100
0001
1000
0100
0010
0100
1000
0001
0200
0000
0000
0000
0000
0000
0310
0000
,
0010
1000
0001
1000
0100
0010
0001
0100
0010
0000
0020
0000
0000
0000
0000
0000
,
0130
0001
1000
0001
0010
0100
1000
0010
0100
0000
0000
0110
0000
0000
1001
0000
,
0001
0100
0010
0100
0001
1000
0100
1000
0001
0010
0100
0010
0001
1000
0010
0100
,
0001
0100
0010
1000
0100
1000
0010
0100
0010
1000
0100
0010
0100
1000
0001
0100
,
0020
0000
0000
0000
0000
0000
0030
0000
0110
0000
0000
1001
0000
0000
0110
0000
,
1000
0100
0010
0001
0100
0010
1000
0001
0010
1000
0010
0001
1000
0001
0100
0010
,
1000
0001
0100
0010
0001
0010
0100
0001
1000
0100
0010
0100
1000
0001
0100
0010
,
0100
1000
0100
0001
1000
0100
0010
0001
0100
0010
1000
0001
0010
0100
1000
0100
,
0001
0100
0010
0001
1000
0010
0100
0001
0010
0000
0000
0110
0000
0000
1001
0000
,
0001
0100
0010
1000
0010
0001
0010
0100
0001
1000
0100
0010
0100
0001
0100
1000
,
0010
0100
0001
1000
0010
0001
0010
1000
0100
0000
0010
0001
0000
0100
1000
0000
,
0110
0000
0010
1000
0000
0100
0001
0000
0110
0000
0001
0100
0000
1000
0100
0000
,
0010
0000
1000
0000
0100
0000
1000
0000
0001
0000
0010
0000
0001
0000
0100
0000
0010
0000
1000
0100
0010
0001
1000
0001
,
0200
0000
0020
0330
,
1000
0100
0010
0001
0100
0000
0010
1000
0001
1000
0010
0100
1000
0000
0100
0001
,
1000
0001
0010
0100
0001
0000
0100
1000
0010
0000
0000
0101
0000
0000
1010
0000
,
0001
1000
0100
0010
0001
0000
0100
1000
0100
0010
0100
0001
1000
0000
0100
0001
,
0100
0010
0001
1000
0010
0000
0100
1000
0100
0000
0100
0001
0100
0000
0100
0010
,
1000
0001
0010
0100
1000
0000
0010
0100
1000
0100
0001
1000
0010
0000
1000
0100
,
0001
0100
0010
0001
1000
0001
0100
0010
1000
0001
0010
0100
1000
0001
0100
0010
,
1000
0100
0001
0100
0010
0001
1000
0001
0100
0010
1000
0001
0100
1000
0100
0010
,
1000
0100
0010
0001
0100
0010
1000
0001
0010
0000
0010
0100
1000
0000
1000
0000
,
0101
0000
1000
0100
0001
0000
1100
0000
0001
0100
1000
0000
0110
0000
1000
0010
,
0001
0000
0110
0000
0001
0010
1000
0000
1100
0000
1010
0000
0101
0000
0011
0000
,
1001
0000
0001
1000
0010
0010
0001
0000
1000
0010
0001
0000
0110
0000
0001
0010
,
1000
0000
0000
0000
0000
0000
0110
0000
0000
0000
0000
0000
1000
0000
0000
0100
0000
0000
0001
0000
0000
0000
0000
0000
0110
0000
0000
0000
0000
0000
0010
0000
0001
0000
0100
0000
0010
0000
0000
0000
0000
0000
0100
0000
0000
0000
0000
0000
,
0110
0000
0001
0100
1000
0000
0110
0000
1000
0100
0001
0000
1100
0000
1000
0010
,
0001
0000
0101
0000
0001
0010
1000
0000
0101
0000
1010
0000
1100
0000
0011
0000
,
1001
0000
1000
0001
0100
0100
1000
0000
0001
0100
1000
0000
0101
0000
1000
0010
,
0001
0000
0000
0000
0000
0000
1100
0000
0000
0000
0000
0000
0001
0000
0000
0010
0000
0000
1000
0000
0000
0000
0000
0000
0110
0000
0000
0000
0000
0000
1000
0000
0100
0000
0010
0000
0001
0000
0000
0100
0000
0000
0001
0000
0000
0100
0000
0000
,
0010
0000
0001
0000
1000
0000
0100
0000
0001
0000
1000
0000
0100
0000
0010
0000
0001
0000
1000
0100
1000
0001
0100
0001
,
0020
0030
0220
0330
,
2002
3000
0010
0000
,
0000
0000
0000
0003
;

//--------------- dance-double - forcednature ----------------
#NOTES:
     dance-double:
     forcednature:
     Easy:
     12:
     0,0,0,0,0:
00000000
00000000
00000000
00000000
,
00000000
00000000
00000000
00000000
,
00000000
00000000
00000000
00000000
,
00000000
00000000
00000000
00000000
,
00000000
00000000
00000000
00000000
,
00000000
00000000
00000000
00000000
,
00000000
00000000
00000000
00000000
,
00000000
00000000
00000000
00022000
00000000
00000000
00000000
00000000
00000000
00000000
00000000
00000000
00000000
00000000
00000000
00000000
00000000
00000000
00000000
00000000
00000000
00000000
00000000
00000000
00000000
00000000
00000000
00000000
00000000
00000000
00000000
00000000
,
00000000
00000000
00033000
00000000
,
00000100
00010000
00000100
00010000
,
00000100
00000000
00000000
00000000
00010000
00000000
00000000
00000000
00001000
00000000
00000000
01000000
00000000
00000000
00001000
00000000
,
00100000
00010000
00100000
00010000
,
00100000
00000000
00000000
00000000
00010000
00000000
00000000
00000000
01000000
00000000
00000000
00001000
00000000
00000000
01000000
00000000
,
00001000
00000000
00000000
00000000
00010000
00000000
00000000
00000000
00000100
00000000
00000000
00010000
00000000
00000000
00001000
00000000
,
01000000
00000000
00000000
00001000
00000000
00000000
00010000
00000000
00000010
00000000
00000000
00010000
00000000
00000000
00001000
00000000
,
00200000
00000000
00000000
00000000
,
02000000
00000000
00000000
03300000
,
10000000
01000000
00010000
00000000
00001000
00000000
00100000
00000000
,
00010000
01000000
00001000
00000000
00010000
00000100
00001000
00000000
,
00000010
00020000
00000100
00031000
,
00100000
00000000
00001000
00000000
00010000
00100000
00010000
00100000
,
01000000
00020000
10000000
00130000
,
00010000
02000000
03002000
00023000
,
00030200
00000000
00001300
00000010
00010000
00001000
00100000
00010000
,
02000000
00000000
03100000
10000000
,
01000000
00000000
00010000
00001000
00000000
00000010
00000100
00000000
,
00010000
00001000
00000000
00000100
00000010
00000100
00000001
00000010
,
00000100
00000000
00010000
00001000
00000000
01000000
00010000
00000000
,
00100000
01000000
00000000
10000000
00010000
00100000
00010000
00000000
,
01000000
00000000
00001000
00010000
00000000
00000100
00001000
00000000
,
00000010
00010000
00000000
00001000
00000010
00000100
00000010
00000001
,
00001000
00000000
00000010
00001000
00000000
00010000
01000000
00000000
,
00100000
10000000
00000000
01000000
00010000
00001000
00010000
00000010
,
00001000
00000100
00010000
00000000
00001000
00100000
00010000
00000000
,
00001000
00000000
00000100
00000000
00010000
00000000
00000000
00000000
00001000
00000000
00000000
00100000
00000000
00000000
00100000
00000000
,
00010000
01000000
00001000
00000000
00010000
00000010
00001000
00000000
,
00010000
00000000
01000000
00000000
00001000
00000000
00000000
00000000
00010000
00000000
00000000
00000100
00000000
00000000
00000100
00000000
,
00001000
00000010
00010000
00000000
00001000
00100000
00010000
00000000
,
01000000
00000000
00001000
00000000
00010000
00000000
00000000
00000000
00000100
00000000
00000000
00010000
00000000
00000000
00001000
00000000
,
01000000
00000000
00000000
00001000
00000000
00000000
00010000
00000000
00000010
00000000
00000000
00010000
00000000
00000000
00001000
00000000
,
00100000
00000000
00000000
00001000
00000000
00000000
00010000
00000000
00100000
00000000
00000000
00000000
00100000
00000000
00000000
00000000
,
01000000
00001000
00010000
00000010
00010000
00001000
01000000
00001000
,
00010000
00000010
00010000
00001000
00100000
00001000
00100000
00001000
,
00010000
00000100
00001000
00000010
00010000
00001000
00100000
00010000
,
01000000
00001000
00010000
00000100
00001000
00000010
00010000
00000000
,
00001000
00100000
01000000
00100000
00001000
00010000
00000010
00000100
,
00000010
00010000
00001000
00100000
01000000
10000000
01000000
10000000
,
00100000
01000000
00001000
00010000
00000100
00000010
00000100
00001000
,
00000001
00000100
00001000
00010000
00100000
01000000
00100000
01000000
,
00020000
00000000
00000000
00000000
,
20000000
00000000
00000000
30030000
,
10000000
01000000
00010000
00001000
01000000
00010000
00100000
00000000
,
00001000
00010000
00000010
00001000
00000100
00000010
00000001
00000000
,
00000100
00001000
00010000
00001000
00100000
00010000
01000000
00000000
,
00001000
00010000
00000100
00001000
00000020
00000000
00000000
00000000
,
00000130
00000001
00001000
00000001
00000010
00002000
00000000
00000000
,
00013000
00000000
00100000
00000000
01000000
00000000
00100000
00000000
10000000
00000000
00000000
10000000
00000000
00000000
10000000
00000000
,
01000000
00100000
01000000
00010000
00001000
00010000
00000100
00000000
,
00001000
00000010
00010000
00001000
00000010
00000100
00000010
00000000
,
00000002
00000000
00000000
00000000
00000000
00000000
00000000
00000000
00001003
00000000
00000000
00001000
00000000
00000000
00001000
00000000
,
00000001
00000100
00000001
00000010
00001000
00010000
00100000
10000000
,
10000000
01000000
10000000
00100000
00010000
00001000
00000010
00000001
,
00000001
00000100
00000001
00000010
00001000
00010000
00100000
10000000
,
01000000
00000000
00010000
00000000
00001000
00000000
00010000
00000000
00000010
00000000
00000000
00000010
00000000
00000000
00000010
00000000
,
00000100
00001000
00010000
00001000
00100000
00010000
01000000
00010000
,
00100000
00000000
01000000
00000000
00010000
00000000
00001000
00000000
00000010
00000000
00000000
00001000
00000000
00000000
00010000
00000000
,
00100000
00000000
00000000
00010000
00000000
00000000
00001000
00000000
00000100
00000000
00000000
00001000
00000000
00000000
00010000
00000000
,
02000000
00000000
00000000
00000000
,
00200000
00000000
00000000
03300000
,
10000000
00010000
00100000
00000000
00001000
00010000
00000010
00000000
,
00001000
00000000
00000100
00000000
00010000
00000000
00000000
00000000
00001000
00000000
00000000
00001000
00000000
00000000
01000000
00000000
,
00010000
00100000
01000000
00000000
00100000
00001000
00010000
00000000
,
00000010
00000000
00010000
00000000
00001000
00000000
00000000
00000000
00000010
00000000
00000000
00000100
00000000
00000000
00000100
00000000
,
00001000
00000001
00000100
00000000
00001000
00010000
00100000
00000000
,
01000000
00010000
10000000
00010000
00100000
01000000
00010000
00001000
,
00000010
00000100
00001000
00000001
00000100
00001000
00010000
00000000
,
00100000
01000000
10000000
01000000
00010000
00000000
00100000
00000000
,
01000000
00010000
00001000
00000100
00001000
00010000
01000000
00010000
,
00001000
00000100
00001000
00010000
00100000
01000000
00100000
01000000
,
00100000
00010000
00001000
00000010
00001000
00010000
00100000
00010000
,
00001000
00000010
00001000
00010000
00001000
00000100
00000001
00000000
,
00000010
00001000
00010000
01000000
00010000
00001000
00000100
00001000
,
00010000
00100000
00010000
00001000
00010000
01000000
00010000
01000000
,
00100000
00010000
00001000
00000100
00000010
00000100
00001000
00010000
,
00100000
01000000
00100000
00010000
00001000
00000010
00001000
00000010
,
00000200
00000000
00000000
00000300
,
00020020
00030030
00202000
00303000
,
00022000
00033000
02200000
00000000
,
00000000
00000000
00000000
03300000
;

//--------------- dance-double - forcednature ----------------
#NOTES:
     dance-double:
     forcednature:
     Medium:
     15:
     0,0,0,0,0:
00000000
00000000
00000000
00000000
,
00000000
00000000
00000000
00000000
,
00000000
00000000
00000000
00000000
,
00000000
00000000
00000000
00000000
,
00000000
00000000
00000000
00000000
,
00000000
00000000
00000000
00000000
,
00000000
00000000
00000000
00000000
,
00000000
00000000
00000000
00022000
00000000
00000000
00000000
00000000
00000000
00000000
00000000
00000000
00000000
00000000
00000000
00000000
00000000
00000000
00000000
00000000
00000000
00000000
00000000
00000000
00000000
00000000
00000000
00000000
00000000
00000000
00000000
00000000
,
00000000
00000000
00033000
00000000
,
00001000
00010000
00001000
00010000
,
00001000
00000000
00000000
00000000
00010000
00000000
00000000
00000000
00100000
00000000
00000000
01000000
00000000
00000000
00100000
00000000
,
00010000
00001000
00010000
00001000
,
00010000
00000000
00000000
00000000
00001000
00000000
00000000
00000000
00000010
00000000
00000000
00000100
00000000
00000000
00000010
00000000
,
00001000
00000000
00000000
00000000
00010000
00000000
00000000
00000000
01000000
00000000
00000000
00100000
00000000
00000000
01000000
00000000
,
00010000
00000000
00000000
00001000
00000000
00000000
00000100
00000000
00000010
00000000
00000000
00000100
00000000
00000000
00001000
00000000
,
00020000
00000000
00000000
00000000
,
00200000
00000000
00000000
00330000
,
00100000
10000000
01000000
10000000
00100000
00010000
00001000
00000010
,
00000100
00010000
00001000
00000100
00000001
00000010
00000100
00001000
,
00000010
00010000
00002000
00000000
00000100
00000000
00010000
00000000
,
00103000
00001000
02000000
00000000
00100000
00100000
00010000
03010000
,
01000000
00001000
00200000
00000000
10000000
00000000
01000000
00000000
,
00310000
00100000
00001000
00010000
00000010
00001000
00000100
00000001
,
00000100
00010000
00001000
00010000
00100000
01000000
00010000
10000000
,
02000000
00000000
00010000
00000000
13000000
01000000
00100000
00010000
,
00001000
00000100
00000001
00000100
00001000
00000010
00000100
00001000
,
00010000
01000000
00010000
00001000
00010000
00100000
01000000
00100000
,
10000000
00000000
00010000
00000000
10000000
01000000
00010000
00000000
00001000
00000000
00000010
00000000
00000100
00000000
00000010
00000000
,
00000001
00000000
00000100
00000000
00000010
00000000
00000100
00000000
00001000
00000000
00010000
00100000
01000000
00000000
00000000
00000000
,
00010000
10000000
01000000
00010000
00001000
00100000
01000000
00010000
,
00001000
00000100
00001000
00010000
00001000
00000010
00000100
00000010
,
00000001
00000000
00000100
00000000
00000001
00000010
00001000
00000000
00010000
00000000
00100000
00000000
01000000
00000000
00010000
00000000
,
10000000
00000000
01000000
00000000
00010000
00000000
00001000
00000000
00000010
00000000
00000100
00001000
00000100
00000000
00000100
00000000
,
00000010
00001000
00010000
00001000
00000010
00001000
00010000
00001000
,
00000010
00000000
00001000
00000000
00010000
00000000
00001000
00000000
01000000
00000000
00000000
00100000
00000000
00000000
01100000
00000000
,
00100000
00010000
00001000
00010000
00100000
00010000
00001000
00010000
,
00100000
00010000
00001000
00010000
00000100
00000100
00001000
00001000
,
00000010
00010000
00100000
00010000
00000010
00010000
00100000
00010000
,
00000010
00000000
00010000
00000000
00100000
00000000
00010000
00000000
00001000
00000000
00000000
00000100
00000000
00000000
00001000
00000000
,
00010000
00000000
00000000
01000000
00000000
00000000
00010000
00000000
00001000
00000000
00000000
00000010
00000000
00000000
00001000
00000000
,
00010000
00000000
00000000
00100000
00000000
00000000
01000000
00000000
00100000
00000000
00100000
00000000
10000000
00000000
10000000
00000000
,
01000000
00010000
00001000
00010000
01000000
10000000
00100000
00010000
,
00001000
00010000
00100000
10000000
01000000
00010000
00001000
00010000
,
00000100
00000000
00001000
00000000
00000010
00000100
00001000
00000000
00010000
00000000
00100000
00000000
01000000
00000000
00010000
00000000
,
00100000
00000000
01000000
00000000
00010000
00000000
00001000
00000000
00000010
00000000
00000100
00001000
00000001
00000000
00000000
00000000
,
00000100
00001000
00010000
01000000
00010000
00001000
00000010
00001000
,
00010000
00100000
00010000
00001000
00010000
01000000
10000000
01000000
,
00010000
00000000
00001000
00000000
00000010
00000100
00001000
00000000
00000010
00000000
00000100
00000000
00001000
00000000
00010000
00000000
,
00100000
00000000
01000000
00000000
00010000
00000000
00100000
00000000
01000000
00000000
00010000
00000000
00001000
00010000
00001000
00000000
,
00000200
00000000
00000000
00000000
,
00000020
00000000
00000000
00000330
,
00000010
00001000
00000010
00000000
00000100
00000000
00000001
00000000
00001000
00000000
00000001
00000000
00000010
00000000
00001000
00000000
,
00010000
00000100
00010000
00000000
00001000
00000000
01000000
00000000
00010000
00000000
00100000
00000000
10000000
00000000
00100000
00000000
,
01000000
10000000
01000000
00000000
00010000
00000000
00001000
00000000
01000000
00000000
00010000
00000000
00100000
00000000
00001000
00000000
,
00010000
00000010
00010000
00000000
00001000
00000000
00000010
00000000
00000200
00000000
00000000
00000000
00000000
00000000
00001300
00000000
,
00000001
00000010
00000001
00000000
00000100
00000000
00001000
00000000
00010000
00000000
00200000
00000000
00000000
00000000
00000000
00000000
,
01300000
00010000
01000000
00000000
00100000
00000000
10000000
00000000
01000000
00000000
00000000
00010000
00000000
00000000
00001000
00000000
,
00000010
00000100
00000010
00000000
00000001
00000000
00001000
00000000
00000001
00000000
00000100
00000000
00001000
00000000
00010000
00000000
,
00100000
01000000
00100000
00000000
10000000
00000000
00010000
00000000
10000000
00000000
01000000
00000000
00010000
00000000
00001000
00000000
,
00000020
00000000
00000000
00000000
00000000
00000000
00000000
00000000
00000130
00000000
00000000
00000110
00000000
00000000
00001001
00000000
,
00000001
00000100
00000001
00000100
00000010
00000000
00001000
00000100
00010000
00000000
00001000
00000000
00100000
00000000
00001000
00000000
,
00010000
00100000
00010000
00100000
01000000
00000000
00100000
10000000
00010000
00000000
10000000
00000000
00010000
00000000
00100000
00000000
,
01000000
00010000
01000000
00010000
00001000
00000000
00010000
00000100
00001000
00000000
00000010
00000000
00000001
00000000
00000010
00000000
,
00000100
00000000
00001000
00000000
01000000
00000000
00001000
00000000
00100000
00000000
00000000
01100000
00000000
00000000
10010000
00000000
,
10000000
01000000
00100000
00010000
01000000
00000000
00001000
00010000
00000100
00000000
00001000
00000000
00000010
00000000
00010000
00000000
,
00001000
00000010
00000100
00000010
00000001
00000000
00001000
00000000
00000010
00000000
00000000
00010000
00000000
00000000
00100000
00000000
,
01000000
00000000
00000000
00001000
00000000
00000000
00000010
00000000
00000100
00000000
00000000
00001000
00000000
00000000
01000000
00000000
,
00200000
00000000
00000000
00000000
,
00002000
00000000
00000000
00303000
,
00001000
00000000
00010000
00000000
00100000
00000000
01000000
00010000
01000000
00000000
00100000
00000000
10000000
00000000
01000000
00100000
,
01000000
00000000
00010000
00000000
00001000
00000000
00000100
00000010
00000100
00000000
00000000
00000110
00000000
00000000
00001001
00000000
,
00000001
00000000
00000010
00000000
00000100
00000000
00010000
00001000
00010000
00000000
00100000
00000000
10000000
00000000
00010000
00100000
,
00010000
00000000
01000000
00000000
00100000
00000000
00010000
00001000
01000000
00000000
01000000
00000000
00010000
00000000
00010000
00000000
,
00100000
00000000
00010000
00000000
00001000
00000000
00000100
00000010
00000100
00000000
00001000
00000000
00000001
00000000
00000100
00000010
,
00000100
00000000
00001000
00000000
00010000
00000000
01000000
00000000
00100000
00000000
00001000
00010000
00000000
00010000
00100000
00000000
,
01000000
00000000
00010000
10000000
00000000
10000000
01000000
00000000
00010000
00000000
00001000
00010000
00000000
00000100
00001000
00000000
,
00000010
00000000
00010000
00001000
00000000
00000010
00001000
00000000
00000010
00000000
00000010
00000000
00000001
00000000
00000001
00000000
,
00000100
00001000
01000000
00010000
00100000
01000000
00010000
00001000
,
00000010
00000100
00010000
00001000
00000100
00001000
00010000
01000000
,
00100000
00000000
00001000
00000000
00010000
00100000
01000000
00000000
00100000
00000000
10000000
00000000
01000000
00000000
00010000
00000000
,
00001000
00000000
00000100
00000000
00001000
00000000
00010000
00000000
00000100
00000000
00001000
00000010
00010000
00000000
00001000
00000000
,
00000010
00000100
00001000
00000010
00000100
00001000
00010000
00100000
,
01000000
00010000
00100000
01000000
00010000
00001000
00010000
00000100
,
00000010
00000000
00000001
00000000
00001000
00000010
00010000
00000000
00001000
00000000
00100000
00000000
01000000
00000000
00010000
00000000
,
00001000
00000000
00000100
00000000
00001000
00000000
00010000
00000000
00100000
00000000
01000000
00000000
00010000
10000000
00010000
10000000
,
02000000
00000000
00000000
03000000
,
02200000
03300000
00022000
00033000
,
00000220
00000330
00002002
00000000
,
00000000
00000000
00000000
00003003
;

//--------------- dance-double - forcednature ----------------
#NOTES:
     dance-double:
     forcednature:
     Hard:
     18:
     0,0,0,0,0:
00000000
00000000
00000000
00000000
,
00000000
00000000
00000000
00000000
,
00000000
00000000
00000000
00000000
,
00000000
00000000
00000000
00000000
,
00000000
00000000
00000000
00000000
,
00000000
00000000
00000000
00000000
,
00000000
00000000
00000000
00000000
,
00000000
00000000
00000000
00022000
00000000
00000000
00000000
00000000
00000000
00000000
00000000
00000000
00000000
00000000
00000000
00000000
00000000
00000000
00000000
00000000
00000000
00000000
00000000
00000000
00000000
00000000
00000000
00000000
00000000
00000000
00000000
00000000
,
00000000
00000000
00033000
00000000
,
01000000
00000000
00000000
01000000
00001000
00000000
00000000
01000000
00001000
00000000
00000000
01000000
00001000
00000000
00000000
01000000
,
00001000
00000000
00000000
01000000
00001000
00000000
00000000
01000000
00001000
00000000
00000000
00010000
00000000
00000000
00000010
00000000
,
00001100
00000000
00000000
00000100
00010000
00000000
00000000
00000100
00010000
00000000
00000000
00000100
00010000
00000000
00000000
00000100
,
00010000
00000000
00000000
00000100
00010000
00000000
00000000
00000100
00010000
00000000
00000000
00001000
00000000
00000000
00100000
00000000
,
01010000
00000000
00000000
00100000
00001000
00000000
00000000
00100000
00001000
00000000
00000000
00000100
00000000
00000000
00001000
00000000
,
00010000
00000000
00000000
01000000
00000000
00000000
00010000
00000000
00001000
00000000
00000000
00000010
00000000
00000000
00000001
00000000
,
00000200
00000000
00000000
00000300
,
00002002
00000000
00000000
00003003
,
00000201
00000010
00001000
00000310
,
00020010
00030100
00102000
01003000
,
00011000
00000000
00000000
00001000
02000000
00000000
00000000
00000000
00100000
00000000
00000000
00000000
13000000
00000000
00000000
00000000
,
00011000
00000000
00000000
00010000
00000200
00000000
00000000
00000000
00001000
00000000
00000010
00000000
00000010
00000000
00000301
00000000
,
00000110
00000000
00000000
00000100
00020000
00000000
00000000
00000000
00001000
00000000
00000000
00000000
00030010
00000000
00000000
00000000
,
00010000
00000000
00000000
00010000
00001000
00000000
01000000
00000000
00010000
00000000
00100000
00000000
01000000
00000000
10000000
00000000
,
00100000
00000000
00010000
00000000
00001000
00000100
00001000
00000100
00000001
00001000
00000001
00001000
00000010
00000100
00001000
00010000
,
00200000
00000000
01000000
00000000
10300000
10000000
00010000
00010000
,
10010000
00000000
10000000
01000000
00000000
00001000
00000100
00000000
,
10000000
00100000
00000000
00001000
00000010
00000010
00000001
00000010
,
00001000
00000000
00000000
00000000
00001000
00000001
00000100
00000000
00000000
00000000
00010000
00000000
01000000
00000000
00000000
00000000
,
00000001
00000000
00000000
00000010
00000000
00000000
00000000
00000000
00000000
00010000
00000000
00000000
00100000
00000000
00000000
01000000
10000000
00010000
20000000
00000000
00000000
00000000
00000000
00000000
,
30100000
00000000
10000000
00010000
00000000
00001000
00000001
00000000
,
00000001
00001000
00000000
00010000
10000000
01000000
00010000
01000000
,
10000000
00000000
00000000
00000000
00100000
01000000
00100000
00000000
00000000
00000000
10000000
00000000
00010000
00000000
00000000
00000000
,
00001000
00000000
00000001
00000000
00000000
00000000
00010000
00000000
00001000
00000000
00100000
00001000
00010000
00000010
00010000
00000010
,
00000100
00000000
00001000
00010000
00001000
00000000
00100000
00010000
00100000
00000000
00001000
00010000
00001000
00000000
00100000
00010000
,
00100000
00000000
00001000
00010000
00001000
00000000
00100000
00010000
00200000
00000000
00000000
10000000
00000000
00000000
01000000
00000000
,
00310000
00000000
01000000
00010000
01000000
00000000
00001000
00010000
00001000
00000000
01000000
00010000
01000000
00000000
00001000
00010000
,
00001000
00000000
01000000
00010000
01000000
00000000
00001000
00010000
00000100
00000000
00000100
00000010
00000100
00000000
00000100
00000000
,
00001001
00000000
00001000
00000100
00010000
00000000
00001000
00100000
00010000
00000000
00001000
00000100
00010000
00000000
00001000
00100000
,
00010000
00000000
00001000
00000100
00010000
00000000
00001000
00100000
00010000
00000000
01000000
00001000
00000000
00010000
00000010
00000000
,
00000100
00000000
00001000
00010000
00000000
01000000
00100000
00000000
00001000
00000000
00010000
00100000
00000000
01000000
00100000
00000000
,
10000000
00000000
01000000
00010000
00000000
00001000
00010000
00000000
00000100
00000000
00000100
00001000
00000010
00000000
00000010
00000000
,
00000110
00001000
00010000
01100000
00010000
00001000
00000110
00001000
,
00010000
01100000
00010000
00001000
00000110
00001001
00000110
00001001
,
00000110
00000000
00001000
00000000
00010000
00100000
01000000
00000000
00010000
00000000
00100000
00000000
01100000
00000000
00010000
00000000
,
00001000
00000000
00000000
00000110
00000000
00000000
00001000
00000000
00000000
00010000
00000000
00000000
00100000
00000000
00000000
00010000
01000000
00100000
10000000
00000000
00000000
00000000
00000000
00000000
,
01100000
00010000
00001000
00000110
00001000
00010000
01100000
00010000
,
00001000
00000110
00001000
00010000
01100000
10010000
01100000
10010000
,
01100000
00000000
00010000
00000000
00001000
00000010
00000100
00000000
00001000
00000000
00000010
00000000
00000110
00000000
00001000
00000000
,
00010000
00000000
01100000
00000000
00010000
00000000
00001000
00000000
00000010
00000000
00000100
00000001
00001000
00000100
00000010
00000100
,
00001000
00000010
00010000
00001000
00100000
00010000
01000000
10000000
01000000
00010000
00100000
01000000
,
00020000
00000000
00000000
00030000
,
00001000
00010000
00000100
00001000
00000100
00000000
00000010
00000001
00001000
00000000
00000100
00010000
00001000
00000000
01000000
00000000
,
00010000
10000000
00010000
00100000
01000000
00000000
10000000
00010000
00100000
00000000
00001000
00010000
00000010
00000000
00001000
00000000
,
00000100
00000010
00000100
00001000
00000001
00000000
00000100
00000010
00001000
00000000
00000100
00010000
00001000
00000000
01000000
00000000
,
00010000
00100000
00010000
00100000
01000000
00000000
10000000
00000000
00200000
00000000
00000000
00000000
00000000
00000000
01300000
00000000
,
01000000
00010000
01000000
00001000
00010000
00000000
00010000
00000100
00001000
00000000
00002000
00000000
00000000
00000000
00000000
00000000
,
00003010
00010000
00001000
00010000
00000100
00000000
00000010
00000000
00000110
00000000
00000000
00001001
00000000
00000000
00000110
00000000
,
00000001
00000010
00000100
00001000
00000001
00000000
00000100
00000010
00001000
00000000
00000100
00010000
00001000
00000000
01000000
00000000
,
00010000
00100000
01000000
00100000
10000000
00000000
00100000
00010000
01000000
00000000
00001000
00010000
00000100
00000000
00001000
00000010
,
00020000
00000000
00000000
00000000
00000000
00000000
00030000
00000000
00010100
00000000
00000000
00101000
00000000
00000000
00010100
00000000
,
00000100
00001000
00000010
00001000
00000001
00000010
00000100
00000010
00000001
00001000
00000010
00010000
00001000
00100000
00010000
00100000
,
01000000
10000000
00010000
10000000
00100000
01000000
00010000
01000000
00001000
00010000
00000100
00001000
00000100
00000010
00000001
00001000
,
00000010
00010000
00001000
00010000
00000100
00001000
00000001
00000010
00000100
00001000
00010000
00100000
01000000
00100000
00010000
00001000
,
00000100
00001000
00010000
00100000
01000000
00100000
00010000
00001000
00000100
00000000
00000000
00000110
00000000
00000000
00001001
00000000
,
00001000
00000010
00010000
00001000
00100000
00001000
00010000
00100000
01000000
00100000
10000000
00010000
10000000
01000000
00100000
01000000
,
00010000
00001000
00000100
00000010
00000100
00000001
00001000
00000001
00000010
00000000
00000100
00010000
00000000
00001000
00100000
00000000
,
00011000
00000000
01000000
00001000
00000000
00010000
00000010
00000000
00011000
00000000
00000100
00010000
00000000
00001000
01000000
00000000
,
00010000
00000000
00000000
00000000
00100000
00000000
00000000
00000000
01000000
00000000
00000000
00000000
00010000
00000000
00000000
00000000
00001000
00000000
00000000
00000000
00000010
00000000
00000000
00000000
00000100
00000000
00000000
00000000
00010000
00000000
00000000
00000000
00001000
00000000
00000000
00000000
00000100
00000000
00000000
00000001
00000000
00000000
00001000
00000000
00000000
00000001
00000000
00000000
,
00000020
00000000
00000200
00000330
,
00000010
00000001
00000100
00000000
00001000
00000000
00000100
00000001
00000010
00000000
00001000
00000000
00010000
00000000
00100000
10000000
,
01000000
00000000
00010000
00000000
00001000
00000000
00010000
01000000
20000000
00000000
00000000
00100000
00000000
00000000
31000000
00000000
,
10000000
00100000
00010000
00000000
00001000
00000000
00010000
00100000
10000000
00000000
01000000
00000000
00010000
00000000
00001000
00000010
,
00000001
00000000
00000100
00000000
00001000
00000000
00000100
00000001
00000010
00000000
00000010
00001000
00000010
00000000
00000010
00000001
,
00001000
00000001
00000100
00000000
00001000
00000000
00010000
00100000
10000000
00000000
01000000
00000000
00010000
00000000
00001000
00010000
,
00000100
00001000
00000010
00010000
00001000
00100000
00010000
01000000
00001000
00010000
00000010
00001000
00000100
00010000
00001000
00100000
,
00010000
00100000
01000000
00100000
00010000
00001000
00000100
00000010
00000100
00001000
00010000
00100000
01000000
00100000
00010000
00000000
,
00001000
00000100
00000001
00000010
00001000
00000010
00000001
00000100
00001000
00000000
00001000
00010000
01000000
00000000
01000000
00000000
,
01100000
00000000
00010000
00001000
00000100
00000000
00000110
00000000
00001000
00010000
01000000
00000000
01100000
00000000
00010000
00001000
,
00000100
00000000
00000110
00000000
00001000
00010000
01000000
00000000
01100000
00000000
10010000
00000000
01100000
00000000
10010000
00000000
,
01100000
00000000
00010000
00001000
00000010
00000100
00001000
00000000
00000010
00000100
00001000
00000000
00000110
00000000
00001000
00010000
,
01000000
00000000
00000000
00000000
00000000
00000000
01100000
00000000
00000000
00000000
00000000
00000000
00010000
00000000
00000000
00001000
00000000
00000000
00000100
00000000
00000000
00000000
00000000
00000000
00000110
00000000
00000000
00000000
00000000
00000000
00000001
00000000
00000010
00000000
00000100
00000000
00001000
00000000
00000000
00000000
00000000
00000000
00000010
00000000
00000000
00000000
00000000
00000000
,
00000110
00000000
00001000
00010000
00100000
00000000
01100000
00000000
00010000
00001000
00000010
00000000
00000110
00000000
00001000
00010000
,
00100000
00000000
01100000
00000000
00010000
00001000
00000010
00000000
00000110
00000000
00001001
00000000
00000110
00000000
00001001
00000000
,
00000110
00000000
00001000
00010000
00100000
01000000
00010000
00000000
00100000
01000000
00010000
00000000
01100000
00000000
00010000
00001000
,
00000010
00000000
00000000
00000000
00000000
00000000
00000110
00000000
00000000
00000000
00000000
00000000
00001000
00000000
00000000
00010000
00000000
00000000
00100000
00000000
00000000
00000000
00000000
00000000
01000000
00000000
00000000
00000000
00000000
00000000
00010000
00000000
10000000
00000000
00010000
00000000
00100000
00000000
00000000
01000000
00000000
00000000
10000000
00000000
00000000
01000000
00000000
00000000
,
00010000
00000000
00001000
00000000
00100000
00000000
00001000
00000000
00010000
00000000
00000010
00000000
00000100
00000000
00001000
00000000
00000100
00000000
00000001
00000010
00000100
00001000
00000100
00010000
,
00002000
00003000
02002000
03003000
,
00020020
00030000
00000001
00000000
,
00000000
00000000
00000000
00000030
;

//--------------- dance-double - forcednature ----------------
#NOTES:
     dance-double:
     forcednature:
     Challenge:
     18:
     0,0,0,0,0:
00000000
00000000
00000000
00000000
,
00000000
00000000
00000000
00000000
,
00000000
00000000
00000000
00000000
,
00000000
00000000
00000000
00000000
,
00000000
00000000
00000000
00000000
,
00000000
00000000
00000000
00000000
,
00000000
00000000
00000000
00000000
,
00000000
00000000
00000000
00022000
00000000
00000000
00000000
00000000
00000000
00000000
00000000
00000000
00000000
00000000
00000000
00000000
00000000
00000000
00000000
00000000
00000000
00000000
00000000
00000000
00000000
00000000
00000000
00000000
00000000
00000000
00000000
00000000
,
00000000
00000000
00033000
00000000
,
00001000
00000000
00010000
00000100
00010000
00000000
00001000
01000000
00001000
00000000
00010000
00000100
00010000
00000000
00001000
01000000
,
00001000
00000000
00010000
00000100
00010000
00000000
00001000
01000000
00001000
00000000
00000000
00101000
00000000
00000000
00010010
00000000
,
00011000
00000000
00001000
00100000
00001000
00000000
00010000
00000010
00010000
00000000
00001000
00100000
00001000
00000000
00010000
00000010
,
00010000
00000000
00001000
00100000
00001000
00000000
00010000
00000010
00010000
00000000
00000000
00010100
00000000
00000000
01001000
00000000
,
00011000
00000000
01000000
00001000
00010000
00000000
00000100
00010000
00001000
00000000
00000000
00101000
00000000
00000000
00010010
00000000
,
00010100
00000000
00000000
00101000
00000000
00000000
00011000
00000000
01001000
00000000
00000000
00010010
00000000
00000000
00011000
00000000
,
01000000
00000000
00010000
00000000
00100000
00000000
01000000
00000000
00010000
00000000
00001000
00000000
00000010
00000000
00000100
00000000
00001000
00000000
00000001
00001000
00000010
00000100
00000001
00001000
,
00000200
00000000
00000000
00000300
,
00000010
00000001
00000100
00000001
00000010
00001000
00010000
00100000
,
10000000
01000000
10000000
00100000
00010000
00001000
00000010
00000100
,
00001000
00000000
00001000
00000001
00000100
00000000
00000010
00000000
00001000
00000000
00010000
00000000
01000000
00000000
00100000
00000000
,
10000000
00000000
10000000
01000000
00100000
00000000
00010000
00000000
00001000
00000000
00000100
00000000
00000001
00000000
00000100
00000000
,
00000110
00000000
00000010
00000001
00001000
00000000
00000010
00000000
00000100
00000000
00001000
00000000
00010000
00000000
01000000
00000000
,
00100000
00000000
00100000
00010000
00100000
00001000
00010000
00000010
00001000
00000010
00000100
00000001
00001000
00000001
00000010
00000100
,
00001000
00000100
00010000
00001000
00100000
00010000
00100000
01000000
10000000
00010000
10000000
00100000
01000000
00010000
01000000
00001000
,
00020000
00000000
00000100
00000000
00031000
00010000
00100000
00010000
,
00001000
00000010
00000100
00001000
00000010
00000100
00001000
01000000
,
00100000
10000000
01000000
00100000
01000000
00010000
00000100
00010000
,
00001000
00000000
00000010
00000000
00000001
00001000
00000010
00000000
00000100
00000000
00001000
00000000
00010000
00000000
01000000
00000000
,
00010000
00000000
00000000
00001000
00000000
00000000
00010000
00000000
00000000
00100000
00000000
00000000
01000000
00000000
00000000
00010000
10000000
00010000
00100000
00000000
00000000
00000000
00000000
00000000
,
01000000
00010000
00000100
00000010
00001000
00100000
01000000
00010000
,
00001000
00000100
00001000
00010000
00100000
00010000
00000010
00010000
,
00001000
00000000
00000010
00000000
00000100
00001000
00000010
00000000
00000100
00000000
00001000
00000000
01000000
00000000
00010000
00000000
,
00100000
00000000
00000000
00000000
00000000
00000000
01000000
00000000
00000000
00000000
00000000
00000000
00010000
00000000
00000000
00000000
00000000
00000000
00001000
00000000
00000000
00000000
00000000
00000000
00000010
00000000
00000000
00000000
00000000
00000000
00000100
00000000
00001000
00000000
00000001
00000000
00001000
00000000
00000000
00000100
00000000
00000000
00001000
00000000
00000000
00000100
00000000
00000000
,
00010000
00000100
00001000
00000010
00010000
00000100
00001000
00000010
00010000
00000100
00001000
00000010
00010000
00000100
00001000
00000010
,
00010000
00000100
00001000
00000010
00010000
00000100
00001000
00000010
00010000
00000000
00000000
00010100
00000000
00000000
01001000
00000000
,
00001000
01000000
00010000
00100000
00001000
01000000
00010000
00100000
00001000
01000000
00010000
00100000
00001000
01000000
00010000
00100000
,
00001000
01000000
00010000
00100000
00001000
01000000
00010000
00100000
00001000
00000000
00001000
00010000
00001000
00000000
00001000
00000100
,
00000010
00001000
00000100
00010000
00000010
00001000
00000100
00010000
00000010
00001000
00000100
00010000
00000010
00001000
00000100
00010000
,
00000010
00001000
00000100
00010000
00000010
00001000
00000100
00010000
00001000
00000000
00100000
01000000
00000000
00100000
00010000
00000000
,
01000000
00000000
10000000
01000000
00000000
00010000
00100000
00000000
01000000
00000000
00010000
00001000
00000000
00000010
00001000
00000000
,
00010000
00000000
00001000
00000100
00000000
00000001
00000100
00000000
00000010
00000000
00000010
00010000
00001000
00000000
00001000
00000000
,
00011000
00000000
01000000
00010000
00100000
00000000
00011000
00000000
00000100
00001000
00000010
00000000
00011000
00000000
00100000
00010000
,
01000000
00000000
00011000
00000000
00000010
00001000
00000100
00000000
00010100
00000000
00101000
00000000
00010100
00000000
00101000
00000000
,
00011000
00000000
00000100
00001000
00000010
00000100
00001000
00000000
00010000
00001000
00100000
00000000
00011000
00000000
00000010
00010000
,
00001000
00000000
00000000
00000000
00000000
00000000
00011000
00000000
00000000
00000000
00000000
00000000
01000000
00000000
00000000
00001000
00000000
00000000
00010000
00000000
00000000
00000000
00000000
00000000
01000000
00000000
00000000
00000000
00000000
00000000
10000000
00000000
01000000
00000000
00100000
00000000
00010000
00000000
00000000
00000000
00000000
00000000
00000000
00000000
00000000
00000000
00000000
00000000
,
00011000
00000000
00000010
00010000
00000100
00000000
00011000
00000000
00100000
00001000
01000000
00000000
00011000
00000000
00000100
00010000
,
00000010
00000000
00011000
00000000
01000000
00001000
00100000
00000000
01001000
00000000
00010010
00000000
01001000
00000000
00010010
00000000
,
00011000
00000000
01000000
00010000
00100000
01000000
00010000
00000000
00001000
00010000
00000010
00000000
00011000
00000000
00010000
00001000
,
00100000
00000000
00000000
00000000
00000000
00000000
00011000
00000000
00000000
00000000
00000000
00000000
00001000
00000000
00000000
00010000
00000000
00000000
00000100
00000000
00000000
00000000
00000000
00000000
00000010
00000000
00000000
00000000
00000000
00000000
00000001
00000000
00000010
00000000
00000100
00000000
00001000
00000000
00000000
00000001
00000000
00000000
00001000
00000000
00000000
00000001
00000000
00000000
,
00000100
00000010
00000100
00001000
00010000
01000000
00100000
01000000
10000000
00010000
10000000
00100000
,
00020000
00000000
00000000
00030000
,
00001000
00010000
00001000
01000000
00010000
01000000
00001000
00100000
00010000
00100000
01000000
10000000
00010000
01000000
00001000
00010000
,
00000100
00001000
00000100
00000010
00000001
00001000
00000001
00000100
00000010
00001000
00000010
00010000
00001000
00010000
00000100
00001000
,
00000100
00000010
00000100
00010000
00001000
01000000
00010000
01000000
00001000
00100000
00010000
00100000
01000000
10000000
00010000
01000000
,
00001000
00010000
00001000
00100000
00010000
00100000
01000000
00010000
00002000
00000000
00000000
00000000
00000000
00000000
00003100
00000000
,
00000100
00000001
00001000
00000001
00000010
00000100
00001000
00000010
00010000
00000000
00020000
00000000
00000000
00000000
00000000
00000000
,
00031000
00100000
00010000
01000000
00010000
00100000
01000000
10000000
00100000
00000000
00000000
01100000
00000000
00000000
10010000
00000000
,
10000000
01000000
00100000
00010000
01000000
00001000
01000000
00010000
00100000
00001000
00010000
00001000
01000000
00001000
00010000
00000010
,
00001000
00000010
00000100
00000001
00001000
00000001
00000010
00000100
00001000
00000100
00010000
00001000
01000000
00010000
01000000
00100000
,
20000000
00000000
00000000
00000000
00000000
00000000
30000000
00000000
11000000
00000000
00000000
00110000
00000000
00000000
10010000
00000000
,
10000000
01000000
00100000
00010000
01000000
00001000
00100000
00010000
00001000
00000100
00010000
00001000
00010000
00000010
00001000
00000001
,
00000010
00000100
00010000
00000100
00001000
00000001
00000100
00001000
00010000
00000100
00001000
00000010
00010000
00001000
00000010
00000100
,
00000010
00000001
00001000
00000010
00010000
00001000
00100000
00010000
00100000
01000000
10000000
00100000
01000000
00100000
00010000
00001000
,
00100000
00010000
01000000
00001000
00010000
00000100
00001000
00000010
00010000
00000000
00000000
00010100
00000000
00000000
01001000
00000000
,
00001000
01000000
00010000
00100000
01000000
00100000
00001000
00010000
00000010
00001000
00000100
00001000
00000001
00000100
00000001
00000010
,
00000100
00000001
00000100
00001000
00000010
00001000
00000100
00010000
00001000
00000000
00000100
00001000
00000000
00010000
00100000
00000000
,
00011000
00000000
01000000
00010000
00000000
00001000
00000010
00000000
00011000
00000000
00001000
00000100
00000000
00010000
01000000
00000000
,
00100000
00000000
10000000
00000000
01000000
00000000
00010000
00000000
00001000
00000000
00000100
00000000
00000001
00000000
00000010
00000000
00000100
00000000
00001000
00000001
00001000
00000010
00010000
00001000
,
02000000
00000000
00020000
03030000
,
10000000
01000000
00100000
00001000
00010000
00000000
00000010
00001000
00000001
00000010
00000100
00010000
00001000
00000000
00100000
00010000
,
10000000
00100000
01000000
00001000
00010000
00000000
00000100
00001000
00000010
00000000
00000000
00010010
00000000
00000000
01001000
00000000
,
01000000
00010000
00100000
00001000
00010000
00000000
01000000
00010000
00001000
00010000
00000010
00001000
00000010
00000000
00000100
00000001
,
00001000
00000001
00000010
00001000
00010000
00000000
00000100
00001000
00000010
00000000
00000010
00000001
00000010
00000000
00000010
00001000
,
00000100
00010000
00001000
00100000
00001000
00000000
00010000
00100000
01000000
00100000
10000000
00010000
10000000
00000000
01000000
00010000
,
00001000
00010000
00000100
00001000
00000010
00010000
00001000
00000010
00000100
00000010
00000001
00001000
00000010
00010000
00001000
01000000
,
00010000
00100000
01000000
00100000
00010000
10000000
00100000
10000000
01000000
00010000
00001000
00010000
00000100
00001000
00000010
00000000
,
00000100
00001000
00010000
00100000
01000000
00100000
10000000
00010000
10000000
00000000
10000000
01000000
00010000
00000000
00010000
00000000
,
00011000
00000000
00001000
00000100
00001000
00000000
00011000
00000000
00010000
01000000
00010000
00000000
00011000
00000000
00001000
00000010
,
00001000
00000000
00011000
00000000
00010000
00100000
00010000
00000000
00011000
00000000
00010100
00000000
00011000
00000000
01001000
00000000
,
00011000
00000000
00010000
01000000
10000000
00100000
00010000
00000000
00001000
00000010
00001000
00000000
00011000
00000000
00010000
00100000
,
00010000
00000000
00000000
00000000
00000000
00000000
00011000
00000000
00000000
00000000
00000000
00000000
00001000
00000000
00000000
00000100
00000000
00000000
00001000
00000000
00000000
00000000
00000000
00000000
00011000
00000000
00000000
00000000
00000000
00000000
00010000
00000000
00001000
00000000
00010000
00000000
00100000
00000000
00000000
00000000
00000000
00000000
01000000
00000000
00000000
00000000
00000000
00000000
,
00011000
00000000
00010000
01000000
00100000
00000000
00011000
00000000
00001000
00000100
00000010
00000000
00011000
00000000
00010000
00100000
,
01000000
00000000
00011000
00000000
00001000
00000010
00000100
00000000
00011000
00000000
00010010
00000000
00011000
00000000
00101000
00000000
,
00011000
00000000
00001000
00000100
00000001
00000010
00001000
00000000
00010000
01000000
00100000
00000000
00011000
00000000
00001000
00000100
,
00000010
00000000
00000000
00000000
00000000
00000000
00011000
00000000
00000000
00000000
00000000
00000000
00010000
00000000
00000000
00100000
00000000
00000000
01000000
00000000
00000000
00000000
00000000
00000000
00011000
00000000
00000000
00000000
00000000
00000000
00001000
00000000
00010000
00000000
00001000
00000000
00000010
00000000
00000000
00000100
00000000
00000000
00000010
00000000
00000000
00000001
00000000
00000000
,
00001000
00000000
00000001
00000000
00000100
00000000
00001000
00000000
00010000
00000000
01000000
00000000
10000000
00000000
00100000
00000000
00010000
00000000
00001000
00010000
00000100
00010000
00001000
01000000
,
00020000
00030000
00202000
00303000
,
00020200
00000300
10000000
00000000
,
00000000
00000000
00000000
00030000
;
