#VERSION:0.83;
#TITLE:Friends on the Other Side (Dave Wave Remix) [MODS];
#SUBTITLE:;
#ARTIST:Dave Wave;
#TITLETRANSLIT:;
#SUBTITLETRANSLIT:;
#ARTISTTRANSLIT:;
#GENRE:;
#CREDIT:RatherBOO;
#MUSIC:FriendsOnTheOtherSide.ogg;
#BANNER:FriendsOnTheOtherSide-bn.png;
#BACKGROUND:FriendsOnTheOtherSide-bg.png;
#CDTITLE:;
#SAMPLESTART:36.545;
#SAMPLELENGTH:17.054;
#SELECTABLE:YES;
#OFFSET:-0.026;
#BPMS:0.000=112.000
,133.000=70.000
,143.000=112.000
;
#STOPS:;
#SPEEDS:62.000=1.500=5.000=0,
67.000=1.000=2.000=0,
129.000=1.500=5.000=0,
134.000=1.000=5.500=0,
139.500=0.750=8.000=0,
147.500=1.000=3.500=0,
151.000=1.000=0.000=0
;
#SCROLLS:0.000=1.000,
67.000=0.000,
68.333=1.000,
69.000=1.250,
69.500=0.750,
70.000=1.250,
70.500=0.750,
71.000=1.250,
71.500=0.750,
72.000=1.250,
72.500=0.750,
73.000=1.250,
73.500=0.750,
74.000=1.250,
74.500=0.750,
75.000=1.250,
75.500=0.750,
76.000=1.250,
76.500=0.750,
77.000=1.250,
77.500=0.750,
78.000=1.250,
78.500=0.750,
79.000=1.250,
79.500=0.750,
80.000=1.250,
80.500=0.750,
81.000=1.250,
81.500=0.750,
82.000=1.250,
82.500=0.750,
83.000=1.250,
83.500=0.750,
84.000=1.250,
84.500=0.750,
85.000=1.250,
85.500=0.750,
86.000=1.250,
86.500=0.750,
87.000=1.250,
87.500=0.750,
88.000=1.250,
88.500=0.750,
89.000=1.250,
89.500=0.750,
90.000=1.250,
90.500=0.750,
91.000=1.250,
91.500=0.750,
92.000=1.250,
92.500=0.750,
93.000=1.250,
93.500=0.750,
94.000=1.250,
94.500=0.750,
95.000=1.250,
95.500=0.750,
96.000=1.250,
96.500=0.750,
97.000=1.250,
97.500=0.750,
98.000=1.250,
98.500=0.750,
99.000=1.250,
99.500=0.750,
100.000=1.250,
100.500=0.750,
101.000=1.250,
101.500=0.750,
102.000=1.250,
102.500=0.750,
103.000=1.250,
103.500=0.750,
104.000=1.250,
104.500=0.750,
105.000=1.250,
105.500=0.750,
106.000=1.250,
106.500=0.750,
107.000=1.250,
107.500=0.750,
108.000=1.250,
108.500=0.750,
109.000=1.250,
109.500=0.750,
110.000=1.250,
110.500=0.750,
111.000=1.250,
111.500=0.750,
112.000=1.250,
112.500=0.750,
113.000=1.250,
113.500=0.750,
114.000=1.250,
114.500=0.750,
115.000=1.250,
115.500=0.750,
116.000=1.250,
116.500=0.750,
117.000=1.250,
117.500=0.750,
118.000=1.250,
118.500=0.750,
119.000=1.250,
119.500=0.750,
120.000=1.250,
120.500=0.750,
121.000=1.250,
121.500=0.750,
122.000=1.250,
122.500=0.750,
123.000=1.250,
123.500=0.750,
124.000=1.250,
124.500=0.750,
125.000=1.250,
125.500=0.750,
126.000=1.250,
126.500=0.750,
127.000=1.250,
127.500=0.750,
128.000=1.250,
128.500=0.750,
129.000=1.250,
129.500=0.750,
130.000=1.250,
130.500=0.750,
131.000=1.250,
131.500=0.750,
132.000=1.000,
151.000=1.250,
151.500=0.750,
152.000=1.250,
152.500=0.750,
153.000=1.250,
153.500=0.750,
154.000=1.250,
154.500=0.750,
155.000=1.250,
155.500=0.750,
156.000=1.250,
156.500=0.750,
157.000=1.250,
157.500=0.750,
158.000=1.250,
158.500=0.750,
159.000=1.000
;
#ATTACKS:TIME=35.918:LEN=1.000:MODS=*5 50% stealth :TIME=54.133:LEN=1.000:MODS=*5 50% stealth :TIME=71.276:LEN=10.000:MODS=*5 50% stealth :TIME=71.276:LEN=30.000:MODS=*1 100% stealthblue :TIME=71.276:LEN=30.000:MODS=*1 100% stealthred
;
#BGCHANGES:20.000=FriendsOnTheOtherSide.avi=1.000=1=0=0=StretchNoLoop==CrossFade==,
99999.000=-nosongbg-=1.000=0=0=0=StretchNoLoop====
;
#FGCHANGES:;

//--------------- dance-single - RatherBOO ----------------
#NOTEDATA:;
#STEPSTYPE:dance-single;
#DESCRIPTION:RatherBOO;
#DIFFICULTY:Beginner;
#METER:1;
#RADARVALUES:0,0,0,0,0;
#NOTES:
0000
0000
0000
0000
,
0000
0000
0000
0000
,
0000
0000
0000
0000
,
0000
0000
0000
0000
,
0000
0000
0000
0000
,
0000
0000
0000
0000
,
0000
0000
0000
0000
,
0000
1000
0000
0000
,
0000
1000
0000
0000
,
0000
0010
0000
0000
,
0000
1000
0000
1000
,
0000
0001
0000
0000
,
0000
0001
0000
0000
,
0000
0010
0000
0010
,
0000
0000
0000
0000
,
0001
0000
1000
0000
,
0000
0000
0000
0000
,
0000
1000
0000
0000
,
0000
0001
0000
0000
,
0000
0100
0000
0100
,
0000
0001
0000
0001
,
0000
1000
0000
1000
,
0000
0010
0000
0000
,
0000
0100
0000
0000
,
0000
0010
0000
0000
,
0000
1000
0000
0000
,
0000
0001
0000
0000
,
0000
1000
0000
1000
,
0000
0100
0000
0100
,
0000
1000
0000
0001
,
0000
1000
0000
0000
,
0000
0010
0000
0000
,
0000
1000
0000
0000
,
0000
0002
0000
0000
,
0000
0000
0000
0000
0000
0000
0000
0003
,
0000
0000
0000
0000
,
0M00
0000
0000
00M0
0000
0000
0000
0M00
,
0000
0MM0
0000
1000
,
0000
0100
0000
1000
,
0000
0001
0000
2000
,
0000
0000
0000
3000
;

//--------------- dance-single - RatherBOO ----------------
#NOTEDATA:;
#STEPSTYPE:dance-single;
#DESCRIPTION:RatherBOO;
#DIFFICULTY:Easy;
#METER:5;
#RADARVALUES:0,0,0,0,0;
#NOTES:
0000
0000
0000
0000
,
0000
0000
0000
0000
,
0000
0000
0000
0000
,
0000
0000
0000
0000
,
0000
0000
0000
0000
,
0000
0000
0000
0000
,
0000
0000
0000
0000
,
0000
0001
1000
0010
,
1000
1000
0001
0010
,
0001
0001
1000
0001
,
0100
0000
0001
1000
0001
0000
1001
0000
,
0000
1000
0100
1000
,
1000
0001
0100
0001
,
0001
0000
1000
0001
1000
0000
1001
0000
,
0001
0000
0000
0000
,
0100
1001
1001
0000
,
0000
0M00
0000
00M0
0000
0M00
0000
0000
,
0000
0000
0002
0000
0000
0003
0000
0000
,
0000
0000
0002
0000
0000
0003
1000
0000
,
0001
0000
1000
0001
0100
0000
0001
0000
,
1000
0000
0001
1000
0100
0000
1000
0000
,
0001
0000
1000
0001
1000
0000
0001
0000
,
1000
0000
0001
0010
0001
0000
1000
0000
,
1000
0000
0010
1000
0010
0000
0100
0000
,
0100
0000
0001
1000
0001
0000
1000
0000
,
0100
0000
2000
0000
0000
3000
0000
0000
,
0000
0000
2000
0000
0000
3000
0001
0000
,
1000
0000
0001
1000
0100
0000
1000
0000
,
0001
0000
1000
0001
0100
0000
0001
0000
,
1000
0000
0001
1000
0001
0000
1000
0000
,
0001
0000
1000
0010
1000
0000
0001
0000
,
0001
0000
0010
0001
0010
0000
0100
0000
,
0100
0000
1000
0001
1000
0000
0001
0000
,
0100
2002
0000
0000
,
0000
0000
0000
0000
0000
0000
0000
3003
,
0M00
0000
0000
0M00
0000
0000
0M00
0000
0000
0000
0000
0000
0000
0000
0000
0M00
0000
0000
0000
00M0
0000
0000
0000
0M00
0000
0000
0000
0000
0000
0000
0000
0000
0000
0000
0000
0000
0000
0000
0000
0000
0000
0000
0000
0000
0000
0000
0000
0000
,
00M0
0000
0000
0M00
0000
0000
0000
00M0
,
0000
0000
0MM0
0000
0000
0000
0001
1000
,
0100
0000
0010
0001
0010
0000
0001
1000
,
0010
0000
0100
0001
0100
0000
0101
0000
;

//--------------- dance-single - RatherBOO ----------------
#NOTEDATA:;
#STEPSTYPE:dance-single;
#DESCRIPTION:XO;
#DIFFICULTY:Medium;
#METER:8;
#RADARVALUES:0,0,0,0,0;
#CREDIT:RatherBOO;
#NOTES:
0000
0000
0000
0000
,
0000
0000
0000
0000
,
0000
0000
0000
0000
,
0000
0000
0000
0000
,
0000
0000
0000
0000
,
0000
0000
0000
0000
,
0000
0000
0000
0000
,
0000
0000
1000
0010
0100
0000
0001
0000
,
1000
0000
0001
0010
0100
0000
1000
0000
,
0001
0000
1000
0001
1000
0000
0001
0100
,
0001
1000
1000
0100
,
0000
0000
1000
0001
0100
0000
0001
0000
,
1000
0000
0001
1000
0100
0000
1000
0000
,
0001
0000
1000
0010
0100
0000
0101
0000
,
1100
0000
0000
0000
,
0001
0000
1000
0001
1000
0000
0001
1000
,
0200
0000
0000
0000
0000
0000
000M
0000
0000
0000
0000
0000
0000
0000
0000
0000
0000
0000
00M0
0000
0000
0000
0000
0000
0000
0000
0000
000M
0000
0000
0000
0000
0300
0000
0000
0000
0000
0000
0000
0000
0000
0000
0000
0000
0000
0000
0000
0000
,
0000
2000
3000
0002
,
0003
0200
0300
0002
,
0003
0000
1000
0000
1000
0000
0010
0001
,
0010
1000
0001
0000
0001
0000
0010
1000
,
0010
0001
1000
0000
0001
0000
1000
0000
,
0010
0000
0100
0001
1000
0100
0010
0001
,
1000
0000
0001
1000
0001
0010
0100
1000
,
0001
1000
0001
0100
,
0001
0000
1000
0100
1000
0001
0100
0010
,
1000
0000
0001
1000
0100
0010
0001
1000
,
0010
0000
0100
0000
0001
0000
0001
0100
,
1000
0100
0001
0000
0001
0000
1000
0100
,
0001
0100
1000
0000
0001
0000
0100
0000
,
0001
0000
1000
0100
0010
0001
1000
0001
,
1000
0000
0001
0100
0010
1000
0001
1000
,
0001
0000
1000
0100
1000
0001
1000
0010
,
1000
0000
0012
0003
0000
2000
0000
0000
,
3000
0000
0000
0000
0000
0200
0000
0000
0000
0000
0000
0300
0000
0000
0000
0000
0000
0000
2000
0000
0000
0000
0000
0000
3000
0000
0000
0000
0000
0000
0000
0000
,
000M
0000
0000
00M0
0000
0000
000M
0000
0000
0000
0000
0000
0000
0000
0000
00MM
0000
0000
0000
0MM0
0000
0000
0000
MM00
0000
0000
0000
0000
0000
0000
0000
0000
0000
0000
0000
0000
0000
0000
0000
0000
0000
0000
0000
0000
0000
0000
0000
0000
,
00MM
0000
0000
MM00
0000
0000
0000
0MM0
,
0000
0000
M00M
0000
0000
0000
0001
1000
,
0001
0010
0100
1000
0001
0000
1000
0001
,
1000
0010
0100
0001
1000
0000
2200
0000
,
0000
0000
0000
3300
,
0000
00MM
0000
0000
;

//--------------- dance-single - XO BR-- mods ----------------
#NOTEDATA:;
#STEPSTYPE:dance-single;
#DESCRIPTION:XO BR-- mods;
#DIFFICULTY:Hard;
#METER:12;
#RADARVALUES:0,0,0,0,0;
#CREDIT:RatherBOO;
#NOTES:
0000
0000
0000
0000
,
0000
0000
0000
0000
,
0000
0000
0000
0000
,
0000
0000
0000
0000
,
0000
0000
0000
0000
,
0000
0000
0000
0000
,
0000
0000
0000
0000
,
0000
0000
0000
0000
0000
0000
0000
0000
0002
0000
0003
0000
0000
0000
0000
0000
2000
0000
3000
0000
0000
0000
0000
0000
0020
0000
0030
0000
0000
0000
0000
1000
,
0000
0000
0000
0001
0000
0000
0000
0000
0000
0000
0000
0000
0000
0000
0000
0000
0020
0000
0030
0000
0000
0000
0000
0000
0002
0000
0003
0000
0000
0000
0000
1000
,
0000
0000
0000
0001
0000
0000
0000
0000
0000
0000
0000
0000
1000
0000
0000
0000
0100
0000
0000
0000
0001
0000
0000
0000
0100
0000
0000
0000
1000
0000
0000
0000
,
0001
0000
0000
0000
1000
0000
0000
0000
0000
0000
0000
0000
0001
0000
0000
0000
0001
0000
0000
0000
0000
0000
0000
0000
1000
0000
0000
0000
0000
0000
0000
1001
,
0000
0000
0000
0001
0000
0000
0000
0000
0000
0000
0000
0000
1000
0000
0000
0000
0002
0000
0000
0000
0003
0000
0000
0000
0100
0000
0000
0000
0000
0000
0000
0001
,
0000
0000
0000
1000
0000
0000
0000
0020
0000
0000
0000
0030
0000
0000
0000
0000
0100
0000
0000
0000
0000
0000
0000
0000
0001
0000
0000
0000
0000
0000
0000
0000
,
1000
0001
0010
0010
0100
1000
0001
0100
,
0001
0000
0000
0000
,
1000
0000
0000
0000
0000
0000
0001
0000
0000
1000
0000
0100
2000
0000
0000
3000
0000
0000
0001
0000
0000
0100
0000
0000
,
0020
0000
0000
0000
0000
0000
M000
0000
0000
0000
0000
0000
0000
0000
0000
0000
0000
0000
000M
0000
0000
0000
0000
0000
0000
0000
0000
M000
0000
0000
0000
0000
0030
0000
0000
0000
0000
0000
0000
0000
0000
0000
0000
0000
0000
0000
0000
0000
,
0000
2000
0000
0002
,
3003
2000
0000
0002
,
3003
0000
0000
0000
0000
0000
0000
0000
0000
0000
0000
00M0
0000
0000
0000
0000
0M00
0000
0000
0000
0000
0000
00M0
0000
0000
0000
0000
2000
0000
3000
0000
0000
,
0200
0000
0300
0000
0000
0000
0002
0000
0003
0000
0000
0000
00M0
0000
0000
0000
M000
0000
0000
0000
00M0
0000
0000
0000
M000
0000
0000
0002
0000
0003
0000
0000
,
0200
0300
0000
2000
3000
0000
000M
0000
00M0
0000
000M
0000
00M0
0000
000M
0000
,
00M0
0000
1000
1000
0010
0010
0100
0001
,
0011
0000
0001
0001
0010
0010
0100
1000
,
1010
0000
0001
1000
0001
0010
0001
1000
,
0110
0000
0000
0000
0000
0000
1000
0000
0000
0001
0000
0000
0100
0000
0000
0001
0000
0100
1000
0000
0000
0100
0000
0000
,
0001
0000
0000
1000
0000
0000
0010
0000
0000
0100
0000
0000
0001
0000
0000
1000
0000
0100
0001
0000
0000
0100
0000
0000
,
1000
0000
0000
0000
0001
0000
0000
0000
0000
0000
0000
00M0
0000
0000
0000
0000
0M00
0000
0000
0000
0000
0000
00M0
0000
0000
0000
0000
2000
0000
3000
0000
0000
,
0200
0000
0300
0000
0000
0000
0002
0000
0003
0000
0000
0000
00M0
0000
0000
0000
M000
0000
0000
0000
00M0
0000
0000
0000
M000
0000
0000
0002
0000
0003
0000
0000
,
0200
0300
0000
2000
3000
0000
000M
0000
00M0
0000
000M
0000
00M0
0000
000M
0000
,
00M0
0000
0000
0000
0000
0000
1000
0000
0000
0001
0000
0000
0100
0000
0000
0001
0000
0100
1000
0000
0000
0100
0000
0000
,
0001
0000
0000
1000
0000
0000
0010
0000
0000
0100
0000
0000
0001
0000
0000
1000
0000
0100
0001
0000
0000
0100
0000
0000
,
1000
0000
0000
0001
0000
0000
1000
0000
0000
0010
0000
0000
0100
0000
0000
0001
0000
0100
1000
0000
0000
0100
0000
0000
,
0001
0000
0000
0000
1002
0000
0003
0201
0000
0300
2100
0000
0000
0000
0000
0000
,
3000
0000
0000
0000
0000
0002
0000
0000
0000
0000
0000
0000
0000
0000
0000
0000
0000
0000
0200
0000
0000
0000
0000
0000
0000
0300
0000
0000
0003
0000
0000
0000
,
M000
0000
0000
0M00
0000
0000
00M0
0000
0000
0000
0000
0000
0000
0000
0000
MMMM
0000
0000
0000
0MMM
0000
0000
0000
00MM
0000
0000
0000
0000
0000
0000
0000
0000
0000
0000
0000
0000
0000
0000
0000
0000
0000
0000
0000
0000
0000
0000
0000
0000
,
MM00
0000
0000
00MM
0000
0000
0000
M00M
,
0000
0000
0MM0
0000
0000
0000
0001
1000
,
0001
0000
0000
1000
0000
0100
1000
0000
0000
0001
0000
0100
0001
0000
0000
1000
0000
0000
0010
0000
0000
0100
0000
0000
,
0001
0000
0000
1000
0000
0100
1000
0000
0000
0001
0000
0100
0001
0000
0000
1000
0000
0000
2002
0000
0000
0000
0000
0000
,
0000
0000
0000
3103
,
0000
0000
0002
0003
0000
0000
0000
0000
;
