#VERSION:0.83;
#TITLE:Freak Night;
#SUBTITLE:;
#ARTIST:Starcadian;
#TITLETRANSLIT:;
#SUBTITLETRANSLIT:;
#ARTISTTRANSLIT:;
#GENRE:;
#ORIGIN:;
#CREDIT:;
#BANNER:Freak Night-banner.mp4;
#BACKGROUND:;
#PREVIEWVID:;
#JACKET:Freak Night-jacket.jpg;
#CDIMAGE:;
#DISCIMAGE:Freak Night-banner.png;
#LYRICSPATH:;
#CDTITLE:;
#MUSIC:Freak Night.ogg;
#OFFSET:0.000000;
#SAMPLESTART:65.455002;
#SAMPLELENGTH:14.527000;
#SELECTABLE:YES;
#BPMS:0.000=132.000;
#STOPS:;
#DELAYS:;
#WARPS:;
#TIMESIGNATURES:0.000=4=4;
#TICKCOUNTS:0.000=4;
#COMBOS:0.000=1;
#SPEEDS:0.000=1.000=0.000=0;
#SCROLLS:0.000=1.000,
141.000=0.000,
142.000=1.000,
172.000=0.000,
174.000=1.000,
268.000=0.000,
270.000=1.000,
320.000=0.900,
321.000=0.800,
322.000=0.700,
323.000=0.600,
324.000=0.500;
#FAKES:;
#LABELS:0.000=Song Start;
#BGCHANGES:0.000=Freak Night-bg.mp4=1.000=0=0=0=StretchNoLoop====;
#KEYSOUNDS:;
#ATTACKS:
;

//---------------dance-single - LuckJury----------------
#NOTEDATA:;
#CHARTNAME:;
#STEPSTYPE:dance-single;
#DESCRIPTION:LuckJury;
#CHARTSTYLE:;
#DIFFICULTY:Hard;
#METER:11;
#RADARVALUES:0.519066,0.515876,0.445050,0.425122,0.195955,547.000000,478.000000,67.000000,64.000000,14.000000,5.000000,12.000000,0.000000,0.000000,0.519066,0.515876,0.445050,0.425122,0.195955,547.000000,478.000000,67.000000,64.000000,14.000000,5.000000,12.000000,0.000000,0.000000;
#CREDIT:;
#NOTES:
// measure 0
0000
0000
0000
0000
,  // measure 1
0000
0000
0000
0000
,  // measure 2
1000
0000
0001
1000
1000
0000
0010
0000
,  // measure 3
1000
0000
0100
0000
1000
0000
0001
0000
1000
0010
1000
0010
1000
0000
0000
0000
,  // measure 4
1001
0000
0000
0000
0001
0000
0000
1000
0100
0000
0010
0000
0001
0000
0000
0000
,  // measure 5
0100
0000
0010
0000
1000
0000
0100
0000
1000
0000
0001
0000
1000
0020
0030
0000
,  // measure 6
0200
0000
0300
0000
0011
0000
1000
0000
0020
0030
1000
0000
0020
0030
0000
0000
,  // measure 7
0100
0000
0000
0000
0011
0000
1000
0000
0001
0000
1000
0000
0100
0010
0000
0000
,  // measure 8
0002
0000
0003
0000
1010
0000
0001
0000
0100
0000
0010
0000
1000
0001
0000
0000
,  // measure 9
0100
0000
0000
0000
1001
0000
1000
0000
0100
0000
0010
0000
0001
0010
0000
0000
,  // measure 10
0200
0000
0300
0000
1010
0000
0000
0001
0100
0000
0001
0000
1000
0100
0000
0000
,  // measure 11
0010
0000
0000
0000
0101
0000
0000
0000
2200
0000
0000
3300
0202
0000
0000
0303
,  // measure 12
1000
0000
0000
0000
0011
0000
0000
1000
0100
0000
0010
0000
0004
0000
0000
0003
,  // measure 13
4000
0000
0000
3000
1001
0000
1000
0000
0100
0000
1000
0000
0010
0000
0100
0000
,  // measure 14
0001
0000
0000
0000
1010
0000
0000
0001
1000
0000
0100
0000
0010
0001
0000
0000
,  // measure 15
0100
0000
0011
1000
0100
1000
0010
0100
,  // measure 16
0001
0000
0000
0000
1100
0000
0000
0001
0100
0000
0010
0000
1000
0010
0000
0000
,  // measure 17
0100
0000
0011
1000
0010
1000
0100
0010
,  // measure 18
0001
0000
1010
0001
0020
0032
0023
0030
,  // measure 19
0100
0000
0000
0000
0000
0000
0000
0000
0000
0000
0000
0000
0000
0000
0000
0000
0000
0000
0000
0000
0000
0000
0000
0010
0010
0000
0000
0000
0000
0000
0000
0000
0000
0000
0000
0000
0000
0000
0000
0000
0000
0000
0000
0000
0000
0000
0000
0000
0001
0000
0000
0000
0000
0000
0000
0000
0000
0000
0000
0000
0000
0000
0000
0000
0000
0000
0000
0000
0000
0000
0000
0000
1000
0000
0000
0000
0000
0000
0000
0000
0000
0000
0000
0000
0000
0000
0000
0000
0000
0000
0000
0000
0000
0000
0000
0000
0100
0000
0000
0000
0000
0000
0000
0000
0000
0000
0000
0000
0000
0000
0000
0000
0000
0000
0000
0000
0000
0000
0000
0000
0010
0000
0000
0000
0000
0000
0000
0000
0000
0000
0000
0000
0000
0000
0000
0000
0000
0000
0000
0000
0000
0000
0000
0000
0001
0000
0000
0000
0000
0000
0000
0000
0000
0000
0000
0000
0000
0000
0000
0000
0000
0000
0000
0000
0000
0000
0000
0000
1000
0000
0000
0000
0000
0000
0000
0000
0000
0000
0000
0000
0000
0000
0000
0000
0000
0000
0000
0000
0000
0000
0000
0000
,  // measure 20
0001
0000
0000
0000
1010
0000
0000
0001
0100
0000
0001
0000
4000
0000
0000
0000
,  // measure 21
3400
0000
0000
0300
0110
0000
0100
0000
1000
0000
0100
0000
0010
0000
0001
0000
,  // measure 22
0001
0000
0000
0000
1100
0000
0000
0001
1000
0000
0100
0000
0010
0001
0000
0000
,  // measure 23
0100
0000
0011
0100
0010
1000
0100
0010
,  // measure 24
0001
0000
1100
0000
1001
0000
0101
0001
,  // measure 25
0100
0000
0010
0000
0000
1000
0000
0000
0100
0000
0000
0000
0010
0000
0001
0000
,  // measure 26
0100
1010
0100
0011
,  // measure 27
1000
0001
1000
0100
0010
0001
0100
0010
,  // measure 28
0100
0101
1000
1100
,  // measure 29
0010
1010
0010
0011
,  // measure 30
2000
3200
2300
3020
,  // measure 31
0230
0302
2003
3002
,  // measure 32
2023
3030
1000
0000
2002
3003
0001
0100
,  // measure 33
0002
0003
1000
0100
2000
3000
0001
0100
,  // measure 34
0010
0000
0100
0000
0001
0000
1000
0000
0400
0000
0000
0000
0340
0000
0000
0030
,  // measure 35
2002
0000
0000
3003
0000
0000
0000
0000
0000
0000
0000
0000
0110
0000
0000
0000
,  // measure 36
0001
0000
0000
0000
0100
0000
0000
0010
1000
0000
0010
0000
0100
0000
0001
0000
,  // measure 37
1000
0000
0011
0100
0001
1000
0001
0010
,  // measure 38
0001
0000
1010
0001
1000
0100
4000
0000
,  // measure 39
3040
0000
0000
0030
0101
0000
0100
0000
0010
0000
0100
0000
0001
0000
0010
0000
,  // measure 40
0100
0100
1000
1000
0001
0001
0100
0100
,  // measure 41
0010
1000
0100
1000
0001
0100
0001
0010
,  // measure 42
0100
1100
0001
0101
,  // measure 43
1010
0000
0000
0101
,  // measure 44
1000
0100
1000
0010
0100
0001
1000
0100
,  // measure 45
0010
0000
0101
0000
1000
0100
0010
0100
,  // measure 46
1000
0000
0000
0000
0011
0000
0000
1000
0100
0000
0010
0001
0100
0010
0000
0000
,  // measure 47
1000
0000
0101
0000
1000
0010
1000
0100
,  // measure 48
0110
0011
1001
1010
,  // measure 49
2000
3000
0011
1000
0100
1000
0010
0100
,  // measure 50
0001
0000
0000
0000
1100
0000
0000
0001
0100
0000
0010
1000
0100
1000
0000
0000
,  // measure 51
0001
0000
1100
0001
0010
0000
0101
0000
,  // measure 52
1000
0000
0000
0000
0011
0000
0000
0100
0010
0000
1000
0010
0100
0001
0000
0000
,  // measure 53
1000
0000
0011
0000
1000
0000
0101
1000
,  // measure 54
0001
0000
0000
0000
1100
0000
0000
0010
1000
0000
0100
0000
1000
0000
0000
0000
,  // measure 55
0001
0000
2200
3300
0001
0000
1010
0001
,  // measure 56
0000
0000
0000
0010
0000
0000
0000
0100
0000
0000
0000
0000
2000
0000
0000
0000
3000
0000
0100
0000
0000
0000
0000
0000
,  // measure 57
0000
0000
0000
0010
0000
0000
0000
0001
0000
0000
0000
0000
0200
0000
0000
0000
0300
0000
0010
0000
0000
1000
0000
0000
,  // measure 58
0001
0010
0100
1000
0001
1000
0010
0100
,  // measure 59
0010
0000
1000
0000
0100
0000
0010
0000
0001
0010
0001
0010
0001
0000
0000
0000
,  // measure 60
1010
0100
1000
0100
0010
0100
1000
0010
,  // measure 61
0100
0000
0010
0000
1000
0000
1000
0000
0002
0000
0000
0003
2000
0000
0000
3000
,  // measure 62
0002
0203
0302
0023
,  // measure 63
0230
2300
3002
2003
,  // measure 64
3022
0033
1000
0000
2020
3030
0001
1000
,  // measure 65
0010
0000
1000
0100
0010
0000
0100
1000
,  // measure 66
0010
0000
0100
0000
0001
0000
0100
0000
0040
0000
0000
0030
0400
0000
0000
0300
,  // measure 67
1001
0000
0000
0000
0000
0000
0000
0000
0000
0000
0000
0000
1001
0000
1000
0010
,  // measure 68
0100
0000
1000
0001
1000
0010
0100
0001
,  // measure 69
0200
0000
0301
0100
0010
0100
0001
1000
,  // measure 70
0100
0000
1010
0001
0100
0000
0040
0000
,  // measure 71
4030
0000
0000
3000
0011
0000
0100
0000
0001
0000
1000
0000
0100
0000
0010
0000
,  // measure 72
0001
0002
0103
0200
0310
0020
1030
2000
,  // measure 73
3200
0000
0000
0300
0020
0000
0000
0030
0001
0000
1000
0000
0000
0000
0001
0000
,  // measure 74
0100
0010
0000
0100
0001
0100
0001
0000
,  // measure 75
1000
0000
1011
0000
2022
3033
0110
0000
,  // measure 76
1000
0000
0000
0000
0001
0000
0000
0100
0020
0000
0000
0130
0001
0000
0000
0000
,  // measure 77
0020
0000
0031
0100
0010
0100
0001
0010
,  // measure 78
0100
0000
0000
0000
1000
0000
0000
0100
0020
0000
0000
0130
1000
0000
0000
0000
,  // measure 79
0002
0000
0103
0010
1000
0100
0010
0100
,  // measure 80
20M0
000M
00M0
000M
00M0
000M
00M0
000M
,  // measure 81
3020
0000
000M
0000
M000
0000
000M
0000
M000
0000
000M
0030
M000
0000
0000
0000
;
