#VERSION:0.83;
#TITLE:First Interference;
#SUBTITLE:;
#ARTIST:Deathpact;
#TITLETRANSLIT:;
#SUBTITLETRANSLIT:;
#ARTISTTRANSLIT:;
#GENRE:;
#ORIGIN:;
#TAGS:;
#CREDIT:;
#BANNER:First Interference.png;
#BACKGROUND:;
#PREVIEWVID:;
#JACKET:;
#CDIMAGE:;
#DISCIMAGE:;
#LYRICSPATH:;
#CDTITLE:;
#MUSIC:First Interference.ogg;
#OFFSET:0.000000;
#SAMPLESTART:40.963043;
#SAMPLELENGTH:15.000000;
#SELECTABLE:YES;
#BPMS:0.000000=123.000000
;
#STOPS:;
#DELAYS:;
#WARPS:;
#TIMESIGNATURES:0.000000=4=4
;
#TICKCOUNTS:0.000000=4
;
#COMBOS:0.000000=1
;
#SPEEDS:0.000000=1.000000=0.000000=0
;
#SCROLLS:0.000000=1.000000
;
#LABELS:0.000000=Song Start
;
#BGCHANGES:;
#KEYSOUNDS:;
#ATTACKS:
;

//---------------dance-single - ----------------
#NOTEDATA:;
#CHARTNAME:;
#CHARTHASH:100;
#STEPSTYPE:dance-single;
#BANNER:;
#DESCRIPTION:;
#CHARTSTYLE:;
#DIFFICULTY:Beginner;
#METER:3;
#METERF:3.000000;
#LASTSECONDHINT:126.829269;
#RADARVALUES:0.000000,0.000000,0.000000,0.000000,0.000000,0.000000,0.000000,0.000000,0.000000,0.000000,0.000000,0.000000,0.000000,0.000000,0.000000,0.000000,0.000000,0.000000,0.000000,0.000000,0.000000,0.000000,0.000000,0.000000,0.000000,0.000000,0.000000,0.000000;
#CREDIT:DJEmbraaAAINS;
#NOTES:
0000
0000
0000
0000
,
0000
0000
0000
0000
,
0000
0000
0000
0000
,
0000
0000
0000
0000
,
0000
0000
0001
0000
,
1001
0000
0000
0000
,
1000
0000
0100
0000
,
0010
0000
0000
0000
,
0001
0000
0100
0000
,
0010
0000
0000
0000
,
1000
1000
1000
0000
,
0001
0000
0000
0000
,
0010
0000
0100
0000
,
0010
0000
0010
0000
,
0020
0000
0030
0000
,
0010
0000
0010
0000
,
0020
0000
0030
0000
,
0001
0000
1000
0000
,
0200
0000
0300
0000
,
1000
0000
1000
0000
,
0020
0000
0030
0000
,
2002
3003
2002
3003
,
0000
0000
0010
0010
,
0000
0001
0000
1000
,
0000
0100
0100
0000
,
0220
0330
0220
0330
,
0000
0000
1001
1001
,
0000
0001
0000
0100
,
0000
0010
0010
0000
,
2002
3003
2002
3003
,
0000
0000
0100
0100
,
0000
1000
0000
0001
,
0000
0100
0100
0000
,
0220
0330
0220
0330
,
0000
0000
1001
1001
,
0000
0001
0000
0100
,
0000
0010
0010
0000
,
2000
0000
0000
0000
,
0000
0000
0000
0000
,
3000
0000
0000
0000
,
0000
0000
0000
0000
,
0001
0000
0010
0000
,
0001
0000
0001
0000
,
0200
0300
0200
0300
,
0200
0300
0200
0300
,
0020
0000
0030
0000
,
0200
0000
0300
0000
,
0020
0000
0030
0000
,
0200
0000
0300
0000
,
2002
3003
2002
3003
,
0000
0010
0010
0010
,
0000
1000
0000
0001
,
0000
0100
0100
0000
,
0220
0330
0220
0330
,
0000
0000
1001
1001
,
0000
0100
0100
0100
,
0000
0010
0010
0000
,
1001
0000
0110
0000
,
0000
0000
1001
1001
,
0000
0001
0000
0010
,
0010
0000
0100
0000
,
0110
0000
1001
0000
,
0000
0000
1001
0110
,
0000
1000
0000
0010
,
0010
0000
0100
0200
,
0300
0000
0000
0000
;

//---------------dance-single - ----------------
#NOTEDATA:;
#CHARTNAME:;
#CHARTHASH:4183818240;
#STEPSTYPE:dance-single;
#BANNER:;
#DESCRIPTION:;
#CHARTSTYLE:;
#DIFFICULTY:Easy;
#METER:6;
#METERF:6.000000;
#LASTSECONDHINT:126.829269;
#RADARVALUES:0.000000,0.000000,0.000000,0.000000,0.000000,0.000000,0.000000,0.000000,0.000000,0.000000,0.000000,0.000000,0.000000,0.000000,0.000000,0.000000,0.000000,0.000000,0.000000,0.000000,0.000000,0.000000,0.000000,0.000000,0.000000,0.000000,0.000000,0.000000;
#CREDIT:DJEmbraaAAINS;
#NOTES:
0000
0000
0000
0000
,
0000
0000
0000
0000
,
0000
0000
0000
0000
,
0000
0000
0000
0000
,
0000
0000
1000
1001
,
0002
0003
0010
0100
,
1000
0001
0000
0100
,
0200
0300
0010
1000
,
0001
0000
0010
0100
,
0220
0330
1000
0001
,
0100
0010
0100
0010
,
2000
3000
0001
0010
,
0100
0100
0100
0110
,
0001
0000
0001
0000
,
1000
1000
0001
0100
,
0010
0000
0010
0000
,
0100
0100
0010
1000
,
0001
0000
0020
0030
,
0100
1000
0100
0010
,
0001
0001
0001
0001
,
2000
3000
0001
1000
,
2002
3003
0220
0330
,
1000
0100
0110
0110
,
0010
0000
0000
0001
0000
0001
0000
0000
,
1000
0100
1100
1100
,
0202
0303
2020
3030
,
0000
0000
1001
1001
,
0001
0000
0000
0100
0000
0100
0000
0000
,
0010
1000
1010
1010
,
0002
0013
0002
0103
,
0010
1000
0001
0001
,
0020
0130
1000
0001
,
0100
0010
0110
0110
,
2000
3100
2000
3010
,
0000
0000
1010
0101
,
0001
1000
0100
0010
,
0001
0100
0001
0010
,
0200
0000
0000
0000
0010
0000
0000
1000
,
0000
1000
0000
0000
0010
0000
0310
0000
,
0001
0000
0000
0000
1000
0000
0000
0010
,
0000
0010
0000
0000
1000
0000
0001
0000
,
1000
0000
0200
0300
,
0010
0001
0100
0000
,
0002
1003
0002
1003
,
0020
0130
0020
0130
,
0002
0000
0023
0000
,
0230
0000
2300
0000
,
3020
0000
0230
0000
,
0302
0000
0013
0010
,
2002
3003
0220
0330
,
0001
0100
0101
0110
,
1000
0000
0000
0001
0000
0001
0000
0000
,
1000
0100
1100
0110
,
0022
0033
2002
3003
,
0000
0000
0110
1001
,
1000
0000
0000
0100
0000
0100
0000
0000
,
0010
0100
1000
1000
,
0002
0103
0002
0013
,
0100
1000
1100
1100
,
0002
0103
0010
1000
,
0001
1000
1010
1010
,
0220
0330
2002
3003
,
0000
0000
1100
0011
,
0001
0100
0010
0100
,
0001
0010
0100
2200
,
3300
0000
0000
0000
;

//---------------dance-single - ----------------
#NOTEDATA:;
#CHARTNAME:;
#CHARTHASH:4170186752;
#STEPSTYPE:dance-single;
#BANNER:;
#DESCRIPTION:;
#CHARTSTYLE:;
#DIFFICULTY:Medium;
#METER:10;
#METERF:10.000000;
#LASTSECONDHINT:126.829269;
#RADARVALUES:0.000000,0.000000,0.000000,0.000000,0.000000,0.000000,0.000000,0.000000,0.000000,0.000000,0.000000,0.000000,0.000000,0.000000,0.000000,0.000000,0.000000,0.000000,0.000000,0.000000,0.000000,0.000000,0.000000,0.000000,0.000000,0.000000,0.000000,0.000000;
#CREDIT:DJEmbraaAAINS;
#NOTES:
0000
0000
0000
0000
,
0000
0000
0000
0000
,
0000
0000
0000
0000
,
0000
0000
0000
0000
,
0000
0000
0000
1000
0001
1000
0200
0000
,
0320
0000
0000
0000
0031
0000
0000
1000
0000
0000
0010
0000
0100
0000
0001
0000
,
1000
0000
0100
0010
0100
0000
2000
0000
,
3020
0000
0000
0000
0130
0000
0000
0001
0000
0000
1000
0000
0100
0000
0010
0000
,
0001
0000
0100
0000
0010
1000
0010
1000
,
0020
0000
0000
0000
0130
0000
0000
0001
0000
0000
0010
0000
0100
0000
1000
0000
,
0001
1000
0001
0000
0100
0010
1000
0000
,
0002
0000
0000
0000
0013
0000
0000
0100
0000
0000
0010
0000
0001
0000
1000
0000
,
0010
0000
0010
1000
0010
0100
0010
1000
,
0001
0000
0000
0001
0001
0000
0000
0001
,
0010
0001
0010
0001
0010
0000
0100
1000
,
0100
0000
0000
1000
1000
0000
0000
1000
,
0010
1000
0010
1000
0010
0000
0100
0001
,
0100
0000
0010
1000
0002
0000
0013
0001
,
1000
0001
1000
0001
1000
0000
0010
0100
,
0020
2030
3002
0023
,
0130
0010
0100
0010
0001
1000
0001
1000
,
2010
3100
0012
0103
,
0001
0010
0001
0010
0011
0000
1100
0000
,
1000
0001
0000
0100
0000
0010
2000
0000
,
0001
3010
1010
0110
,
0102
0013
2100
3010
,
0000
1000
0000
1000
1001
0000
0110
0000
,
0001
0010
0000
0100
0000
1000
0002
0000
,
1000
0203
0010
0301
,
0010
0001
0100
0000
0010
1000
0100
0000
,
1000
0010
1000
0010
1010
0000
0101
0000
,
1000
0000
0000
0100
0000
0000
0010
0000
0001
0000
1000
0000
0001
0000
0000
0000
,
2000
0010
3100
1100
,
0100
1000
0010
0000
0100
0001
0010
0000
,
0000
0001
0000
0001
1001
0000
0110
0000
,
1000
0010
1000
0001
0000
0010
0002
0000
,
0100
1003
1100
0101
,
2001
0000
0000
0001
0001
0000
0000
0001
,
0000
0001
0000
0001
0001
0000
0010
0010
,
3010
0000
0000
1000
1000
0000
0000
1000
,
0001
1000
0000
1000
1000
0000
1000
1000
,
1000
0000
0000
0001
0002
0000
0003
1000
,
0100
1000
0100
1000
0100
0000
0010
0001
,
0020
0000
0031
1000
0002
0000
0103
0010
,
0200
0000
0310
1000
0020
0000
1030
0100
,
2000
0100
3002
0100
,
2003
0010
3002
0010
,
2003
3200
2300
3020
,
0230
0000
0302
0000
0013
0001
0010
0001
,
0012
0000
1003
0010
1020
0000
0130
0000
,
0010
1000
0100
0000
0110
0000
0011
0000
,
0001
0100
0010
1000
0010
0100
0002
0000
,
0010
1003
1010
0011
,
0102
0000
1003
0100
1200
0000
0310
0000
,
0000
0001
0000
0001
0011
0000
1001
0000
,
1000
0010
0100
0001
0010
0100
2000
0000
,
0100
3002
0203
0310
,
0100
0001
0010
0000
0100
1000
0010
0000
,
0100
0010
1000
0001
1001
0000
1100
0000
,
1000
0000
0000
0001
0000
0000
0100
0000
0010
0000
0100
0000
0002
0000
0000
0000
,
0100
1003
1001
1100
,
0010
0001
0100
0000
0010
1000
0100
0000
,
0000
1000
0000
1000
1010
0000
1001
0000
,
0002
0000
0013
0100
1000
0100
0010
0100
,
1000
0001
0100
0010
0100
0001
2002
0000
,
3003
0000
0000
0000
;

//---------------dance-single - ----------------
#NOTEDATA:;
#CHARTNAME:;
#CHARTHASH:110;
#STEPSTYPE:dance-single;
#BANNER:;
#DESCRIPTION:;
#CHARTSTYLE:;
#DIFFICULTY:Hard;
#METER:13;
#METERF:13.000000;
#LASTSECONDHINT:126.829269;
#RADARVALUES:0.000000,0.000000,0.000000,0.000000,0.000000,0.000000,0.000000,0.000000,0.000000,0.000000,0.000000,0.000000,0.000000,0.000000,0.000000,0.000000,0.000000,0.000000,0.000000,0.000000,0.000000,0.000000,0.000000,0.000000,0.000000,0.000000,0.000000,0.000000;
#CREDIT:DJEmbraaAAINS;
#NOTES:
0000
0000
0000
0000
,
0000
0000
0000
0000
,
0000
0000
0000
0000
,
0000
0000
0000
0000
,
0000
0000
0000
1000
1000
1000
0021
0000
,
0230
0000
0000
0000
0310
0000
0000
0100
0000
1000
0001
0000
0100
0000
0010
0000
,
1000
0000
0101
0001
1000
0000
1020
0000
,
0230
0000
0000
0000
0310
0000
0000
0100
0000
0001
1000
0000
0100
0000
0010
0000
,
0001
0000
1002
0013
0100
1000
0100
1000
,
0020
0000
0000
0000
0130
0000
0000
0010
0000
1000
0001
0000
0020
0000
0000
0000
,
0130
1000
0001
0000
0100
0000
0010
1000
0001
0000
1000
0000
1100
0000
0100
0000
,
0020
0000
0000
0000
0130
0000
0000
0010
0000
0001
1000
0000
0010
0000
0100
0000
,
0110
0000
0000
0010
0100
0000
0001
1000
0001
1000
0001
0000
0021
0000
0031
0000
,
1000
0000
0000
1000
1000
0000
0000
1000
,
0100
1000
0100
1000
1000
0000
0001
0001
,
0001
0000
0000
0001
0001
0000
0000
0001
,
0100
0001
0100
0001
0001
0000
0001
0001
,
1000
0000
0000
0000
0100
0000
0010
0000
0020
0000
0000
0030
0001
0000
1000
0000
,
0010
0100
0010
0100
0100
0000
0001
0001
,
1000
1000
0100
0100
0010
0010
0001
0001
,
1000
0001
1000
0001
0100
0010
1000
0001
1000
0000
0100
0000
1000
0000
0100
0000
,
0102
0000
1003
0100
0102
0000
2003
0000
,
0001
0010
0001
3010
0220
0330
2020
3030
,
1000
0100
0020
0001
0230
1000
0320
0000
,
0001
0000
0130
1000
2020
3030
0202
0303
,
2100
0000
3001
0100
2100
0000
3020
0000
,
0130
0001
0000
0001
0220
0330
2002
3003
,
0001
0010
0200
1000
0320
0001
0230
0000
,
1000
0000
0000
0000
0310
0000
0001
0000
0100
0001
0000
0000
1000
0001
0000
0000
,
0010
0001
1000
0000
0200
0000
0310
0000
0001
1000
0010
0000
2000
0000
0010
0000
,
0001
0100
0001
3100
0210
0310
0021
0031
,
0001
1000
0000
1000
0001
0000
0020
0000
0130
1000
0002
0000
1003
0010
1000
0010
,
2000
0001
3200
1300
2001
3001
1020
1030
,
0012
0000
0000
1003
0010
0100
0000
0001
0020
0000
0031
0000
0100
0000
0010
0000
,
0000
1000
0000
1000
0201
0301
1020
1030
,
0002
0000
1000
0000
0013
0100
0010
0100
1000
0000
0001
0000
0100
0010
1000
0010
,
0000
0100
0010
0000
1000
0001
0010
0000
0120
0000
0100
0000
0032
0000
0010
0000
,
0203
0000
0000
0001
0001
0000
0000
0010
,
0000
0010
0000
0001
0001
0000
0010
0001
,
0301
0000
1000
0001
0001
0000
1000
0100
,
0010
0100
1000
0001
0001
0000
0001
0001
,
0001
0000
0000
0000
1000
0000
0010
0000
0020
0000
0000
0030
0100
0000
0001
0000
,
0010
0100
0020
0001
0031
0000
1000
0001
,
2000
0000
0010
0000
3001
0100
0001
0000
2000
0000
0100
0000
3001
0010
0001
0000
,
2000
0000
0010
0000
3001
0100
0001
0000
2000
0000
0100
0000
3001
0010
0001
0000
,
0020
0000
0001
0000
0100
0000
0031
1000
0020
0000
1000
0000
0100
0000
1030
0001
,
0020
0000
0001
0000
0100
0000
0031
1000
0020
0000
1000
0000
0100
0000
0130
0001
,
2000
0100
3002
0010
2003
0100
3002
0010
,
2003
0001
3020
1000
0130
0010
0100
0010
,
4000
0004
0000
0000
0000
3000
0013
0000
0000
0100
0000
0000
4000
0004
0000
0000
0000
3000
0203
0000
0000
0000
0000
0000
,
0301
1000
1100
0001
0022
0033
2020
3030
,
0001
0100
0020
1000
0230
0001
0320
0000
,
0100
0000
2000
3030
2002
3003
2200
3300
,
0004
0040
0000
0000
0000
0003
0130
0000
0000
1000
0000
0000
0004
0400
0000
0000
0000
0003
0320
0000
0000
0000
0000
0000
,
0030
1000
0000
1000
2200
3300
0022
0033
,
0001
0100
0020
1000
0230
0001
0320
0000
,
2030
0000
0200
0300
0020
0030
0200
3300
,
1000
0001
0010
0000
0200
0000
1300
0000
0001
1000
0010
0000
0200
0000
0310
0000
,
1000
0000
0001
1000
0001
0000
0010
0000
1200
0000
0310
0000
2100
0000
3001
0000
,
0100
0001
0000
0001
0100
0001
1000
0000
0100
0010
0000
0010
0100
1000
0001
1000
,
0002
1000
0203
0301
0012
0013
0201
0301
,
0110
0000
0010
1000
0010
1000
0000
0001
0000
0000
0010
0000
0100
0000
1000
0000
,
0000
0001
0000
0001
0210
0310
1002
1003
,
0001
0000
0100
0000
0010
1000
0010
1000
0010
0100
0002
0000
0013
0100
0010
0001
,
0010
0100
1000
0000
0001
0000
0100
0010
1000
0010
0100
0010
2002
0000
0000
0000
,
3003
0000
0000
0000
;

//---------------dance-double - ----------------
#NOTEDATA:;
#CHARTNAME:;
#CHARTHASH:4250927104;
#STEPSTYPE:dance-double;
#BANNER:;
#DESCRIPTION:;
#CHARTSTYLE:;
#DIFFICULTY:Hard;
#METER:14;
#METERF:14.000000;
#LASTSECONDHINT:126.829269;
#RADARVALUES:0.528247,0.667646,0.281514,0.783675,0.285319,486.000000,449.000000,37.000000,103.000000,0.000000,0.000000,8.000000,0.000000,0.000000,0.528247,0.667646,0.281514,0.783675,0.285319,486.000000,449.000000,37.000000,103.000000,0.000000,0.000000,8.000000,0.000000,0.000000;
#CREDIT:DJEmbraaAAINS;
#NOTES:
// measure 0
00000000
00000000
00000000
00000000
,  // measure 1
00000000
00000000
00000000
00000000
,  // measure 2
00000000
00000000
00000000
00000000
,  // measure 3
00000000
00000000
00000000
00000000
,  // measure 4
00000000
00000000
00000000
00100000
00100000
00100000
00021000
00000000
,  // measure 5
00030200
00000000
00000000
00000000
00000310
00000000
00000000
00000001
00000000
00001000
00000010
00000000
00000100
00000000
00001000
00000000
,  // measure 6
00010000
00000000
10100000
10000000
01000000
00000000
00102000
00000000
,  // measure 7
02003000
00000000
00000000
00000000
03100000
00000000
00000000
10000000
00000000
00010000
00100000
00000000
01000000
00000000
00010000
00000000
,  // measure 8
00001000
00000000
00010200
00001300
00000001
00000010
00001000
00010000
,  // measure 9
00000200
00000000
00000000
00000000
00000310
00000000
00000000
00000001
00000000
00001000
00000010
00000000
00000100
00000000
00001000
00000000
,  // measure 10
00010000
00001000
01000000
00000000
00001000
00000000
00010000
00001000
00100000
00000000
00010000
00000000
10000000
00000000
01000000
00000000
,  // measure 11
00200000
00000000
00000000
00000000
00310000
00000000
00000000
10000000
00000000
00010000
00100000
00000000
01000000
00000000
00010000
00000000
,  // measure 12
00001000
00000000
00000000
00000010
00000100
00000000
00001000
00000001
00001000
00000001
00001000
00000000
00020100
00000000
00031000
00000000
,  // measure 13
01000000
00000000
00000000
01000000
01000000
00000000
00000000
01000000
,  // measure 14
00001000
01000000
00001000
01000000
01000000
00000000
00001000
00001000
,  // measure 15
00001000
00000000
00000000
00010000
00010000
00000000
00000000
00010000
,  // measure 16
00000100
00010000
00000100
00010000
00010000
00000000
00001000
01000000
,  // measure 17
00010000
00000000
00000000
00000000
10000000
00000000
01000000
00000000
02000000
00000000
00000000
03000000
00100000
00000000
00001000
00000000
,  // measure 18
00010000
00000010
00010000
00000010
00000010
00000000
00001000
00001000
,  // measure 19
00000100
00000100
00010000
00010000
00001000
00001000
00100000
00100000
,  // measure 20
00001000
00010000
00001000
00010000
00000100
00010000
00001000
01000000
00100000
00000000
01000000
00000000
00100000
00000000
01000000
00000000
,  // measure 21
00012000
00000000
00003100
00000010
00021000
00000000
00230000
00000000
,  // measure 22
10000000
01000000
10000000
01300000
02020000
03030000
00022000
00033000
,  // measure 23
00010000
00000010
00000200
00000001
00000320
00001000
00000230
00000000
,  // measure 24
00000010
00000000
00001300
00010000
00022000
00033000
02020000
03030000
,  // measure 25
00012000
00000000
00003010
00000100
00021000
00000000
02030000
00000000
,  // measure 26
13000000
00010000
00000000
00010000
00202000
00303000
00020200
00030300
,  // measure 27
00001000
00100000
02000000
10000000
03200000
00010000
02300000
00000000
,  // measure 28
00100000
00000000
00000000
00000000
03010000
00000000
00001000
00000000
00010000
00000100
00000000
00000000
00001000
00000001
00000000
00000000
,  // measure 29
00000100
00000001
00001000
00000000
00000020
00000000
00010030
00000000
00001000
01000000
00010000
00000000
20000000
00000000
00000000
00000000
,  // measure 30
00100000
00010000
01000000
30010000
00110000
00100000
00201000
00301000
,  // measure 31
00010000
00000010
00000000
00000010
00001000
00000000
00000002
00000000
00000103
00000010
00020000
00000000
00030100
00000010
00000100
00000010
,  // measure 32
00000200
00001000
00010300
00000000
00202000
00303000
02200000
03300000
,  // measure 33
21000000
00000000
00000000
30010000
01000000
00001000
00000000
00010000
00000020
00000000
00000130
00000000
00000001
00000000
00001000
00000000
,  // measure 34
00000000
00000100
00000000
00000100
00000110
00000010
00000011
00000001
,  // measure 35
00002000
00000000
00000010
00000000
00003001
00000100
00000001
00000100
00000010
00000000
00010000
00000000
00001000
00100000
00001000
00100000
,  // measure 36
00000000
01000000
10000000
00000000
00010000
10000000
00100000
00000000
10020000
00000000
10000000
00000000
00230000
00000000
00010000
00000000
,  // measure 37
00302000
00000000
00000000
00010000
00010000
00000000
00000000
00100000
,  // measure 38
00000000
00100000
00000000
00010000
00010000
00000000
01000000
00010000
,  // measure 39
00013000
00000000
00000010
00000100
00000100
00000000
00000001
00000100
,  // measure 40
00000010
00010000
00001000
00010000
00000100
00000000
00010000
00001000
,  // measure 41
00001000
00000000
00000000
00000000
01000000
00000000
00100000
00000000
00200000
00000000
00000000
00300000
01000000
00000000
00001000
00000000
,  // measure 42
00100000
00001000
00100000
00001000
00001000
00000000
01000000
00001000
,  // measure 43
00020000
00000000
00000100
00000000
00031000
00100000
00001000
00000000
00020000
00000000
00000010
00000000
00031000
01000000
00001000
00000000
,  // measure 44
00020000
00000000
00000100
00000000
00031000
00100000
00001000
00000000
00020000
00000000
00000010
00000000
00031000
01000000
00001000
00000000
,  // measure 45
02000000
00000000
00001000
00000000
00010000
00000000
03001000
00010000
00000200
00000000
00010000
00000000
00001000
00000000
00010300
00001000
,  // measure 46
00200000
00000000
00001000
00000000
00010000
00000000
00301000
00010000
00000020
00000000
00010000
00000000
00001000
00000000
00010030
00001000
,  // measure 47
00020000
00001000
00030200
00001000
00000320
00000001
00000230
00001000
,  // measure 48
00020300
00000100
00032000
00010000
01003000
00001000
01000000
00001000
,  // measure 49
00040000
00000040
00000000
00000000
00000000
00030000
00001030
00000000
00000000
00000100
00000000
00000000
00040000
00000400
00000000
00000000
00000000
00030000
00002300
00000000
00000000
00000000
00000000
00000000
,  // measure 50
00003001
00000100
00000110
00000010
00020020
00030030
00202000
00303000
,  // measure 51
00010000
01000000
00200000
10000000
02300000
00010000
03200000
00000000
,  // measure 52
01000000
00000000
00020000
00330000
00022000
00033000
00020020
00030030
,  // measure 53
00004000
04000000
00000000
00000000
00000000
00003000
03010000
00000000
00000000
00100000
00000000
00000000
00004000
00400000
00000000
00000000
00000000
00003000
00320000
00000000
00000000
00000000
00000000
00000000
,  // measure 54
00030000
10000000
00000000
10000000
02002000
03003000
00020200
00030300
,  // measure 55
00010000
00000010
00000200
00000001
00000320
00001000
00000230
00000000
,  // measure 56
00000302
00000000
00000020
00000030
00000200
00000300
00000020
00000033
,  // measure 57
00000100
00010000
00001000
00000000
00200000
00000000
00310000
00000000
01000000
00010000
10000000
00000000
00200000
00000000
01300000
00000000
,  // measure 58
00001000
00000000
00010000
00000100
00001000
00000000
00000001
00000000
00000012
00000000
00001003
00000000
00000021
00000000
00000130
00000000
,  // measure 59
00010000
00001000
00000000
00001000
00010000
00001000
01000000
00000000
00100000
10000000
00000000
10000000
00100000
01000000
00001000
01000000
,  // measure 60
00002000
01000000
00020000
00033000
00020200
00030300
00000220
00000330
,  // measure 61
00001001
00000000
00000001
00000100
00000001
00000100
00000000
00000010
00000000
00000000
00000100
00000000
00001000
00000000
00010000
00000000
,  // measure 62
00000000
00010000
00000000
00010000
00201000
00301000
00010200
00010300
,  // measure 63
00001000
00000000
01000000
00000000
00010000
10000000
00010000
10000000
01000000
00100000
00002000
00000000
00013000
00000100
00010000
00001000
,  // measure 64
00100000
00001000
00010000
00000000
00000010
00000000
00000100
00000001
00001000
00000001
00000100
00000001
00000020
00000000
00000000
00000000
,  // measure 65
00000030
00000000
00000000
00000000
;
