#TITLE:Erosion Mark;
#SUBTITLE:;
#ARTIST:kors k REASM Des-ROW;
#TITLETRANSLIT:;
#SUBTITLETRANSLIT:;
#ARTISTTRANSLIT:;
#GENRE:FALLIN APART CORE;
#CREDIT:;
#MUSIC:Erosion Mark.ogg;
#BANNER:Erosion Mark.png;
#BACKGROUND:Erosion Mark-bg.png;
#CDTITLE:;
#SAMPLESTART:66.020;
#SAMPLELENGTH:15.000;
#SELECTABLE:YES;
#OFFSET:0.223;
#BPMS:0.000=192.000;
#STOPS:;
#BGCHANGES:;
#FGCHANGES:;

//--------------- dance-single - eataninja ----------------
#NOTES:
     dance-single:
     eataninja:
     Beginner:
     5:
     0,0,0,0,0:
0000
0000
0000
0000
,
0000
0000
0000
0000
,
0000
0000
0000
0000
,
0000
0000
0000
0000
,
0000
0000
0000
0000
,
0000
0000
0000
0000
,
0000
0000
0000
0000
,
0000
0000
0000
0000
,
0000
0000
0000
0000
,
0001
0001
1000
0000
,
0010
0100
0010
0000
,
1000
1000
0001
0000
,
0010
0100
0010
0000
,
0110
0000
0100
0000
,
1001
0000
1000
0000
,
0010
0100
0001
1000
,
0100
0000
0000
0000
,
0010
0010
0010
0000
,
0100
0100
0100
0000
,
0010
0010
0010
0000
,
0001
0001
0001
0000
,
0100
0100
0100
0000
,
0010
0010
0010
0000
,
0100
0100
0100
0000
,
0001
1000
1000
0000
,
0001
0100
0001
0000
,
1000
0100
1000
0000
,
0001
0010
0001
0000
,
1000
0010
1000
0000
,
0001
0100
0010
0000
,
1000
0100
0010
0000
,
0001
0000
1000
0000
,
1001
0000
0000
0000
,
0020
0000
0100
0000
,
0130
0000
0000
0000
,
0002
0000
1000
0000
,
1003
0000
0000
0000
,
2000
0000
3100
0000
,
0020
0000
0100
0000
,
0130
0000
0000
0000
,
1001
0000
0000
0000
,
0001
0000
0100
0000
,
1000
0000
0000
0000
,
1000
0000
0100
0000
,
0001
0000
0000
0000
,
1000
0000
0100
0000
,
0001
0000
0100
0000
,
0010
0000
0010
0000
,
0001
0000
0000
0000
,
1000
0000
1000
0000
,
0001
0000
0001
0000
,
0200
0000
0320
0000
,
0230
0000
0000
0300
,
0001
1000
0100
0000
,
0100
0010
0001
0000
,
1000
0001
0100
0000
,
0010
0010
0010
0000
,
1000
0001
0010
0000
,
0010
0100
1000
0000
,
0001
0100
0001
0100
,
0010
0000
0010
0000
,
1000
0001
1000
0001
,
0010
0010
0010
0000
,
0001
1000
0001
1000
,
0010
0010
0010
0000
,
0210
0000
0310
0000
,
0120
0000
0130
0000
,
1001
0000
0000
0000
,
0020
0000
0000
0030
,
0100
0000
1000
0000
,
0010
0100
0001
0000
,
0100
0000
0010
0000
,
1000
0001
0010
0000
,
0100
0000
0001
0000
,
0100
0000
1000
0000
,
0010
0000
0100
0000
,
0001
0001
0001
0000
,
1000
0100
1000
0000
,
0001
0010
0001
0000
,
1000
0010
1000
0000
,
0001
0001
0001
0000
,
0100
0010
0100
0010
,
1000
0001
1000
0000
,
0200
0000
0320
0000
,
0032
0000
0000
0003
,
1001
0000
0000
0000
,
0110
0000
0000
0000
,
0200
0000
0000
0000
,
0020
0000
0000
0000
,
0000
0000
0330
0000
;

//--------------- dance-single - forcednature ----------------
#NOTES:
     dance-single:
     forcednature:
     Easy:
     9:
     0,0,0,0,0:
0000
0000
0000
0000
,
0000
0000
0000
0000
,
0000
0000
0000
0000
,
0000
0000
0000
0000
,
0000
0000
0000
0000
,
0000
0000
0000
0000
,
0000
0000
0000
0000
,
0000
0000
0000
0000
,
0000
0000
0000
0000
,
0101
1000
0001
0010
,
0100
1000
0100
0000
0010
0000
0001
0000
,
1000
0010
0100
0001
,
0010
0000
0100
0000
1000
0001
1000
0000
,
1100
0001
0001
0001
,
0101
1000
1000
1000
,
1001
1001
0110
0110
,
0200
0000
0020
0330
,
0001
0000
1000
0000
0010
0000
1000
0100
,
1000
0001
1000
0000
,
0010
0100
0001
1000
,
0100
0000
0010
0000
0001
0100
0000
0000
,
0100
0000
0001
0000
1000
0000
0100
0010
,
0001
1000
0010
0000
,
0100
0001
1000
0100
,
0220
0000
0330
0000
0001
1000
0000
0001
,
1000
0000
0010
0000
1000
0000
0100
0010
,
0100
0000
1000
0000
0001
0100
0000
0000
,
0010
0000
1000
0000
0001
0010
0001
0000
,
1000
0000
0010
0100
0010
0000
0000
0000
,
0100
0001
1000
0100
,
0010
0001
1000
0000
,
0002
0100
1000
0013
,
1001
2000
3200
0300
,
0000
0010
0001
0010
,
0002
0000
0000
0003
,
0000
1000
0010
1000
,
0020
0000
0000
0030
,
0000
0100
0001
0100
,
0002
0000
1000
1000
,
1003
0000
0000
0200
,
0000
0020
0000
0330
,
1001
0000
0001
1000
,
0001
0100
0010
1000
,
1001
0000
1000
0100
,
0010
0000
0001
0000
0000
0011
0000
0000
,
1001
0000
0001
0010
,
0100
1000
0001
1000
,
1001
0000
1000
0001
,
0100
0000
0010
0000
0000
0110
0000
0000
,
0001
0001
1000
1000
,
0100
0100
0010
0010
,
0001
0000
1000
0000
0001
0000
1000
0000
0001
0000
1000
0000
,
0002
1000
1003
1001
,
0001
1000
0100
1000
,
0010
0000
0100
0000
0001
0000
0010
0100
,
1000
0010
0100
0001
,
1000
0010
0000
0010
0000
0010
0100
0000
,
0001
0010
0100
1000
,
0001
0100
0010
1000
,
1001
0000
1001
0000
1000
0010
0000
1000
,
0020
0100
0100
0130
,
0010
1000
0001
0010
,
0100
0001
0100
1000
,
0100
1000
0001
0100
,
0010
0001
0010
1000
,
2002
0000
3003
0000
0001
1000
0001
1000
,
0200
0000
0300
0000
1000
0001
1000
0001
,
0200
0000
0300
0200
0000
0300
0010
0000
,
2002
0000
0000
3003
,
0001
0000
1000
0100
0000
1000
0100
0000
,
0010
0000
0001
0000
1000
0001
1000
0000
,
0100
0000
0010
0001
0000
0010
0001
0000
,
0100
0000
0100
0000
0001
1000
0000
1000
,
0100
0000
0100
0010
0001
0000
0001
0100
,
0010
0010
1000
1000
,
0000
0001
0010
0000
0010
0100
0000
0100
,
1000
0001
0200
0000
,
0310
0000
1000
0000
0001
0000
0100
0001
,
0100
0000
0010
0000
1000
0001
1000
0000
,
0100
0000
0010
0000
0001
1000
0001
1000
,
0010
0010
0010
2000
,
3001
0101
0001
0101
,
1000
1100
1000
1100
,
0001
1000
0001
0000
1000
0001
1000
0000
,
0020
0000
0000
0030
,
1000
0100
1000
0100
2000
0000
0000
0000
,
3001
0100
0001
0100
0002
0000
0000
0000
,
0023
0000
0000
0030
,
2002
0000
0000
0000
,
0000
0000
3003
0000
;

//--------------- dance-single - eataninja ----------------
#NOTES:
     dance-single:
     eataninja:
     Medium:
     12:
     0,0,0,0,0:
0000
0000
0000
0000
,
0000
0000
0000
0000
,
0000
0000
0000
0000
,
0000
0000
0000
0000
,
0000
0000
0000
0000
,
0000
0000
0000
0000
,
0000
0000
0000
0000
,
0000
0000
0000
0000
,
0000
0000
0000
0000
,
1000
0100
0010
0001
,
1000
0100
1000
0100
0010
0000
0010
0000
,
0001
0100
0010
1000
,
0001
0100
0001
0000
0100
0100
0010
0000
,
1000
0001
0010
0100
,
1000
0001
0100
0010
,
1000
0001
1000
0001
0010
0100
0010
0100
,
2000
0000
3010
0000
,
0010
0100
0001
1000
0000
0001
0100
0000
,
1000
0100
0010
0100
0000
0001
0001
0000
,
0100
0010
1000
0001
0000
1000
0100
0000
,
0001
0100
0010
0100
1000
1000
0001
0000
,
1000
0010
0100
0001
0000
0010
0100
0000
,
0001
0100
1000
0100
0000
0010
0010
0000
,
0001
1000
0010
0100
0000
0010
1000
0000
,
0002
0000
0023
0000
0130
0100
0000
0100
,
1000
0001
1000
0010
0100
0000
0001
0001
,
1000
0100
0010
0001
1000
1000
0010
0000
,
0100
0010
0100
0001
1000
1000
0001
0000
,
0010
0100
1000
0100
0001
0100
0010
0000
,
0001
1000
0010
0100
,
1000
0010
0001
0100
,
0010
1000
0010
0000
1000
0001
1000
0000
,
0100
0010
0002
0000
2003
0000
3010
0000
,
0200
0001
0301
0000
,
0020
0100
0031
0000
,
2000
0001
3001
0010
,
1000
0000
0010
0100
0000
1000
0000
1000
,
0000
0002
1000
0103
,
0001
0000
0010
0100
0000
1000
0000
0001
,
0000
0000
0200
0000
,
0310
0100
0002
0000
,
1003
0000
0100
0000
1100
0000
0001
0100
,
1000
0100
0110
0000
,
0001
0000
0010
0000
0011
0000
1000
0010
,
0001
0000
0010
0000
0100
0001
0000
1000
,
0100
0000
0010
0000
0110
0000
0001
0100
,
1000
0000
0100
0010
0000
1000
0000
0001
,
0010
0000
0200
0000
,
1300
0000
0001
0000
0100
1000
0000
0100
,
0001
0001
1000
1000
,
0100
0100
0010
0010
,
0001
0000
1000
0000
0001
0000
0010
0000
0100
0000
1000
0000
,
0020
0032
0203
1300
,
0001
0000
0000
0001
0100
0000
0000
0000
0010
0000
0000
0000
1000
0000
0001
0000
,
0010
0000
0000
0010
0100
0000
0000
0000
1000
0000
0000
0000
0001
0000
1000
0000
,
0010
0000
0000
0010
0100
0000
0000
0000
0001
0000
0000
0000
1000
0000
0100
0000
,
0001
0100
0001
0100
0001
0100
1000
0000
,
0010
0000
0000
0010
0100
0000
0000
0000
0001
0000
0000
0000
1000
0000
0100
0000
,
0010
0000
0000
0010
0001
0000
0000
0000
1000
0000
0000
0000
0010
0000
0000
0000
,
0100
0000
0000
0100
1000
0000
0000
0000
0100
0000
0100
0000
0010
0000
0010
0000
,
2000
0001
0001
3001
,
0010
0000
0000
0010
0100
0000
0000
0000
1000
0000
0000
0000
0001
0000
1000
0000
,
0010
0000
0000
0010
0100
0000
0000
0000
0101
0000
0000
0000
1100
0000
0000
0000
,
0001
0000
0000
0001
0010
0000
0000
0000
0100
0000
0000
0000
0010
0000
0001
0000
,
0100
0000
0000
0100
1000
0000
0000
0000
1100
0000
0000
0000
0101
0000
0000
0000
,
1002
0000
0000
0000
1003
0100
0001
0100
,
2000
0000
0000
0000
3001
0100
1000
0100
,
0020
0000
0000
2030
0000
0000
3002
0000
,
0013
0000
0000
0010
0100
0000
0000
0100
1000
0000
0000
1000
0001
0000
0000
0001
,
0100
0000
1000
0100
0010
0100
0001
1000
,
0000
0100
0001
0100
0100
0010
0001
1000
,
0010
0000
0100
1000
0000
0100
0010
1000
,
0001
0010
0100
1000
0010
0100
0001
0000
,
1000
0100
0010
0100
0010
0100
1000
0001
,
0100
0010
1000
0010
0001
0010
0100
0001
,
1000
0001
0002
0000
0013
0020
0000
0130
,
0100
0000
0000
0000
1000
0000
0000
0000
0001
0000
0000
0100
0000
0000
0010
0000
,
1000
0000
0001
0010
0000
1000
0010
0100
,
1000
0000
0010
0100
0000
0010
0001
0000
,
0010
0000
0100
0001
1000
0100
0100
0010
,
0001
1000
1000
0010
0100
1000
0100
0001
,
1000
0100
0010
0001
1000
0010
0100
0001
,
1000
0001
0010
0100
1000
0001
0100
0010
,
0100
0100
0001
0001
1000
1000
0001
0001
,
0010
0100
0001
0100
2000
0000
3010
0100
,
0202
0000
0000
0303
,
2200
0000
0000
3300
,
2002
0000
0000
3003
,
0220
0000
0000
0000
,
0000
0000
0330
0000
;

//--------------- dance-single - forcednature + eataninja ----------------
#NOTES:
     dance-single:
     forcednature + eataninja:
     Hard:
     15:
     0,0,0,0,0:
0000
0000
0000
0000
,
0000
0000
0000
0000
,
0000
0000
0000
0000
,
0000
0000
0000
0000
,
0000
0000
0000
0000
,
0000
0000
0000
0000
,
0000
0000
0000
0000
,
0000
0000
0000
0000
,
0000
0000
0000
0000
,
1100
0000
0001
0000
1000
1000
0010
0000
,
0100
0000
0001
0000
0010
0000
0010
0100
1000
0000
0000
0000
1000
0000
0000
0000
,
0001
0000
0100
0000
1000
0000
0100
0000
0001
0000
0100
0000
0010
1000
0010
1000
,
0001
1000
0100
0000
0010
0010
0002
0000
,
1003
0100
1000
0010
1000
0100
1000
0010
,
0100
0000
0001
0000
0010
0000
0001
0000
0100
0000
0001
0000
1000
0001
1000
0001
,
0100
0000
0001
0000
1000
0000
0100
0000
0010
0001
0010
0001
1000
0010
1000
0010
,
0200
0000
0002
0303
,
1000
0001
0010
0001
0100
0010
1000
0100
,
0001
0100
0010
0001
1000
0010
1010
0000
,
0001
0100
0001
0010
0100
0001
0100
0010
,
0001
1000
0001
0100
0010
0010
0110
0000
,
0001
1000
0010
0100
0010
1000
0001
0010
,
0100
1000
0100
0001
0100
0010
0011
0000
,
1000
0100
0001
0100
0010
0001
1000
0001
,
0201
0000
1000
0000
0310
0010
1000
0001
,
0010
0000
0000
0010
0100
0000
1000
0000
0001
0000
0000
0001
0100
0000
1000
0000
,
0100
0000
0000
0100
0010
0000
1000
0000
0001
0000
0010
0100
1000
0000
0000
0000
,
0001
0100
0001
0010
0200
1000
0310
0000
,
0110
0000
0000
0000
1000
0001
0100
0000
0010
0000
0000
0000
1010
0000
0000
0000
,
0001
0100
1000
0100
0001
0010
1000
0010
,
0100
1000
0001
1000
0010
0000
0101
0000
,
2010
0100
0001
3010
,
1100
0002
0203
0310
,
0000
1000
0100
1000
0010
0000
0100
0000
,
0202
0000
0000
0303
,
0000
1000
0100
1000
0010
0000
1000
0001
,
0200
0000
0310
2000
0000
3002
0000
0023
,
0000
0130
1000
0001
0100
0000
0010
1000
,
0002
0000
0013
0200
0000
2300
0000
3002
,
0000
0003
0000
0200
,
0000
0020
0000
0330
,
1000
0010
0100
0100
0001
0000
0010
0000
,
1100
0010
0101
0001
,
1000
0010
0010
0100
0001
0000
0010
0100
,
1000
0000
0001
0100
0000
1020
0000
0031
,
0010
0100
0100
0001
1000
0000
0100
0010
,
0001
0000
1000
0010
0100
0000
0101
0000
,
0021
0000
1000
0000
0100
0000
0031
0010
,
0100
0000
1000
0001
0100
0020
0000
0000
,
0130
0100
0001
0001
,
1000
1000
0100
0100
,
0020
0000
0032
0000
2003
0000
3020
0000
0032
0000
2003
0000
,
3100
0000
0010
0000
1000
0000
0001
0000
0010
0100
0010
0100
1000
0000
0000
0000
,
0001
0000
0100
0010
0100
0000
0000
0000
0001
0000
0000
0001
1000
0000
0100
0000
,
0010
0000
0001
0010
0001
0000
0000
0000
1000
0000
0000
1000
0010
0000
0100
0000
,
0100
0000
0001
1000
0001
0000
0000
0000
0010
0000
0000
0010
0100
0000
1000
0000
,
0001
0100
1000
0100
0001
0100
1000
0000
,
0100
0000
0010
0100
0010
0000
0000
0000
1000
0000
0000
1000
0001
0000
0010
0000
,
0100
0000
1000
0100
1000
0000
0000
0000
0001
0000
0000
0001
1000
0000
0010
0000
,
0100
0000
0000
0100
0010
0000
0000
0010
1000
0000
0001
0010
0100
0000
1000
0000
,
0002
0000
0100
0000
0103
0000
0010
1000
,
0001
0000
0010
0100
1000
0000
0000
0000
0001
0000
0000
0001
1000
0000
0010
0000
,
0100
0000
0001
1000
0100
0000
0000
0000
0010
0000
0000
0010
0001
0000
1000
0000
,
0010
0000
0100
0010
1000
0000
0000
0000
0001
0000
0000
0001
0010
0000
0100
0000
,
1000
0000
0010
0100
0001
0000
0000
0000
1000
0000
0000
1000
0001
0000
0010
0000
,
2000
0000
3000
0000
0010
0100
1000
0010
,
0002
0000
0003
0000
0010
1000
0100
0010
,
0022
0000
0033
0202
0000
0303
2100
0000
,
3001
0000
0100
0000
1000
0000
0100
0000
0010
0000
0100
0010
0100
0000
0001
1000
,
0100
0000
0000
0000
0010
0000
0001
0000
1000
0000
0010
0100
0001
0000
1000
0000
,
0000
0000
0100
0000
0001
0000
0100
0000
0010
0000
0001
1000
0010
0000
0100
0010
,
1000
0000
0001
0010
0100
1000
0010
0100
,
0010
0000
1000
0000
0001
0000
0100
0000
1000
0000
0100
0010
0000
0010
1000
0000
,
0001
0010
0100
1000
0100
1000
0010
0100
,
0001
0000
1000
0000
0100
0000
0010
0000
1000
0000
0010
0100
1000
0000
0001
0000
,
1000
0010
0010
0000
0100
0100
0000
0001
,
0010
0000
0000
0000
0100
0000
0010
0000
0001
0000
0000
1001
0000
0000
1000
0000
,
0010
0000
0000
0000
0100
0000
0001
0000
0010
0000
0100
0010
0100
0000
1000
0000
,
1000
0000
0000
0000
0010
0000
0100
0000
0001
0000
1000
0100
0020
0000
0000
0000
,
0032
0000
0103
1000
0100
0001
0001
1000
,
1000
0000
0010
0100
0010
0100
0010
0000
1000
0000
0100
0000
0001
0000
0100
0010
,
0001
1000
0010
0100
1000
0001
0010
1000
,
0100
0010
0001
1000
0100
0001
1000
0010
,
0100
0100
1000
1000
0001
0001
0100
0100
,
0010
1000
0010
1000
0001
0010
0001
0010
0100
0000
0000
0000
0010
0000
0100
0000
,
1000
0000
1000
0000
0001
0000
0100
0000
0020
0000
0000
0000
0000
0000
0130
0001
,
1000
0000
1000
0000
0001
0000
0010
0000
0200
0000
0000
0000
0000
0000
0310
0001
,
2000
0000
0000
0000
,
0020
0000
0000
0000
,
0000
0000
3030
0000
;

//--------------- dance-double - forcednature ----------------
#NOTES:
     dance-double:
     forcednature:
     Easy:
     9:
     0,0,0,0,0:
00000000
00000000
00000000
00000000
,
00000000
00000000
00000000
00000000
,
00000000
00000000
00000000
00000000
,
00000000
00000000
00000000
00000000
,
00000000
00000000
00000000
00000000
,
00000000
00000000
00000000
00000000
,
00000000
00000000
00000000
00000000
,
00000000
00000000
00000000
00000000
,
00000000
00000000
00000000
00000000
,
00011000
00010000
00001000
01000000
,
00010000
10000000
00010000
00000000
00100000
00000000
01000000
00000000
,
00010000
00001000
00000100
00000010
,
00001000
00000000
00000001
00000000
00000010
00000100
00000010
00000000
,
00001100
00010000
00010000
00010000
,
01010000
00001000
00001000
00001000
,
00001100
00010100
01001000
01010000
,
02000000
00000000
00200000
03300000
,
10000000
00000000
00010000
00000000
00100000
00000000
01000000
10000000
,
01000000
00100000
00001000
00000000
,
00010000
00000010
00001000
00000100
,
00010000
00000000
00000010
00000000
00001000
00000100
00000000
00000000
,
00000010
00000000
00000001
00000000
00000100
00000000
00000001
00000010
,
00000100
00010000
00001000
00000000
,
01000000
00010000
10000000
01000000
,
02200000
00000000
03300000
00000000
10000000
00010000
00000000
10000000
,
00010000
00000000
00100000
00000000
00001000
00000000
00010000
00000010
,
00010000
00000000
00001000
00000000
00000010
00000100
00000000
00000000
,
00001000
00000000
00000001
00000000
00000100
00000010
00000100
00000000
,
00001000
00000000
00010000
00001000
00010000
00000000
00000000
00000000
,
00100000
01000000
10000000
01000000
,
00010000
00100000
00001000
00000000
,
00020000
00000100
00001000
00030010
,
00011000
00002000
00023000
00030000
,
00000000
00000100
00010000
00000100
,
00020000
00000000
00000000
00030000
,
00000000
00000010
00001000
00000010
,
00002000
00000000
00000000
00003000
,
00000000
00000001
00000010
00000001
,
00000020
00000000
00000100
00000100
,
00000130
00000000
00000000
00020000
,
00000000
00002000
00000000
00033000
,
00011000
00000000
01000000
00010000
,
01000000
00001000
00100000
00001000
,
00011000
00000000
00000100
00001000
,
00000001
00000000
00000010
00000000
00000000
00000110
00000000
00000000
,
00001001
00000000
00000001
00000100
,
00000010
00010000
00001000
00010000
,
00011000
00000000
01000000
00010000
,
10000000
00000000
01000000
00000000
00000000
01100000
00000000
00000000
,
00100000
00100000
00001000
00001000
,
00010000
00010000
00000010
00000010
,
00001000
00000000
00000001
00000000
00001000
00000000
00000001
00000000
00001000
00000000
00000001
00000000
,
00002000
00000001
00003001
00001001
,
00001000
00000100
00010000
00000100
,
00001000
00000000
00000010
00000000
00010000
00000000
00001000
00100000
,
00010000
01000000
00010000
00100000
,
01000000
10000000
00000000
10000000
00000000
10000000
00100000
00000000
,
01000000
00010000
01000000
00001000
,
00010000
00000100
00001000
00000100
,
00000110
00000000
00000110
00000000
00000010
00000001
00000000
00000010
,
00000002
00001000
00001000
00001003
,
00000001
00000100
00000010
00001000
,
00000100
00000010
00000100
00010000
,
00001000
01000000
00010000
00100000
,
01000000
00010000
01000000
10000000
,
20020000
00000000
30030000
00000000
00010000
10000000
00010000
10000000
,
00200000
00000000
00300000
00000000
01000000
00001000
01000000
00001000
,
00020000
00000000
00030000
00020000
00000000
00030000
00001000
00000000
,
00022000
00000000
00000000
00033000
,
00001000
00000000
00010000
00000100
00000000
00010000
00000100
00000000
,
00001000
00000000
00000001
00000000
00000100
00000010
00000100
00000000
,
00000001
00000000
00000010
00000100
00000000
00000010
00000100
00000000
,
00010000
00000000
00010000
00000000
00001000
01000000
00000000
01000000
,
00010000
00000000
00010000
00100000
01000000
00000000
01000000
10000000
,
00010000
00010000
01000000
01000000
,
00000000
00001000
00010000
00000000
00010000
00000100
00000000
00000100
,
00001000
00000010
00000200
00000000
,
00000301
00000000
00001000
00000000
00000100
00000000
00010000
00001000
,
00010000
00000000
00000010
00000000
00001000
00000100
00001000
00000000
,
00000010
00000000
00000100
00000000
00001000
00010000
00001000
00010000
,
00100000
00100000
00100000
02000000
,
03010000
01010000
00001000
00011000
,
00000100
00001100
00000001
00001001
,
00001000
00000100
00010000
00000000
00001000
01000000
00010000
00000000
,
00200000
00000000
00000000
00300000
,
00001000
01000000
00001000
01000000
00002000
00000000
00000000
00000000
,
00013000
00000100
00010000
00000100
00020000
00000000
00000000
00000000
,
00032000
00000000
00000000
00003000
,
00022000
00000000
00000000
00000000
,
00000000
00000000
00033000
00000000
;

//--------------- dance-double - forcednature ----------------
#NOTES:
     dance-double:
     forcednature:
     Medium:
     12:
     0,0,0,0,0:
00000000
00000000
00000000
00000000
,
00000000
00000000
00000000
00000000
,
00000000
00000000
00000000
00000000
,
00000000
00000000
00000000
00000000
,
00000000
00000000
00000000
00000000
,
00000000
00000000
00000000
00000000
,
00000000
00000000
00000000
00000000
,
00000000
00000000
00000000
00000000
,
00000000
00000000
00000000
00000000
,
00010000
00001000
00000010
00000100
,
00010000
00001000
00010000
00001000
00000100
00000000
00000100
00000000
,
00000010
00001000
00010000
01000000
,
00100000
10000000
00100000
00000000
10000000
10000000
01000000
00000000
,
00010000
00001000
00000010
00000100
,
00010000
00001000
00000100
00000010
,
00001000
00000001
00001000
00000001
00000010
00000100
00000010
00000100
,
00020000
00000000
00031000
00000000
,
01000000
00010000
01000000
00100000
00000000
10000000
01000000
00000000
,
00100000
00010000
00100000
00001000
00000000
00010000
00010000
00000000
,
00000010
00001000
00000001
00000100
00000000
00000010
00001000
00000000
,
00000100
00000010
00000100
00001000
00000010
00000010
00010000
00000000
,
00001000
00100000
00010000
01000000
00000000
00010000
10000000
00000000
,
01000000
00010000
00001000
00010000
00000000
00000100
00000100
00000000
,
00001000
00000001
00000100
00000010
00000000
00001000
00000100
00000000
,
00020000
00000000
00032000
00000000
01003000
01000000
00000000
01000000
,
00010000
00100000
01000000
10000000
01000000
00000000
00100000
00100000
,
00010000
01000000
00001000
00010000
00000100
00000100
00001000
00000000
,
00000010
00001000
00000010
00010000
00001000
00001000
00000010
00000000
,
00000100
00000010
00001000
00000010
00000001
00000010
00000100
00000000
,
00010000
00001000
00000100
00010000
,
01000000
00001000
00010000
01000000
,
00100000
00010000
00100000
00000000
01000000
10000000
01000000
00000000
,
00010000
00001000
00020000
00000000
00030200
00000000
00001300
00000000
,
00020000
00000010
00030010
00000000
,
00000200
00001000
00000310
00000000
,
00000002
00001000
00001003
00000010
,
00000100
00000000
00001000
00010000
00000000
00100000
00000000
00100000
,
00000000
02000000
00010000
03001000
,
01000000
00000000
00010000
10000000
00000000
01000000
00000000
00010000
,
00000000
00000000
00002000
00000000
,
00013000
00000100
00002000
00000000
,
00003010
00000000
00001000
00000000
00001010
00000000
00000001
00000100
,
00001000
00010000
00011000
00000000
,
00100000
00000000
00010000
00000000
00110000
00000000
10000000
01000000
,
00010000
00000000
00001000
00000000
00010000
00000100
00000000
00000100
,
00001000
00000000
00000100
00000000
00001100
00000000
00000001
00000010
,
00001000
00000000
00010000
00001000
00000000
01000000
00000000
00001000
,
00010000
00000000
00200000
00000000
,
10300000
00000000
00010000
00000000
00100000
01000000
00000000
10000000
,
01000000
01000000
00010000
00010000
,
00001000
00001000
00000010
00000010
,
00000001
00000000
00001000
00000000
00000001
00000000
00000010
00000000
00000100
00000000
00001000
00000000
,
00000020
00000230
00002300
00013000
,
00001000
00000000
00000000
00001000
01000000
00000000
00000000
00000000
00100000
00000000
00000000
00000000
10000000
00000000
01000000
00000000
,
00100000
00000000
00000000
00100000
00010000
00000000
00000000
00000000
01000000
00000000
00000000
00000000
00001000
00000000
00010000
00000000
,
00000100
00000000
00000000
00000100
00001000
00000000
00000000
00000000
00000010
00000000
00000000
00000000
00000100
00000000
00001000
00000000
,
00010000
00001000
00010000
00001000
00010000
00001000
00000100
00000000
,
00000001
00000000
00000000
00000001
00000010
00000000
00000000
00000000
00000100
00000000
00000000
00000000
00001000
00000000
00000010
00000000
,
00010000
00000000
00000000
00010000
00001000
00000000
00000000
00000000
00100000
00000000
00000000
00000000
00010000
00000000
00000000
00000000
,
01000000
00000000
00000000
01000000
10000000
00000000
00000000
00000000
01000000
00000000
01000000
00000000
00010000
00000000
00010000
00000000
,
00200000
01000000
01000000
01300000
,
00100000
00000000
00000000
00100000
00001000
00000000
00000000
00000000
00010000
00000000
00000000
00000000
00000010
00000000
00001000
00000000
,
00000100
00000000
00000000
00000100
00000010
00000000
00000000
00000000
00000011
00000000
00000000
00000000
00001010
00000000
00000000
00000000
,
00000001
00000000
00000000
00000001
00000100
00000000
00000000
00000000
00001000
00000000
00000000
00000000
00010000
00000000
00001000
00000000
,
01000000
00000000
00000000
01000000
00010000
00000000
00000000
00000000
10100000
00000000
00000000
00000000
00110000
00000000
00000000
00000000
,
00012000
00000000
00000000
00000000
00013000
00001000
00000100
00001000
,
00020000
00000000
00000000
00000000
00031000
00010000
01000000
00010000
,
00002000
00000000
00000000
00003020
00000000
00000000
00000230
00000000
,
00001300
00000000
00000000
00001000
00000001
00000000
00000000
00000001
00000100
00000000
00000000
00000100
00000010
00000000
00000000
00000010
,
00001000
00000000
00000100
00010000
00001000
00010000
00100000
01000000
,
00000000
00010000
10000000
00010000
00010000
00100000
01000000
00100000
,
00001000
00000000
00010000
00000010
00000000
00001000
00000100
00000010
,
00000001
00000100
00001000
00010000
00000100
00001000
00000010
00000000
,
00010000
00100000
01000000
00100000
01000000
00100000
00010000
00001000
,
00100000
01000000
10000000
01000000
00010000
00001000
01000000
00001000
,
00010000
00000010
00000020
00000000
00000130
00000200
00000000
00000301
,
00000001
00000000
00000000
00000000
00000010
00000000
00000000
00000000
00000100
00000000
00000000
00010000
00000000
00000000
00001000
00000000
,
00100000
00000000
00001000
00010000
00000000
00100000
01000000
10000000
,
01000000
00000000
00010000
10000000
00000000
01000000
00010000
00000000
,
00001000
00000000
00001000
00000100
00000001
00000010
00000010
00000100
,
00001000
00000001
00000001
00000100
00000010
00000001
00000010
00001000
,
00000100
00000010
00001000
00010000
00000010
00000100
00001000
00010000
,
01000000
00100000
00001000
00010000
00100000
01000000
00001000
00010000
,
01000000
01000000
10000000
10000000
00010000
00010000
01000000
01000000
,
00100000
00010000
00001000
00010000
00000200
00000000
00000310
00000100
,
00000220
00000000
00000000
00000330
,
00022000
00000000
00000000
00033000
,
02200000
00000000
00000000
03300000
,
20020000
00000000
00000000
00000000
,
00000000
00000000
30030000
00000000
;

//--------------- dance-double - forcednature ----------------
#NOTES:
     dance-double:
     forcednature:
     Hard:
     15:
     0,0,0,0,0:
00000000
00000000
00000000
00000000
,
00000000
00000000
00000000
00000000
,
00000000
00000000
00000000
00000000
,
00000000
00000000
00000000
00000000
,
00000000
00000000
00000000
00000000
,
00000000
00000000
00000000
00000000
,
00000000
00000000
00000000
00000000
,
00000000
00000000
00000000
00000000
,
00000000
00000000
00000000
00000000
,
00011000
00000000
01000000
00000000
00010000
00010000
00100000
00000000
,
01000000
00000000
10000000
00000000
00010000
00000000
00010000
01000000
00001000
00000000
00000000
00000000
00010000
00000000
00000000
00000000
,
00000100
00000000
00001000
00000000
00000100
00000000
00000001
00000000
00000100
00000000
00000010
00000000
00000001
00001000
00000001
00001000
,
00000010
00000100
00001000
00000000
00010000
00010000
00200000
00000000
,
00310000
00001000
00010000
01000000
00010000
00001000
00010000
00000010
,
00010000
00000000
00001000
00000000
00000100
00000000
00001000
00000000
00010000
00000000
00001000
00000000
00100000
00001000
00100000
00001000
,
00010000
00000000
00100000
00000000
01000000
00000000
00100000
00000000
10000000
00100000
10000000
00100000
01000000
00010000
01000000
00010000
,
00200000
00000000
00002000
00303000
,
00001000
00010000
00100000
01000000
00100000
10000000
00010000
10000000
,
01000000
00010000
00001000
00010000
00000010
00001000
00001100
00000000
,
00000100
00000010
00001000
00000010
00000001
00001000
00000001
00000100
,
00001000
00010000
00001000
00100000
01000000
01000000
01100000
00000000
,
00100000
10000000
00100000
00010000
01000000
00001000
01000000
00100000
,
00010000
00001000
00010000
00000100
00000010
00000000
00001001
00000000
,
00000001
00000100
00001000
00000100
00000010
00001000
00010000
01000000
,
02010000
00000000
10000000
00000000
03100000
00100000
10000000
00010000
,
00100000
00000000
00000000
00100000
01000000
00000000
00010000
00000000
00001000
00000000
00000000
00001000
00010000
00000000
00000010
00000000
,
00001000
00000000
00000000
00001000
00000100
00000000
00000010
00000000
00000001
00000000
00000100
00000010
00001000
00000000
00000000
00000000
,
00000001
00000010
00001000
00000010
00000200
00001000
00010300
00000000
,
00011000
00000000
00000000
00000000
01000000
00010000
01000000
00000000
00100000
00000000
00000000
00000000
10010000
00000000
00000000
00000000
,
10000000
01000000
00010000
01000000
00100000
00010000
00100000
00001000
,
00000100
00000010
00000100
00000001
00000010
00000000
00000110
00000000
,
00002100
00000001
00000010
00003100
,
00011000
02000000
03020000
00130000
,
00000000
01000000
10000000
01000000
00010000
00000000
00001000
00000000
,
00022000
00000000
00000000
00033000
,
00000000
00001000
00010000
00000100
00010000
00000000
00001000
00000100
,
00000020
00000000
00001030
00000002
00000000
00000023
00000000
00000230
,
00000000
00010300
00000010
00001000
00000100
00000000
00010000
00001000
,
02000000
00000000
03010000
20000000
00000000
32000000
00000000
03200000
,
00000000
00300000
00000000
00002000
,
00000000
00020000
00000000
00033000
,
00001000
00010000
00000100
00000100
00001000
00000000
00000010
00000000
,
00010100
00001000
00110000
00001000
,
00010000
00001000
00001000
01000000
00010000
00000000
00100000
01000000
,
10000000
00000000
01000000
00010000
00000000
00012000
00000000
00103000
,
00001000
00010000
00010000
00000010
00001000
00000000
00000100
00000010
,
00000001
00000000
00000100
00001000
00010000
00000000
00010100
00000000
,
00201000
00000000
00010000
00000000
01000000
00000000
10300000
00100000
,
00010000
00000000
01000000
00001000
00010000
00000020
00000000
00000000
,
00001030
00001000
00000100
00000100
,
00010000
00010000
00001000
00001000
,
00000200
00000000
00000320
00000000
00002030
00000000
00003200
00000000
00000320
00000000
00002030
00000000
,
00013000
00000000
01000000
00000000
00100000
00000000
00010000
00000000
10000000
00100000
10000000
00100000
01000000
00000000
00000000
00000000
,
00010000
00000000
00100000
01000000
00100000
00000000
00000000
00000000
00010000
00000000
00000000
00010000
01000000
00000000
00001000
00000000
,
00010000
00000000
00000100
00001000
00000100
00000000
00000000
00000000
00000010
00000000
00000000
00000010
00000001
00000000
00000100
00000000
,
00000100
00000000
00000001
00001000
00000001
00000000
00000000
00000000
00000010
00000000
00000000
00000010
00000100
00000000
00010000
00000000
,
00001000
00100000
01000000
00100000
00001000
00100000
01000000
00000000
,
10000000
00000000
00010000
01000000
00010000
00000000
00000000
00000000
00100000
00000000
00000000
00100000
00001000
00000000
00010000
00000000
,
00000010
00000000
00001000
00000010
00001000
00000000
00000000
00000000
00000100
00000000
00000000
00000100
00000010
00000000
00000001
00000000
,
00000100
00000000
00000000
00000100
00001000
00000000
00000000
00001000
00010000
00000000
00001000
00100000
00010000
00000000
01000000
00000000
,
00200000
00000000
10000000
00000000
10300000
00000000
00100000
10000000
,
01000000
00000000
00100000
00010000
10000000
00000000
00000000
00000000
00010000
00000000
00000000
00010000
01000000
00000000
00001000
00000000
,
00010000
00000000
00000100
00001000
00000010
00000000
00000000
00000000
00000100
00000000
00000000
00000100
00000001
00000000
00001000
00000000
,
00000001
00000000
00000010
00000100
00001000
00000000
00000000
00000000
00000010
00000000
00000000
00000010
00010000
00000000
00001000
00000000
,
00100000
00000000
00010000
01000000
00001000
00000000
00000000
00000000
00010000
00000000
00000000
00010000
00100000
00000000
10000000
00000000
,
00020000
00000000
00030000
00000000
00100000
01000000
00010000
00000100
,
00002000
00000000
00003000
00000000
00000010
00000100
00001000
01000000
,
02020000
00000000
03030000
02002000
00000000
03003000
00021000
00000000
,
00030100
00000000
00001000
00000000
00000010
00000000
00001000
00000000
00000100
00000000
00000010
00000001
00000010
00000000
00000100
00010000
,
00001000
00000000
00000000
00000000
00100000
00000000
00010000
00000000
01000000
00000000
00100000
10000000
00010000
00000000
00100000
00000000
,
00000000
00000000
01000000
00000000
10000000
00000000
01000000
00000000
00010000
00000000
00001000
00100000
00010000
00000000
01000000
00001000
,
00010000
00000000
00000100
00001000
00000010
00000100
00001000
00000100
,
00000001
00000000
00000010
00000000
00000100
00000000
00000001
00000000
00000100
00000000
00001000
00000010
00000000
00000010
00010000
00000000
,
00001000
00100000
01000000
10000000
01000000
00010000
00001000
01000000
,
00100000
00000000
00010000
00000000
00001000
00000000
00010000
00000000
00000100
00000000
00001000
00000010
00010000
00000000
00001000
00000000
,
00000010
00000100
00000100
00000000
00010000
00010000
00000000
00001000
,
01000000
00000000
00000000
00000000
00100000
00000000
01000000
00000000
00001000
00000000
00000000
00011000
00000000
00000000
00010000
00000000
,
00000100
00000000
00000000
00000000
00000010
00000000
00000001
00000000
00001000
00000000
00000010
00001000
00000010
00000000
00000100
00000000
,
00000100
00000000
00000000
00000000
00001000
00000000
00010000
00000000
00100000
00000000
01000000
00010000
20000000
00000000
00000000
00000000
,
32000000
00000000
03100000
10000000
00100000
00001000
00001000
00010000
,
00010000
00000000
00000010
00001000
00000010
00001000
00000010
00000000
00000100
00000000
00001000
00000000
00000100
00000000
00000001
00000010
,
00000100
00000001
00000100
00010000
00001000
01000000
10000000
01000000
,
00010000
00100000
10000000
00100000
00001000
00010000
00100000
10000000
,
01000000
01000000
00010000
00010000
00001000
00001000
00000010
00000010
,
00000100
00001000
00000100
00001000
00000001
00000100
00000001
00000100
00000010
00000000
00000000
00000000
00000100
00000000
00001000
00000000
,
00010000
00000000
00010000
00000000
00100000
00000000
10000000
00000000
02000000
00000000
00000000
00000000
00000000
00000000
03100000
00010000
,
01000000
00000000
01000000
00000000
00001000
00000000
00010000
00000000
00000200
00000000
00000000
00000000
00000000
00000000
00000310
00000001
,
00002000
00000000
00000000
00000000
,
00000020
00000000
00000000
00000000
,
00000000
00000000
00003030
00000000
;
