#TITLE:Emperor's New Clothes;
#SUBTITLE:;
#ARTIST:Panic! at the Disco;
#TITLETRANSLIT:;
#SUBTITLETRANSLIT:;
#ARTISTTRANSLIT:;
#GENRE:Literary Folktale;
#CREDIT:;
#MUSIC:Emperors New Clothes.ogg;
#BANNER:Emperors New Clothes.png;
#BACKGROUND:Emperors New Clothes-bg.png;
#CDTITLE:;
#SAMPLESTART:46.619;
#SAMPLELENGTH:20.002;
#SELECTABLE:YES;
#OFFSET:1.270;
#BPMS:0.000=94.490;
#STOPS:;
#ORIGIN:;
#TAGS:;
#PREVIEWVID:;
#JACKET:Emperors New Clothes-jacket.png;
#CDIMAGE:;
#DISCIMAGE:;
#BGCHANGES:2.750=Emperors New Clothes.avi=1.000=1=0=0=StretchNoLoop==CrossFade==,
99999.000=-nosongbg-=1.000=0=0=0=StretchNoLoop====,
99999.000=-nosongbg-=1.000=0=0=0=StretchNoLoop====
;
#FGCHANGES:;

//--------------- dance-single - Pruz ----------------
#NOTES:
     dance-single:
     Pruz:
     Beginner:
     3:
     0,0,0,0,0:
0000
0000
0000
0000
,
0000
0000
0000
0000
,
0000
0000
0000
0000
,
0000
0000
0000
0000
,
0000
0000
0000
0000
,
0000
0000
0000
0000
,
0200
0000
0000
0300
0000
0000
0000
0000
,
2000
0000
0000
0000
3000
0000
0000
0000
0002
0000
0000
0003
0000
0000
0000
0000
,
0200
0000
0000
0300
0000
0000
0000
0000
,
0002
0013
2000
3010
,
0002
0103
2000
3100
,
0001
0001
1000
1000
,
0010
0010
0100
0100
,
0002
0003
2000
3000
,
0020
0000
0000
0030
0200
0000
0300
0000
,
0002
0013
2000
3010
,
0002
0103
2000
3010
,
0200
0000
0000
0300
0000
0000
0000
0000
,
0002
0000
0003
0000
,
2002
3003
2000
3000
,
0100
0010
0002
0003
,
0100
0100
0010
0010
,
2000
3000
0002
0003
,
2002
3003
2000
3000
,
0010
0100
0002
0003
,
0010
0010
0100
0100
,
2000
3000
0002
0003
,
0200
0000
0000
0000
0000
0000
0000
0300
,
0200
0000
0000
0300
,
0020
0000
0000
0000
0000
0000
0000
0030
,
0020
0000
0000
0030
,
0000
0000
0110
1001
,
2000
3000
1001
0110
,
0200
0300
0010
0010
,
0100
0100
2000
3000
,
0002
0003
2002
3003
,
2000
3000
0010
0100
,
0002
0003
0010
0010
,
0100
0100
2000
3000
,
0002
0003
2002
3003
,
2000
3000
0100
0010
,
0002
0003
0100
0100
,
0010
0010
2000
3000
,
0002
0003
0010
0010
,
0100
0000
0100
0000
2000
0000
0000
3000
,
0002
0003
0100
0100
,
0010
0000
0010
0000
2000
0000
0000
3000
,
0002
0000
0000
0000
0000
0000
0000
0003
0000
0000
0000
0000
0000
0000
0000
0000
;

//--------------- dance-single - Pruz ----------------
#NOTES:
     dance-single:
     Pruz:
     Easy:
     4:
     0,0,0,0,0:
0000
0000
0000
0000
,
0000
0000
0000
0000
,
0000
0000
0000
0000
,
0000
0000
0000
0000
,
0000
0000
0000
0000
,
0000
0000
0000
0000
,
0200
0000
0000
0300
0000
0000
0000
0000
,
1001
0000
0000
0000
0110
0000
0000
0000
0020
0000
0000
0030
0000
0000
0000
0000
,
0200
0000
0000
0300
0000
0000
0000
0000
,
1000
0100
0010
0001
,
1000
0010
0100
0001
,
1000
0100
0010
0001
,
1000
0010
0100
0001
,
2000
3100
0002
0103
,
2000
3010
0200
0301
,
2000
3100
0002
0103
,
2000
3200
0320
0032
,
0203
0000
0000
0300
0000
0000
0000
0000
,
0020
0000
1030
0000
,
1001
0110
2000
3200
,
0310
0000
0002
0203
,
0310
0010
1000
1000
,
0002
0013
2000
3010
,
1001
0110
0002
0203
,
0310
0000
2000
3200
,
0310
0010
0001
0001
,
2000
3010
0002
0013
,
2000
3000
2000
3000
0002
0003
0002
0003
,
2000
3000
0200
0300
0020
0030
0100
0000
,
2000
3000
2000
3000
0002
0003
0002
0003
,
2000
3000
0020
0030
0200
0300
0010
0000
,
0000
0000
0110
1001
,
2000
3000
0010
0000
0110
0000
1001
0000
,
0002
0003
0020
0030
0110
0000
1001
0000
,
2000
0000
0000
3000
0000
0000
0000
0000
0001
0000
0000
0000
0001
0000
0000
0000
,
1000
1000
1001
0110
,
2000
3200
0310
0000
,
0002
0203
0310
0010
,
1000
1000
0002
0013
,
2000
3010
1001
0110
,
0002
0203
0310
0000
,
2000
3200
0310
0010
,
0001
0001
2000
3010
,
0002
0013
1000
1000
,
0001
0000
0001
0000
0200
0000
0000
0300
,
0002
2003
3001
0001
,
1000
0000
1000
0000
0200
0000
0000
0300
,
2000
0000
0000
0000
0000
0000
0000
3000
0000
0000
0000
0000
0000
0000
0000
0000
;

//--------------- dance-single - Pruz ----------------
#NOTES:
     dance-single:
     Pruz:
     Medium:
     6:
     0,0,0,0,0:
0000
0000
0000
0000
,
0000
0000
0000
0000
,
0000
0000
0000
0000
,
0000
0000
0000
0000
,
0000
0000
0000
0000
,
0000
0000
0000
0000
,
0200
0000
0000
0300
0000
0000
0000
0000
,
1001
0000
0000
0000
1000
0000
0000
0000
0010
0000
0000
0100
0000
0000
0000
0000
,
0020
0000
0000
0030
0000
0000
0000
0000
,
1000
0001
0100
0000
0001
1000
0100
0000
,
0010
0001
1000
0000
0010
1000
0001
0000
,
0010
0100
1000
0000
0010
0100
0001
0000
,
1000
0100
0010
0000
0200
0000
0300
0000
,
1000
1100
0001
0101
,
2000
3010
0002
0013
,
0100
1000
0001
0000
0100
0001
1000
0000
,
0010
1000
0001
0000
0010
0001
1000
0000
,
0200
0000
0000
0300
0000
0000
0000
0000
,
2000
3002
0203
0300
,
0120
0000
1030
0000
1000
0001
0010
0000
,
0001
0000
1001
0000
1000
0010
0100
0000
,
0101
0000
0000
0000
1001
0000
0000
0000
1100
0000
0000
1001
0000
0000
0000
0000
,
0002
0000
0000
0000
0023
0000
0000
0000
0230
0000
0000
1300
0001
0000
1000
0000
,
0020
0130
0002
1003
,
0020
0130
0002
1003
,
0100
0001
0100
1000
,
0002
0000
0000
0000
0023
0000
0000
0000
0230
0000
0000
1300
0001
0000
1000
0000
,
0010
0010
0100
0100
0020
0030
2000
3000
,
0100
0100
0010
0010
0200
2300
3001
0000
,
0100
0100
0010
0010
0200
0300
0002
0003
,
0010
0010
0100
0100
0020
0032
1003
0000
,
0000
0000
0110
1001
,
1000
0100
0010
0000
0110
0000
1001
0000
,
1000
0010
0100
0000
0101
0000
1001
0000
,
1100
0000
0000
1001
0000
0000
0000
0000
0002
0000
0000
0000
0023
0000
0000
0000
,
0230
0000
0000
1300
0001
0000
1000
0000
0020
0000
0000
0000
0130
0000
0000
0000
,
0002
1003
0200
0310
,
0002
1003
0010
0001
,
0010
1000
0002
0023
,
0230
0000
0000
1300
0001
0000
1000
0000
0020
0000
0000
0000
0130
0000
0000
0000
,
0002
1003
0020
0130
,
0002
1003
0100
0001
,
0100
1000
0002
0023
,
0230
0000
0000
1300
0001
0000
1000
0000
0010
0000
0000
0000
0110
0000
0000
0000
,
0100
0000
0101
0000
2000
0000
0000
3000
,
0001
1000
0001
0000
0100
0000
0110
0000
,
0010
0000
1010
0000
0002
0000
0000
0003
,
0200
0000
0000
0000
0000
0000
0000
0300
0000
0000
0000
0000
0000
0000
0000
0000
;

//--------------- dance-single - Pruz ----------------
#NOTES:
     dance-single:
     Pruz:
     Hard:
     9:
     0,0,0,0,0:
0000
0000
0000
0000
,
0000
0000
0000
0000
,
0000
0000
0000
0000
,
0000
0000
0000
0000
,
0000
0000
0000
0000
,
0000
0000
0000
0000
,
0200
0000
0000
0300
0000
0000
0000
0000
,
1000
0000
1001
0000
0001
0000
0011
0000
0010
0001
0000
1000
0000
1010
0000
0000
,
0200
0000
0000
0300
0000
0000
0000
0000
,
0001
0000
1000
0000
1010
0000
0000
0010
0100
0000
0001
0000
1000
0000
0000
0000
,
0100
0000
1000
0000
0001
0000
0000
0100
0010
0000
1000
0000
0001
0000
0000
0000
,
0010
0000
0100
0000
1100
0000
0000
1000
0100
0000
0010
0000
0011
0000
0000
0000
,
0001
0000
1000
0000
0010
0000
1000
0001
0000
0010
0000
0100
0000
0000
0000
0000
,
0100
1000
1001
0000
0001
0100
0110
0000
,
0020
0000
1000
0000
0130
0001
1000
0000
,
0100
0000
1000
0000
0010
0000
0000
0010
0100
0000
0001
0000
1000
0000
0000
0001
,
0100
0000
0010
0000
1000
0000
0000
1000
0100
0000
1000
0000
0001
0000
0000
0000
,
0200
0000
0000
0000
0000
0000
0300
0000
0000
0000
0000
0000
0000
0001
1000
0000
,
0100
0000
0001
0000
0100
0000
1000
0001
0100
0000
0020
0000
2030
0000
3001
0000
,
2001
0000
0000
0000
3100
0000
0000
0100
1000
0000
0001
0000
0010
0000
0100
0001
,
0000
0100
1000
0000
1001
0000
0000
0001
0100
0000
1000
0000
0100
0000
0001
0000
,
0010
0000
0110
0000
0100
0000
1100
0000
1000
0001
0000
1000
0000
1010
0000
0000
,
2000
0000
3200
0000
0310
0100
1000
0001
,
0201
0000
0000
0000
0310
0000
0000
0000
0010
0000
1000
0000
0001
0000
0010
0100
,
0000
1000
0100
0000
0110
0000
0000
0010
0001
0000
1000
0000
0001
0000
0010
0000
,
0100
0000
1100
0000
0100
0000
0110
0000
0010
0001
0000
0001
1000
0010
0000
0000
,
0210
0000
0302
0000
0103
0010
1000
0001
,
0200
0300
0200
0300
0002
0003
0020
0030
0200
0300
0200
0300
2000
3000
0020
0030
,
0200
0300
0002
0003
0200
0300
0020
0030
2000
3000
0002
0003
1000
0000
0000
0000
,
0200
0300
0200
0300
2000
3000
0020
0030
0200
0300
0200
0300
0002
0003
0020
0030
,
0200
0300
2000
3000
0200
0300
0020
0030
0002
0003
2000
3000
0010
0000
0000
0000
,
0000
0000
0210
0302
,
1003
0100
0010
0000
0012
0000
2003
0000
,
3010
0100
0001
0100
0010
0010
1000
1000
,
0001
0000
0000
1000
0000
0100
0000
0000
1000
0000
1000
0000
0001
0000
0001
0000
,
1000
0000
1000
0000
0010
0000
0100
0000
0102
0000
0000
0000
1003
0000
0000
1000
,
0100
0000
1000
0000
0010
0000
0100
0001
0000
0001
0000
0000
1001
0000
0000
1000
,
0100
0010
0001
1000
0001
0011
0010
0110
,
0100
1000
0000
0100
0000
0010
0000
0000
0002
0000
0000
0000
2003
0000
0000
0000
,
3010
0100
0001
1000
0002
0000
0013
0000
,
0100
0000
0010
0000
0001
0000
1000
0010
0000
0010
2000
0000
3001
0000
0000
0000
,
0100
0000
0010
0000
1000
0000
0001
0010
0000
0010
0001
0000
1000
0000
0000
0000
,
0010
0100
0001
0000
2000
0000
3020
0000
,
0031
0010
1000
0001
0010
0010
0100
0100
,
0010
0000
0001
0000
0200
0000
0000
0300
,
0001
0001
1000
1000
0010
0010
0100
0100
,
0010
0000
0000
2000
0000
0000
3000
0000
0200
0000
0000
0000
0000
0000
0300
0000
,
0020
0000
0000
0000
0000
0000
0000
0030
0000
0000
0000
0000
0000
0000
0000
0000
;

//--------------- dance-single - Pruz ----------------
#NOTES:
     dance-single:
     Pruz:
     Challenge:
     12:
     0.420335,0.463053,0.244033,0.397426,0.508984,422,387,35,57,0,0,0,0,0,0.420335,0.463053,0.244033,0.397426,0.508984,422,387,35,57,0,0,0,0,0:
0000
0000
0000
0000
,
0000
0000
0000
0000
,
0000
0000
0000
0000
,
0000
0000
0000
0000
,
0000
0000
0000
0000
,
0000
0000
0000
0000
,
0200
1300
0002
1003
0200
1300
0002
0003
0100
0010
1000
0001
1000
0100
0010
0001
,
1000
0000
1010
0000
0001
0000
0011
0000
0100
1000
0000
0001
1000
0001
0000
0000
,
0200
0301
2000
3001
0200
0301
2000
3000
0100
0010
0001
1000
0001
0100
0010
1000
,
0001
0000
1000
0000
1100
0000
1000
0001
0200
0301
1000
0010
0000
0010
0000
0000
,
1000
0000
0001
0000
0011
0000
0001
1000
0020
1030
0001
0100
0020
0000
0100
0000
,
1030
0000
0001
0000
0101
0000
0001
1000
0200
1300
0001
0010
0000
0010
0000
0000
,
0001
0000
1000
0000
1010
0000
1000
0001
0020
0031
1000
0100
0020
0000
0031
1000
,
0020
0000
0130
0000
0101
0000
0000
0000
0020
0000
0130
0000
1100
0000
0000
1000
,
0002
0000
0013
0000
1000
0000
0010
0200
0000
1300
0000
0001
0010
0000
0001
0000
,
1000
0000
0001
0000
0011
0000
0001
1000
0020
1030
0001
0100
0000
0100
0000
0000
,
0001
0000
1000
0000
1100
0000
1000
0001
0200
0301
1000
0010
0100
0001
1000
0000
,
0200
1300
0002
1003
0020
1030
0002
0003
0100
0010
0100
0001
1000
0001
0010
0100
,
1000
0000
1000
0000
0010
0000
1000
0001
0200
0000
0000
0000
0300
0000
0000
0000
,
2001
0000
3001
0000
0102
0000
0103
0001
1000
0000
0100
0000
0010
0000
0100
1000
,
0000
0001
1000
0000
1010
0000
0000
1000
0001
0000
0010
0000
0100
0000
0010
0001
,
1000
0000
1010
0000
0001
0000
0011
0000
0100
1000
0000
0001
1000
0010
0000
0000
,
0200
0000
0000
0000
2300
0000
0000
0000
3100
0000
0001
1000
0010
0000
1000
0000
,
2001
0000
3001
0000
0202
0000
0303
0000
0001
0000
1000
0000
0010
0000
1000
0001
,
0000
1000
0010
0000
0100
0000
0000
0001
1000
0000
0100
0000
0010
0000
0100
1000
,
0001
0000
0101
0000
1000
0000
1100
0000
0100
0010
0000
0001
1000
0001
0000
0000
,
0200
0000
0000
0000
2300
0000
0000
0000
3200
0000
0301
1000
0020
0000
0100
0000
,
0230
0300
0200
0300
0002
0003
0020
0030
0200
0300
0200
0300
2000
3000
0020
0030
,
0200
0300
0002
0003
0200
0300
0020
0030
2000
3000
0002
0003
1000
0000
0000
0000
,
0200
0300
0200
0300
2000
3000
0020
0030
0200
0300
0200
0300
0002
0003
0020
0030
,
0200
0300
2000
3000
0200
0300
0020
0030
0002
0003
2000
3000
0010
0000
0000
0000
,
0000
0000
0000
0000
0000
0000
0000
0000
0110
0000
0100
0000
2001
0000
0000
3100
,
2000
3000
0002
0003
0010
0000
0000
0000
0110
0000
0100
0000
1002
0000
0000
1003
,
0020
0031
0020
1030
0001
0000
0020
0000
0130
0000
1100
0000
0010
0000
0011
0000
,
0001
1000
0000
0100
0010
0100
0000
0000
1000
0000
0001
0100
0001
0000
0001
0000
,
1000
0100
1000
0000
1000
0000
0010
0000
0120
0000
0130
0000
0202
0000
0303
0100
,
0010
0000
0001
0000
0010
0000
1000
0001
0000
0100
0010
0000
1000
0000
0000
0100
,
0010
0000
1000
0000
0010
0000
0100
1000
0001
0000
0011
0000
1000
0000
1010
0000
,
0100
0001
0000
1000
0001
0010
0000
0000
0200
0000
0000
0000
0302
0000
0000
0000
,
0103
0000
1000
0010
0100
0000
0010
0000
0120
0000
0130
0000
0202
0000
0303
0001
,
1000
0000
0001
0000
0010
0000
1000
0010
0000
0100
1000
0000
0001
0000
0000
0100
,
1000
0000
0100
0000
0010
0000
1000
0001
0010
0000
0011
0000
0100
0000
1100
0000
,
0010
0001
0000
1000
0001
0010
0000
0000
0200
0000
0000
0000
0302
0000
0000
0000
,
0103
0000
1000
0010
0100
0000
0001
0000
0010
0000
0011
0000
0100
0000
1100
0000
,
0010
0001
0000
1000
0001
0100
0000
0000
0020
1030
0002
1003
0020
1030
0002
0003
,
0010
0001
0010
0100
1000
0001
1000
0010
0100
0000
0101
0000
0010
0000
1010
0000
,
0100
0001
0000
1000
0000
0010
0000
0000
0200
0301
2000
3001
0200
0301
2000
3000
,
0100
1000
0100
0010
0001
1000
0001
0100
0000
0000
0000
0000
0000
0000
0000
0000
;
