#TITLE:Dragula;
#SUBTITLE:(Si Non Oscillas, Noli Tintinnare Mix);
#ARTIST:Rob Zombie;
#TITLETRANSLIT:;
#SUBTITLETRANSLIT:;
#ARTISTTRANSLIT:;
#GENRE:;
#CREDIT:Team High Quality R.I.P (djfipu x azureHaights);
#BANNER:Dragula (Si Non Oscillas Noli Tintinnare Mix)-bn.avi;
#BACKGROUND:Dragula (Si Non Oscillas Noli Tintinnare Mix)-bg.png;
#LYRICSPATH:Dragula (Si Non Oscillas Noli Tintinnare Mix).lrc;
#CDTITLE:;
#MUSIC:Dragula (Si Non Oscillas Noli Tintinnare Mix).ogg;
#OFFSET:0.000000;
#SAMPLESTART:134.641006;
#SAMPLELENGTH:15.120000;
#LASTBEATHINT:275.011871;
#SELECTABLE:YES;
#BPMS:0.000000=126.986000
;
#STOPS:
;
#BGCHANGES:0.000=Dragula (Si Non Oscillas Noli Tintinnare Mix).avi=1.000=1=0=1===CrossFade==,
276.000=Dragula (Si Non Oscillas Noli Tintinnare Mix)-bg-2.png=1.000=1=0=1===CrossFade==,
99999=-nosongbg-=1.000=0=0=0 // don't automatically add -songbackground-
;
#KEYSOUNDS:;
#ATTACKS:;

//---------------dance-single - ----------------
#NOTES:
     dance-single:
     :
     Beginner:
     1:
     0.093476,0.160078,0.133537,0.046738,0.000000,98.000000,78.000000,20.000000,7.000000,0.000000,0.000000,0.093476,0.160078,0.133537,0.046738,0.000000,98.000000,78.000000,20.000000,7.000000,0.000000,0.000000:
0000
0000
0000
0000
,
0000
0000
0000
0000
,
0000
0000
0000
0000
,
0000
0000
0000
0000
,
1000
0000
0000
0000
,
0001
0000
0000
0000
,
1000
0000
0000
0000
,
0001
0000
0000
0000
,
0100
0000
0000
0000
,
0100
0000
0000
0000
,
0010
0000
0000
0000
,
0010
0000
0000
0000
,
0110
0000
0000
0000
,
0110
0000
0000
0000
,
1001
0000
0000
0000
,
1001
0000
0000
0000
,
1000
0000
0000
0000
,
0100
0000
0000
0000
,
1000
0000
0000
0000
,
0010
0000
0000
0220
,
0000
0000
0000
0330
,
0100
0000
0000
0000
,
0100
0000
0000
0000
,
0001
0000
0000
0000
,
0001
0000
0000
0000
,
1001
0000
0000
0000
,
0001
0000
0000
0000
,
0010
0000
0000
0000
,
0010
0000
0000
0000
,
0001
0000
0000
0000
,
1000
0000
0000
0000
,
0100
0000
0000
0000
,
2002
0000
0000
3003
,
1000
0000
0000
0000
,
1000
0000
0000
0000
,
0100
0000
0000
0000
,
0220
0000
0000
0330
,
0010
0000
0000
0000
,
0010
0000
0000
0000
,
0001
0000
0000
0000
,
0001
0000
0000
0000
,
1000
0000
0000
0000
,
1000
0000
0000
0000
,
0010
0000
0000
0000
,
0010
0000
0010
0000
,
0100
0000
0000
0000
,
0100
0000
0000
0000
,
0001
0000
0000
0000
,
0001
0000
0000
0000
,
0010
0000
0010
0000
,
0100
0000
0100
0000
,
2000
0000
0010
0000
,
3001
0000
0001
0000
,
1001
0000
0000
0000
,
0110
0000
0000
0000
,
1001
0000
0000
0000
,
0110
0000
0000
0000
,
1001
0000
0000
0000
,
0110
0000
0000
0000
,
1001
0000
0000
0000
,
0110
0000
0000
0000
,
1001
0000
1000
0000
,
1000
0000
1000
0000
,
1001
0000
0001
0000
,
0001
0000
0001
0000
,
0110
0000
0010
0000
,
0010
0000
0010
0000
,
0110
0000
0100
0000
,
0100
0000
0100
0000
;

//---------------dance-single - ----------------
#NOTES:
     dance-single:
     :
     Easy:
     5:
     0.186952,0.251551,0.033384,0.126860,0.000000,196.000000,191.000000,5.000000,19.000000,0.000000,0.000000,0.186952,0.251551,0.033384,0.126860,0.000000,196.000000,191.000000,5.000000,19.000000,0.000000,0.000000:
0000
0000
0000
0000
,
0000
0000
0000
0000
,
0000
0000
0000
0000
,
0000
0000
0000
0000
,
1000
0001
0010
0010
,
0001
0100
0010
0010
,
1000
0001
0100
0100
,
0010
0010
0010
0010
,
1000
0100
0000
1000
,
0001
0010
0000
0001
,
1000
0010
0000
1000
,
0002
0003
2000
3000
,
1000
1000
1000
1000
,
0100
0100
0100
0100
,
0010
0010
0010
0010
,
0001
0100
0010
1000
,
0010
1000
0000
0001
,
0100
0010
0000
1000
,
0100
0010
0000
0100
,
1000
0001
1000
0001
,
1000
0000
0000
0000
,
0010
1000
0010
0010
,
1000
0001
1000
1000
,
0001
0010
0001
0001
,
0010
0100
1001
1001
,
0001
1000
0001
0001
,
1000
0100
1000
1000
,
0001
0010
0001
0001
,
0100
0000
0100
0000
0200
0000
0000
0300
,
0001
0000
0001
1000
,
0001
0000
1000
0000
,
0001
0000
1000
0000
,
2002
0000
0000
3003
,
0001
0001
0001
0100
,
0010
1000
0100
0000
,
1000
1000
0100
0100
,
0020
0000
0000
0030
,
0001
0100
0001
0001
,
0100
0010
0100
0100
,
0010
1000
0010
0010
,
0100
0001
1001
1001
,
1000
0100
1000
1000
,
0001
1000
0001
0001
,
0010
0001
0010
0010
,
0001
0100
0020
0030
,
1000
0010
1000
0100
,
1000
0010
1000
0100
,
2000
3000
0002
0003
,
2000
3000
0002
0003
,
0001
0010
0001
0100
,
0001
0010
0001
1000
,
0010
0000
0010
0000
,
0100
0000
0100
0000
,
0002
0000
0003
0000
,
0020
0000
0030
0000
,
0002
0000
0003
0000
,
2000
0000
3000
0000
,
2000
0000
3000
0000
,
0200
0000
0300
0000
,
2000
0000
3000
0000
,
0002
0000
0003
0000
,
0100
0000
0001
0000
,
1000
0000
0001
0001
,
0010
0000
0001
0000
,
1000
0000
0001
0000
,
0100
0000
0001
0001
,
0100
0000
0001
0001
,
1000
0000
0001
0001
,
0010
0000
0100
0000
;

//---------------dance-single - ----------------
#NOTES:
     dance-single:
     :
     Medium:
     9:
     0.337658,0.390179,0.073445,0.186952,0.000000,354.000000,343.000000,11.000000,28.000000,8.000000,0.000000,0.337658,0.390179,0.073445,0.186952,0.000000,354.000000,343.000000,11.000000,28.000000,8.000000,0.000000:
0000
0000
0000
0000
,
0000
0000
0000
0000
,
0000
0000
0000
0000
,
0000
0000
0000
0000
,
1000
0100
0010
0000
0010
0100
1000
0000
,
0001
0100
0010
0000
0010
0100
0001
0000
,
1000
0001
0100
0000
0001
1000
0010
0000
,
1000
0001
0010
0000
0001
1000
0100
0000
,
1000
0000
0100
0010
0000
0001
0100
0000
,
0001
0000
0100
0010
0000
1000
0100
0000
,
1000
0000
0100
1000
0000
0001
0010
0000
,
0002
0000
2003
0000
3001
0100
0001
0000
,
1000
1100
1000
0001
,
0010
0011
0001
0100
,
0001
0101
0100
0010
,
0100
0110
1000
1001
,
0001
0000
0100
0010
0000
0100
0001
0000
,
1000
0000
0100
0010
0000
0100
1000
0000
,
1000
1000
0010
0000
0010
0010
0100
0000
,
0001
0000
1000
0000
0001
0100
0002
0000
,
0200
0000
0000
0303
,
0101
0000
0100
0001
0100
0010
2000
0020
,
3030
0000
1000
0010
1000
0001
0020
0002
,
0033
0000
0001
1000
0001
1000
0001
0000
,
1000
0001
1001
0110
,
1001
0000
0001
1000
0001
0100
0020
0200
,
0330
0000
0010
0100
0010
1000
0002
2000
,
3003
0000
0001
0100
0010
1000
0100
0010
,
0001
0010
0100
1000
0200
0000
0000
0300
,
1000
0100
1000
0000
0001
0100
0001
0000
,
1000
0100
1000
0000
0001
0010
0001
0000
,
1000
0010
1000
0000
0001
0010
0001
0001
,
01M0
01M0
01M0
01M0
,
0001
0100
0010
0100
0001
0001
1000
1000
,
0100
0010
0100
1000
0001
0001
1000
1000
,
0001
0010
0100
0010
0001
0001
1000
1000
,
0M10
0M10
0M10
0M10
,
1000
0100
0010
0100
1000
1000
0200
0020
,
0330
0010
0001
0001
0100
0001
0200
0020
,
0330
0010
0100
0100
0001
1000
0001
1000
,
0001
0100
0001
0100
0010
0000
0010
0000
,
1000
0010
1000
0100
1000
1000
0200
0020
,
0330
0010
0001
0100
0001
0001
0200
0020
,
0330
0100
0001
1000
0001
0001
0100
0100
,
0001
0100
0010
1000
0020
0000
0030
0000
,
1000
0100
1000
0100
0010
0001
0010
0100
,
1000
0010
1000
0010
0100
0001
0100
0010
,
1000
1000
0000
0100
0010
0000
0001
0000
,
0001
0001
0000
0010
0100
0000
1000
0000
,
0001
1000
0001
1000
0010
0100
0010
1000
,
0001
0010
0001
0010
0100
1000
0100
1000
,
0100
0100
0000
1000
0001
1000
0100
1000
,
0100
1000
0001
0100
,
0102
0000
1000
0003
,
0020
0000
1000
0030
,
0200
0000
0010
0300
,
0001
0010
0000
0001
0000
0000
0000
0000
,
2001
0000
0100
3000
,
0020
0000
0001
0030
,
0200
0000
0010
0300
,
1000
0001
0000
1000
0000
0000
0000
0000
,
0010
0010
0000
1000
0100
0000
1000
0000
,
0100
0000
0010
0000
0001
0010
0001
0010
,
0001
0001
0000
0100
0001
0000
0100
0000
,
0010
1000
0001
1000
,
0100
0100
0000
1000
0100
0000
1000
0000
,
0001
0001
1000
0001
,
0100
0100
0000
0001
1000
0000
0000
0000
,
0100
0100
0000
1000
0001
0000
1000
0000
;

//---------------dance-single - XO-----------------
#NOTES:
     dance-single:
     :
     Hard:
     12:
     0.439719,0.550841,0.206983,0.100153,0.140214,461.000000,430.000000,31.000000,15.000000,0.000000,0.000000,0.439719,0.550841,0.206983,0.100153,0.140214,461.000000,430.000000,31.000000,15.000000,0.000000,0.000000:
0000
0000
0000
0000
,
0000
0000
0000
0000
,
0000
0000
0000
0000
,
0000
0000
0000
0000
,
1000
0100
1000
0100
0010
0100
1000
0000
,
0001
0100
0001
0100
0010
0100
0001
0000
,
1000
0100
0010
0001
0010
0100
1000
0000
,
0001
0100
1000
0100
0001
0100
0010
0000
,
1000
1000
1000
0001
0000
0100
0001
0100
,
0001
0001
0001
1000
0000
1000
0100
0000
,
0010
0100
0100
0010
0000
0010
0001
0000
,
0011
0000
1100
0000
0010
1000
0100
0000
,
1100
0000
0000
0000
0101
0000
0000
0000
0010
0000
0000
0001
0000
0000
0100
0000
,
0101
0000
0000
0000
1100
0000
0000
0000
0010
0000
0000
1000
0000
0000
0100
0000
,
0011
0000
0000
0000
1100
0000
0000
0000
1000
0000
0000
0100
0000
0000
0001
0000
,
0100
0000
0010
0001
0010
0000
0110
0000
,
1000
1000
0100
0010
0001
0020
0100
0130
,
0100
1000
0100
0010
0001
0020
0100
0130
,
1000
0000
1000
0000
0010
0100
0010
0000
0100
0000
0000
0010
0100
0000
0001
0000
,
0020
0000
0230
0000
0310
0100
2000
0000
,
0100
0100
0100
3100
,
0001
0000
0100
0000
0010
0000
1000
0001
0000
1000
0001
0000
0010
0000
0001
0000
,
0100
0000
0010
0000
0100
0000
0001
0100
0000
0001
0100
0000
0010
0000
1000
0000
,
0100
0000
1000
0000
0010
0000
0100
0001
0000
0100
0001
0000
0010
0000
0100
0000
,
0001
0200
0000
1300
1100
0000
0011
0000
,
0010
0000
0100
0000
1000
0000
0100
0010
0000
0100
0010
0000
0001
0000
0001
0000
,
0100
0000
0010
0000
1000
0000
0010
0100
0000
0010
0100
0000
0001
0000
0001
0000
,
1000
0000
0001
0000
0010
0000
0100
1000
0000
0100
1000
0000
0100
0000
0100
0000
,
0010
0001
1000
1000
1100
0000
1000
0100
,
0001
0100
0001
0100
1000
0010
1000
0100
,
0001
0100
0001
0100
1000
0010
1000
0100
,
1000
0100
1000
0010
0001
0010
1000
0001
,
1001
0110
1001
0110
,
0001
0000
0010
0100
1000
0000
0010
0100
0001
1000
0001
0000
0010
0000
0001
0000
,
1000
0000
0010
0100
0001
0000
0010
0100
1000
0001
1000
0000
0100
0000
0100
0000
,
0010
0000
0100
1000
0100
0000
1000
0100
1000
0100
1000
0000
0001
0000
0001
0000
,
0101
0110
1010
1100
,
1000
0000
0001
0000
0010
0000
0001
1000
0100
1000
0100
0000
1000
0000
1000
0000
,
0010
0000
0100
0000
0001
0000
1000
0001
0100
0001
0100
0000
0010
0000
1000
0000
,
0001
0000
0010
0000
0100
0000
1000
0100
0000
0100
0010
0000
0001
0000
0001
0000
,
1000
0010
0100
0001
1001
0000
0110
0000
,
0001
0000
0100
0000
0001
0000
1000
0010
1000
0010
1000
0000
0100
0000
0100
0000
,
1000
0000
0100
0000
1000
0000
0001
0010
0001
0010
0001
0000
0100
0000
0100
0000
,
0001
0000
0010
0000
0100
0000
1000
0010
0000
1000
0100
0000
1000
0000
0001
0000
,
0100
0010
0000
0220
0000
0000
0330
0000
,
1000
0001
0100
0010
1000
0100
0001
0100
,
0010
0000
0001
1000
0000
0000
0001
0000
0100
0000
0010
0000
1000
0000
0020
0000
,
0100
0000
0000
0200
0000
0000
0330
0000
,
0010
0010
0100
0100
0001
0010
0001
0010
,
0100
1000
0001
0100
1000
0100
0001
1000
,
0100
0000
0010
0001
0000
0000
0010
0000
0100
0000
0000
1000
0000
0000
2000
0000
,
0100
0100
0100
3100
,
0100
0000
0010
0000
0001
0000
0010
0100
0000
0000
1000
0000
1000
0000
0000
0000
,
1100
0000
0010
0000
0001
0000
0100
0101
,
0000
0000
0010
0000
1000
0000
0100
0110
,
0000
0010
0001
1000
,
0001
0010
0000
0220
0000
0000
0330
0000
,
1001
0000
0001
0000
0010
0000
0100
1001
,
0000
0000
1000
0000
0010
0000
0100
0110
,
0000
0100
0001
1000
,
0001
0001
0000
2002
0000
0000
3003
0000
,
0001
0001
0000
1000
0100
0000
0010
0000
,
0001
0001
0000
1000
0010
0100
0001
1000
,
0100
0100
0000
1000
0001
0000
0100
0000
,
0100
0100
0000
0001
1000
0000
0100
0000
,
0010
0010
0000
0001
0100
0000
0010
0000
,
0100
0100
0000
0010
1000
0100
1000
0001
,
0010
0010
0000
0001
0100
0000
0001
0000
,
0010
0010
0000
0100
1000
0000
0001
0000
;

//---------------dance-single - XO FS----------------
#NOTES:
     dance-single:
     :
     Challenge:
     16:
     0.530333,0.781777,0.227013,0.427319,0.390596,556.000000,522.000000,34.000000,64.000000,37.000000,1.000000,0.530333,0.781777,0.227013,0.427319,0.390596,556.000000,522.000000,34.000000,64.000000,37.000000,1.000000:
0000
0000
0000
0000
,
0000
0000
0000
0000
,
0000
0000
0000
0000
,
0000
0000
0000
0000
,
0002
0000
1003
0000
0100
0000
0010
0100
1000
0100
0010
0200
0000
1300
0001
1000
,
0020
0000
0130
0000
0100
0000
0001
0100
0001
2000
0000
3001
0000
0001
0010
0100
,
0020
0000
0130
0000
0100
0000
0010
0001
0010
0001
1000
0020
0000
1030
0010
0000
,
1000
0010
0100
0001
1000
0001
0100
0010
1000
0010
0100
0001
1000
0001
0100
0010
,
2000
0000
3100
0000
1100
0000
1000
0001
1000
0000
0001
0000
0101
0000
0100
0000
,
0110
0000
0010
0000
0010
0100
0001
0100
0010
0000
1000
0000
1010
0000
0000
0000
,
2000
0000
3100
0000
0010
0100
1000
0100
1000
0010
0100
0000
0120
0000
0000
0000
,
0032
0013
0020
1030
2000
3020
0032
0000
,
0113
0000
0100
0000
0101
0000
0001
0000
0011
0000
0010
0001
0000
0001
0010
0000
,
0011
0000
0001
0000
1001
0000
1000
0000
1100
0000
0100
1000
0000
1000
0100
0000
,
1100
0000
0100
0000
0110
0000
0100
0000
1100
0000
1000
0001
0000
0001
1000
0000
,
1001
0000
0001
1000
0100
0000
0110
0000
,
2001
0000
3010
0200
0000
0301
0010
0000
,
0010
0200
0000
2300
0000
0010
3010
0000
,
1010
0000
0000
0000
1000
0000
0000
0000
1000
0100
1000
0100
1000
0000
0100
0000
1000
0000
0000
0000
0100
0000
0010
0000
0001
0010
0001
0010
0001
0000
0000
0000
,
0002
0000
0103
0000
2000
0000
3001
0000
0020
0000
1030
0000
4000
0400
0000
0000
,
0000
0000
0000
3300
,
0100
0000
0010
0000
0001
0000
0001
0010
0M00
0010
0100
0000
0002
0000
1003
0000
,
0001
0000
1000
0000
0100
0000
1000
0010
0M00
0010
0100
0000
2000
0000
3010
0000
,
0100
0000
0001
0000
0010
0000
0010
0100
00M0
0100
0001
0000
0010
0000
1000
0000
,
0010
0002
0000
0003
0012
0000
0103
0000
,
0100
0000
0010
0000
1000
0000
1000
0010
0M00
0010
0100
0000
2000
0000
3001
0000
,
1000
0000
0001
0000
0100
0000
0001
0010
0M00
0010
0100
0000
0002
0000
0013
0000
,
0100
0000
1000
0000
0010
0000
0010
0100
00M0
0100
1000
0000
0010
0000
0010
0000
,
0010
0010
0010
0010
0020
0000
0030
0000
,
2000
0000
3100
0010
0002
0000
0013
0100
2000
0000
3010
0100
0002
0000
0103
0010
,
2000
0000
3100
0010
0002
0000
0103
0010
2000
0000
3100
0010
0002
0000
0103
0010
,
2000
0000
3010
1000
0002
0000
0013
0001
2000
0000
3010
1000
0002
0000
0013
0001
,
0012
0003
1002
0003
0102
0003
1002
0003
,
0001
0010
0001
0010
0100
0010
0100
0010
0100
1000
0100
1000
0001
1000
0001
1000
,
0001
0100
0001
0100
0010
0100
0010
0100
0010
1000
0010
1000
0010
1000
0100
0010
,
0100
1000
0100
0010
0100
0001
0100
0001
0100
0010
0100
1000
0100
1000
0010
1000
,
2010
3000
2001
3000
2100
3000
2001
3000
,
0001
0000
0100
0000
1000
0000
0100
0001
0000
0001
0100
0000
1000
0000
0100
0000
,
0001
0000
0010
0000
1000
0000
0010
0001
0000
0001
0010
0000
1000
0000
0010
0000
,
0001
0000
1000
0000
0100
0000
0001
0100
0000
1000
0100
0000
1000
0000
2010
0000
,
0000
0000
0000
0000
3010
0000
0100
0001
0100
0010
0100
0000
0001
0000
0010
0100
,
0010
0000
1000
0000
0010
0000
0001
0010
0001
0010
0001
0000
0010
0000
0100
0000
,
1000
0000
0010
0000
0100
0000
0001
0100
0010
0100
0001
0000
0100
0000
1000
0000
,
0100
0000
0001
0000
0100
0000
0100
1000
0100
1000
0100
0000
0010
0000
0100
0000
,
0100
0100
0100
0100
0200
0000
0000
0300
,
0100
0100
0000
001M
100M
010M
001M
100M
,
010M
0100
0000
M001
M010
M100
M001
M010
,
M100
0100
0000
0M01
0M10
1M00
0M01
0M10
,
1M00
1000
0000
00M1
01M0
10M0
00M1
01M0
,
10M0
0000
1000
0000
0000
0000
0040
0000
0000
0000
0000
1000
0000
0000
0M00
0001
,
0430
0000
0300
0000
0000
0000
0400
0000
0000
0000
0000
0001
0000
0000
00M0
1000
,
0340
0000
0030
0000
0000
0000
0040
0000
0000
0000
0000
1000
0000
0000
0M00
0001
,
1030
0000
1000
0000
0000
0000
0001
0100
0000
0000
0001
0000
0010
0000
0000
0000
,
0110
0000
0010
0100
0010
1000
0010
0002
,
0000
0000
0103
1000
0100
0010
0100
0001
,
0020
0000
0031
0001
1000
0001
1001
0000
,
1000
0100
0000
2000
0010
0000
3010
0000
,
0110
0000
0100
1000
0001
0010
1000
0200
,
0000
0000
1300
0010
0100
0001
0010
0100
,
2000
0000
3010
0010
0100
0010
0110
0000
,
0100
0101
0000
2001
0000
0000
0000
0000
,
3010
0010
1000
1000
0001
0001
0010
0010
,
0001
0001
1000
1000
0010
0001
0010
1000
,
1000
1000
0200
0000
1300
0010
1000
0002
,
0000
0000
0003
0100
0001
1000
0100
0000
,
2000
0000
0000
0000
0000
0000
0000
0000
0000
0000
0000
0000
3010
0000
0000
0000
0M00
0000
0010
0000
0000
0000
0000
0000
0100
0000
0000
00M0
0000
0000
0100
0000
0000
0000
0000
0000
0010
0000
0000
0000
0000
0000
2000
0000
0000
0000
0000
0000
,
0000
0000
0000
0000
3010
0M00
0010
0000
0100
00M0
0100
0000
0001
0000
0002
0000
,
0103
0200
0000
0301
0020
0000
0130
2000
,
0000
0100
3100
0000
0100
0001
0010
1000
;

//---------------dance-double - ----------------
#NOTES:
     dance-double:
     :
     Hard:
     12:
     0.444488,0.550841,0.240367,0.113507,0.140214,466.000000,430.000000,36.000000,17.000000,0.000000,0.000000,0.444488,0.550841,0.240367,0.113507,0.140214,466.000000,430.000000,36.000000,17.000000,0.000000,0.000000:
// measure 0
00000000
00000000
00000000
00000000
,  // measure 1
00000000
00000000
00000000
00000000
,  // measure 2
00000000
00000000
00000000
00000000
,  // measure 3
00000000
00000000
00000000
00000000
,  // measure 4
00011000
00010000
00000100
00001000
00000010
00000100
00000001
00000000
,  // measure 5
00000101
00000001
00001000
00000010
00000100
00000010
00001000
00000000
,  // measure 6
00001010
00000010
00010000
00001000
00100000
00010000
10000000
00000000
,  // measure 7
10000000
00100000
00010000
00100000
10000000
01000000
00100000
00000000
,  // measure 8
00010000
00010000
00010000
10000000
00000000
00100000
10000000
00100000
,  // measure 9
01000000
01000000
01000000
00010000
00000000
01000000
00001000
00000000
,  // measure 10
00010000
00001000
00001000
00010000
00000000
00000100
00001000
00000000
,  // measure 11
00001100
00000000
00000011
00000000
00000010
00000001
00000100
00000000
,  // measure 12
00000101
00000000
00000000
00000000
00001010
00000000
00000000
00000000
00000010
00000000
00000000
00010000
00000000
00000000
00000100
00000000
,  // measure 13
00010100
00000000
00000000
00000000
00101000
00000000
00000000
00000000
00001000
00000000
00000000
00100000
00000000
00000000
00010000
00000000
,  // measure 14
00110000
00000000
00000000
00000000
11000000
00000000
00000000
00000000
10000000
00000000
00000000
00100000
00000000
00000000
01000000
00000000
,  // measure 15
00010000
00000000
01000000
00100000
01000000
00000000
01100000
00000000
,  // measure 16
10000000
01000000
00010000
00001000
00000100
00000002
00000010
00000013
,  // measure 17
00000001
00000010
00001000
00010000
00100000
20000000
01000000
31000000
,  // measure 18
00100000
00000000
00010000
00000000
00100000
00010000
00100000
00000000
00001000
00000000
00000000
00010000
00000010
00000000
00001000
00000000
,  // measure 19
00000200
00000000
00000320
00000000
00000130
00000010
00000002
00000000
,  // measure 20
00001000
00001000
00001000
00001003
,  // measure 21
00001000
00000000
00000010
00000000
00000100
00000000
00000001
00001000
00000000
00000001
00001000
00000000
00000100
00000000
00001000
00000000
,  // measure 22
00000010
00000000
00010000
00000000
00000100
00000000
00010000
00001000
00000000
00010000
00001000
00000000
01000000
00000000
00100000
00000000
,  // measure 23
01000000
00000000
00100000
00000000
10000000
00000000
01000000
00100000
00000000
01000000
00100000
00000000
01000000
00000000
10000000
00000000
,  // measure 24
00010000
02000000
00000000
03010000
01010000
00000000
10100000
00000000
,  // measure 25
00100000
00000000
10000000
00000000
00010000
00000000
01000000
00010000
00000000
01000000
00010000
00000000
01000000
00000000
00001000
00000000
,  // measure 26
00100000
00000000
00001000
00000000
00010000
00000000
00000100
00010000
00000000
00000100
00010000
00000000
00000100
00000000
00001000
00000000
,  // measure 27
00000100
00000000
00000010
00000000
00000100
00000000
00000010
00000001
00000000
00000010
00000001
00000000
00000010
00000000
00000001
00000000
,  // measure 28
00000010
00001000
00000010
00000001
00000011
00000000
00000001
00000100
,  // measure 29
00000001
00000001
00001000
00000001
00000100
00001000
00010000
01000000
,  // measure 30
10000000
10000000
00010000
10000000
00100000
00010000
00001000
00000010
,  // measure 31
00000001
00000001
00000010
00000100
00010000
00001000
00100000
00001000
,  // measure 32
00101000
00010100
00010010
01001000
,  // measure 33
01000000
00000000
00010000
01000000
00100000
00000000
00100000
10000000
00010000
10000000
01000000
00000000
10000000
00000000
10000000
00000000
,  // measure 34
01000000
00000000
00100000
00010000
00100000
00000000
00010000
00100000
00010000
10000000
00010000
00000000
01000000
00000000
01000000
00000000
,  // measure 35
00100000
00000000
10000000
00100000
10000000
00000000
00010000
01000000
00010000
01000000
00010000
00000000
01000000
00000000
00001000
00000000
,  // measure 36
01001000
00011000
00010100
00011000
,  // measure 37
00001000
00000000
00010000
00000000
00000010
00000000
00001000
00000010
00001000
00000010
00001000
00000000
00000001
00000000
00000001
00000000
,  // measure 38
00000100
00000000
00000010
00000000
00001000
00000000
00000001
00001000
00000010
00001000
00000010
00000000
00000100
00000000
00000001
00000000
,  // measure 39
00001000
00000000
00000100
00000000
00010000
00000000
00001000
00100000
00000000
00100000
00010000
00000000
10000000
00000000
01000000
00000000
,  // measure 40
10000000
00100000
01000000
00010000
01010000
00000000
01100000
00000000
,  // measure 41
10100000
00000000
10000000
00000000
01000000
00000000
10000000
01000000
10000000
01000000
10000000
00000000
01000000
00000000
02000000
00000000
,  // measure 42
03100000
00000000
00001000
00000000
00010000
00000000
00001000
00010000
00001000
00010000
00001000
00000000
00010000
00000000
00020000
00000000
,  // measure 43
00030010
00000000
00001000
00000000
00000010
00000000
00000100
00000001
00000000
00000001
00000010
00000000
00000001
00000000
00001000
00000000
,  // measure 44
00000010
00000100
00000000
00000220
00000000
00000000
00000330
00000000
,  // measure 45
00000010
00001000
00000100
00000001
00000100
00001000
00001000
00000010
,  // measure 46
00000100
00000000
00000100
00000001
00000000
00000000
00001000
00000000
00000010
00000000
00000100
00000000
00000001
00000000
00000200
00000000
,  // measure 47
00000010
00000000
00000000
00000020
00000000
00000000
00000330
00000000
,  // measure 48
00000100
00000010
00010000
00000100
00001000
00000010
00010000
00001000
,  // measure 49
01000000
00010000
00100000
10000000
00100000
00010000
00010000
10000000
,  // measure 50
01000000
00000000
00100000
00010000
00000000
00000000
00100000
00000000
01000000
00000000
00000000
10000000
00000000
00000000
20000000
00000000
,  // measure 51
01000000
00010000
00100000
30010000
,  // measure 52
10000000
00000000
00010000
00000000
00100000
00000000
00100000
00001000
00000000
00000000
00010000
00000000
00010000
00000000
00000000
00000000
,  // measure 53
00011000
00000000
00010000
00000000
00001000
00000000
00010000
00010100
,  // measure 54
00000000
00000000
00000100
00000000
00010000
00000000
00000100
00001100
,  // measure 55
00000000
00000100
00001000
00000100
,  // measure 56
00000010
00000100
00000000
00002200
00000000
00000000
00003300
00000000
,  // measure 57
00011000
00000000
00001000
00000000
00010000
00000000
00001000
01001000
,  // measure 58
00000000
00000000
01000000
00000000
00001000
00000000
01000000
01010000
,  // measure 59
00000000
01000000
00010000
01000000
,  // measure 60
00100000
01000000
00000000
02200000
00000000
00000000
03300000
00000000
,  // measure 61
10000000
10000000
00000000
01000000
10000000
00000000
00010000
00000000
,  // measure 62
00100000
00100000
00000000
00010000
01000000
00001000
00010000
00000100
,  // measure 63
00000010
00000010
00000000
00000001
00000010
00000000
00000100
00000000
,  // measure 64
00000100
00001000
00000000
00001000
00000001
00000000
00000100
00000000
,  // measure 65
00000010
00000010
00000000
00001000
00000010
00000000
00010000
00000000
,  // measure 66
00001000
00010000
00000000
00001000
00010000
01000000
10000000
00100000
,  // measure 67
01000000
01000000
00000000
00010000
00010000
00000000
00100000
00000000
,  // measure 68
00001000
00001000
00000000
00010000
00001000
00000000
00011000
00000000
;

//---------------dance-double - FS----------------
#NOTES:
     dance-double:
     :
     Challenge:
     16:
     0.532241,0.781777,0.240367,0.420642,0.390596,558.000000,522.000000,36.000000,63.000000,13.000000,0.000000,0.532241,0.781777,0.240367,0.420642,0.390596,558.000000,522.000000,36.000000,63.000000,13.000000,0.000000:
// measure 0
00000000
00000000
00000000
00000000
,  // measure 1
00000000
00000000
00000000
00000000
,  // measure 2
00000000
00000000
00000000
00000000
,  // measure 3
00000000
00000000
00000000
00000000
,  // measure 4
00011000
00000000
00010000
00000000
00000010
00000000
00001000
00000010
00000001
00000010
00000100
00000020
00000000
00001030
00000100
00000001
,  // measure 5
00000200
00000000
00000310
00000000
00000010
00000000
00000001
00000010
00000001
00000020
00000000
00000130
00000000
00001000
00000100
00000010
,  // measure 6
00000200
00000000
00010300
00000000
00010000
00000000
00000100
00010000
00001000
00010000
00001000
02000000
00000000
03010000
01000000
00000000
,  // measure 7
00100000
10000000
00100000
10000000
00010000
10000000
00010000
10000000
00010000
01000000
00010000
01000000
00100000
01000000
00100000
01000000
,  // measure 8
00200000
00000000
10300000
00000000
10100000
00000000
10000000
00010000
10000000
00000000
01000000
00000000
11000000
00000000
10000000
00000000
,  // measure 9
10010000
00000000
00010000
00000000
01000000
00010000
01000000
00001000
01000000
00000000
00001000
00000000
00011000
00000000
00000000
00000000
,  // measure 10
00020000
00000000
00030010
00000000
00001000
00000100
00001000
00000001
00001000
00000100
00000010
00000000
00000210
00000000
00000000
00000000
,  // measure 11
00000302
00000013
00002000
00013000
02000000
23000000
30200000
00300000
,  // measure 12
01100000
00000000
01000000
00000000
01010000
00000000
00010000
00000000
00110000
00000000
00100000
00001000
00000000
00010000
00000100
00000000
,  // measure 13
00001100
00000000
00000100
00000000
00000110
00000000
00000010
00000000
00000011
00000000
00000010
00000001
00000000
00000001
00000010
00000000
,  // measure 14
00000011
00000000
00000001
00000000
00001001
00000000
00001000
00000000
00001010
00000000
00000010
00010000
00000000
00001000
01000000
00000000
,  // measure 15
01010000
00000000
00010000
10000000
01000000
00000000
01100000
00000000
,  // measure 16
20010000
00000000
30100000
02000000
00000000
03010000
00100000
00000000
,  // measure 17
00100000
02000000
00000000
23000000
00000000
00100000
30100000
00000000
,  // measure 18
10100000
00000000
00000000
00000000
10000000
00000000
00000000
00000000
10000000
01000000
10000000
01000000
10000000
00000000
01000000
00000000
10000000
00000000
00000000
00000000
01000000
00000000
00100000
00000000
00010000
00100000
00010000
00100000
00010000
00000000
00000000
00000000
,  // measure 19
20000000
00000000
31000000
00000000
00020000
00000000
00031000
00000000
00000200
00000000
00000301
00000000
00000004
00000040
00000000
00000000
,  // measure 20
00000000
00000000
00000000
00000033
,  // measure 21
00000001
00000000
00000001
00000000
00000010
00000000
00000001
00000010
00000M00
00000010
00001000
00000000
00000200
00000000
00010300
00000000
,  // measure 22
00001000
00000000
01000000
00000000
00010000
00000000
00010000
00100000
0M000000
00100000
10000000
00000000
20000000
00000000
31000000
00000000
,  // measure 23
00100000
00000000
00010000
00000000
10000000
00000000
10000000
00010000
00M00000
00010000
00001000
00000000
00000100
00000000
00000001
00000000
,  // measure 24
00000010
00002000
00000000
00003000
00000012
00000000
00001003
00000000
,  // measure 25
00000010
00000000
00000100
00000000
00000001
00000000
00000001
00000100
000000M0
00000100
00001000
00000000
00000020
00000000
00010030
00000000
,  // measure 26
00001000
00000000
00010000
00000000
01000000
00000000
10000000
00100000
0M000000
00100000
00010000
00000000
20000000
00000000
30100000
00000000
,  // measure 27
01000000
00000000
00010000
00000000
10000000
00000000
10000000
01000000
00M00000
01000000
00010000
00000000
00100000
00000000
00100000
00000000
,  // measure 28
00100000
00100000
00100000
00100000
00200000
00000000
00300000
00000000
,  // measure 29
00020000
00000000
00130000
01000000
20000000
00000000
31000000
00100000
00020000
00000000
01030000
00001000
00020000
00000000
00030100
00001000
,  // measure 30
00000002
00000000
00001003
00000010
00000200
00000000
00000301
00000100
00000020
00000000
00001030
00000100
00002000
00000000
00003001
00000010
,  // measure 31
00000002
00000000
00000103
00000010
00002000
00000000
00003100
00010000
00002000
00000000
01003000
00010000
20000000
00000000
31000000
00100000
,  // measure 32
01200000
00300000
00210000
00300000
00201000
00300000
00200010
00300000
,  // measure 33
00000010
00100000
00001000
00010000
00000010
00100000
00001000
00010000
00000100
01000000
00001000
00010000
00000100
01000000
00001000
00010000
,  // measure 34
00001000
00100000
00010000
01000000
00001000
00100000
00010000
01000000
00001000
00010000
00000100
00010000
00001000
01000000
00001000
00010000
,  // measure 35
00001000
00010000
00000010
00001000
00000100
00010000
00000010
00001000
00000100
00010000
00001000
00010000
00000100
00010000
00001000
00010000
,  // measure 36
00012000
00003000
00100200
00000300
00021000
00030000
02000010
03000000
,  // measure 37
00011000
00000000
00001000
00000000
00000010
00000000
00000010
00000001
00000000
00000001
00000010
00000000
00000001
00000000
00000010
00000000
,  // measure 38
00001000
00000000
00010000
00000000
00100000
00000000
10000000
01000000
00000000
01000000
10000000
00000000
10000000
00000000
01000000
00000000
,  // measure 39
00010000
00000000
00001000
00000000
00000100
00000000
00000001
00000010
00000000
00000001
00000010
00000000
00000001
00000000
00000102
00000000
,  // measure 40
00000000
00000000
00000000
00000000
00000103
00000000
00000010
00001000
00000010
00000100
00000010
00000000
00001000
00000000
00000100
00000010
,  // measure 41
00000100
00000000
00000001
00000000
00000100
00000000
00001000
00000100
00010000
00000100
00001000
00000000
00000100
00000000
00010000
00000000
,  // measure 42
00001000
00000000
01000000
00000000
00010000
00000000
01000000
00010000
01000000
00001000
01000000
00000000
00010000
00000000
00100000
00000000
,  // measure 43
00001000
00000000
00010000
00000000
00000100
00000000
00010000
00000100
00010000
00001000
00010000
00000000
00000010
00000000
00000100
00000000
,  // measure 44
00000100
00000100
00000100
00000100
00000200
00000000
00000000
00000300
,  // measure 45
00000001
00000001
00000000
00000001
00000010
00001000
00010000
01000000
,  // measure 46
10000000
10000000
00000000
10000000
00100000
00010000
00001000
00000100
,  // measure 47
00000001
00000001
00000000
00000001
00000100
00001000
00010000
00100000
,  // measure 48
10000000
10000000
00000000
10000000
01000000
00010000
00001000
00000010
,  // measure 49
00000001
00000000
00000001
00000000
00000000
00000000
00000400
00000000
00000000
00000000
00000000
00000001
00000000
00000000
000000M0
00001000
,  // measure 50
00000340
00000000
00000030
00000000
00000000
00000000
00000040
00000000
00000000
00000000
00000000
00001000
00000000
00000000
00000M00
00010000
,  // measure 51
00004030
00000000
00003000
00000000
00000000
00000000
00004000
00000000
00000000
00000000
00000000
00010000
00000000
00000000
00000000
0M103000
,  // measure 52
00010000
00000000
00010000
00000000
00000000
00000000
00100000
01000000
00000000
00000000
10000000
00000000
00100000
00000000
00000000
00000000
,  // measure 53
10100000
00000000
00100000
01000000
00100000
10000000
00100000
02000000
,  // measure 54
00000000
00000000
03010000
00100000
00001000
00010000
00000100
00001000
,  // measure 55
00000020
00000000
00001030
00001000
00000001
00001000
00001001
00000000
,  // measure 56
00000001
00000010
00000000
00000002
00000100
00000000
00000103
00000000
,  // measure 57
00000110
00000000
00000010
00001000
00000100
00010000
00001000
02000000
,  // measure 58
00000000
00000000
03100000
10000000
01000000
00100000
01000000
10000000
,  // measure 59
20000000
00000000
30100000
00100000
01000000
00100000
01100000
00000000
,  // measure 60
01000000
01010000
00000000
01002000
00000000
00000000
00000000
00000000
,  // measure 61
00013000
00010000
00000001
00000001
00010000
00010000
00001000
00001000
,  // measure 62
10000000
10000000
00001000
00001000
00010000
00001000
00000100
00000001
,  // measure 63
00000010
00000010
00000200
00000000
00001300
00000100
00010000
00002000
,  // measure 64
00000000
00000000
00003000
01000000
00010000
10000000
00100000
00000000
,  // measure 65
02000000
00000000
00000000
00000000
03100000
000M0000
00100000
00000000
01000000
000M0000
01000000
00000000
00001000
00000000
00020000
00000000
,  // measure 66
00000000
00000000
00000000
00000000
00030100
000000M0
00000100
00000000
00000010
00000M00
00000010
00000000
00000001
00000000
00002000
00000000
,  // measure 67
00003010
00000020
00000000
00001030
00002000
00000000
01003000
02000000
,  // measure 68
00000000
10000000
13000000
00000000
00100000
00010000
00001000
00000010
;
