#VERSION:0.83;
#TITLE:Dolls;
#SUBTITLE:;
#ARTIST:Bella Poarch;
#TITLETRANSLIT:;
#SUBTITLETRANSLIT:;
#ARTISTTRANSLIT:;
#GENRE:;
#CREDIT:Spirit;
#MUSIC:Dolls.ogg;
#BANNER:Dolls-bn.png;
#BACKGROUND:Dolls-bg.png;
#CDTITLE:;
#SAMPLESTART:8.068;
#SAMPLELENGTH:15.381;
#SELECTABLE:YES;
#OFFSET:-0.060;
#BPMS:0.000=118.000;
#STOPS:;
#SPEEDS:0.000=1.000=0.000=0;
#SCROLLS:0.000=1.000;
#TICKCOUNTS:0.000=4;
#TIMESIGNATURES:0.000=4=4;
#LABELS:0.000=Song Start;
#COMBOS:0.000=1;
#ORIGIN:;
#PREVIEWVID:;
#JACKET:Dolls-jacket.png;
#CDIMAGE:;
#DISCIMAGE:;
#BGCHANGES:;
#FGCHANGES:;

//--------------- dance-single - Spirit ----------------
#NOTEDATA:;
#STEPSTYPE:dance-single;
#DESCRIPTION:Spirit;
#DIFFICULTY:Hard;
#METER:11;
#RADARVALUES:0.481779,0.582651,0.150556,0.127973,0.805474,448,424,20,17,47,2,0,0,0,0.481779,0.582651,0.150556,0.127973,0.805474,448,424,20,17,47,2,0,0,0;
#CHARTNAME:Spirit;
#CHARTSTYLE:;
#CREDIT:Spirit;
#NOTES:
0000
0000
0000
0000
,
1000
0000
0000
0010
0000
1000
0001
0000
0000
0010
0000
0000
,
0001
0000
0000
0010
0000
0001
1000
0000
0000
0010
0000
0000
,
1000
0000
0000
0010
0000
1000
0001
0000
0000
0010
0000
0000
,
1001
0000
0000
0001
1000
0100
0010
0000
0001
0100
0001
0100
,
0010
0000
1000
0001
1000
0001
0100
0000
0010
1000
0000
0001
,
1001
0000
0000
1000
0001
0100
0010
0000
1000
0100
1000
0100
,
0010
0000
0001
1000
0001
1000
0100
0000
0010
0001
0000
0100
,
0001
0000
0100
0001
0000
1000
0001
0000
1000
0001
0000
1000
,
0010
0000
1000
0010
0000
1000
0010
0000
0000
0100
0000
0000
,
0001
0000
0010
0001
0000
0010
0100
0000
0010
0100
0000
0010
,
2000
0000
0000
0000
0000
0000
3000
0000
0010
0001
0000
0100
,
0010
0000
0000
0200
0000
0000
0300
0000
0000
0001
0000
0100
,
0001
0000
0100
0001
0000
0100
0010
0000
0000
1000
0000
0001
,
0100
0000
0000
0200
0000
0000
0300
0000
0000
0001
0000
0100
,
0001
0000
0100
0001
0000
0100
0010
0000
0000
1000
0000
0000
,
0001
1000
0001
0010
0001
0100
0002
0000
0000
0003
0000
0000
,
1000
0001
1000
0010
1000
0100
1000
0000
0000
1000
0000
0001
,
1000
0000
0000
0001
0000
0000
0000
0000
0000
0001
0000
0010
,
0001
0000
0010
0001
0000
0010
0100
0000
0000
MMMM
MMMM
MMMM
,
1001
0000
0000
1000
0010
1000
1001
0000
0000
0001
0010
0001
,
1000
0100
0010
0100
MMMM
MMMM
1001
0000
0001
1001
0000
1000
,
1001
0000
0000
0100
0010
0100
0110
0000
0000
1000
0010
1000
,
1001
0000
0000
1000
0001
0100
0001
1000
0100
0001
1000
0010
,
0100
0000
0000
1111
0000
0000
1000
0200
0300
0M00
0000
0000
,
0001
0200
0300
0M00
0000
0000
1000
0010
0000
1000
0001
0000
,
1001
0000
0000
0001
0010
1000
0010
0001
0010
1000
0010
0001
,
0100
1000
0100
0001
0010
0100
0100
0100
0100
1000
0000
0000
,
0001
0000
1000
0000
,
0010
0000
0100
0000
,
0010
0000
1000
0000
,
0001
0000
0000
0000
0000
0000
1000
0000
0001
0010
0000
0100
,
1000
0001
0010
0001
0010
0001
0010
0000
0020
0000
0030
0000
,
0100
1000
0100
1000
0100
1000
0200
0000
0300
0000
0000
0000
,
1000
0010
1000
0010
1000
0010
1000
0000
2000
0000
3000
0000
,
1000
0000
0010
0100
0000
0001
1000
0000
0100
1000
0000
0000
,
0010
0000
0000
0200
0000
0000
0300
0000
0000
0001
0000
0100
,
0001
0000
0100
0001
0000
0100
0010
0000
0000
1000
0000
0001
,
0100
0000
0000
0200
0000
0000
0300
0000
0000
0001
0000
0100
,
0001
0000
0100
0001
0000
0100
0010
0000
0000
1000
0000
0000
,
0001
1000
0001
0010
0001
0100
0002
0000
0000
0003
0000
0000
,
1000
0001
1000
0010
1000
0100
1000
0000
0000
1000
0000
0001
,
1000
0000
0000
0001
0000
0000
0000
0000
0000
0001
0000
0010
,
0001
0000
0010
0001
0000
0010
0100
0000
0000
MMMM
MMMM
MMMM
,
1001
0000
0000
0001
0100
0001
1001
0000
0000
1000
0100
1000
,
0001
0010
0100
0010
MMMM
MMMM
1001
0000
1000
1001
0000
0001
,
1001
0000
0000
0010
0100
0010
0110
0000
0000
0001
0100
0001
,
1001
0000
0000
0001
1000
0010
1000
0001
0010
1000
0001
0100
,
0010
0000
0000
1111
0000
0000
0001
0020
0030
00M0
0000
0000
,
1000
0020
0030
00M0
0000
0000
0001
0100
0000
0001
1000
0000
,
1001
0000
0000
1000
0100
0001
0100
1000
0100
0001
0100
1000
,
0010
0001
0010
1000
0100
0010
0010
0010
0010
0001
0000
0000
,
1000
0100
0010
0001
0000
0010
0100
1000
0100
0010
0000
0001
,
1000
0000
1000
1000
0000
0001
1000
0000
0000
0100
0000
0000
,
1000
0010
0100
0001
0000
0100
0010
1000
0010
0100
0000
0001
,
1000
0000
1000
1000
0000
0001
1000
0000
0000
0010
0000
0000
,
M000
0000
0000
00M0
0000
000M
0000
0000
0000
0000
0000
0000
0000
0000
0000
0000
0010
0000
0001
0000
0000
0000
0100
0000
,
0010
0000
0000
0200
0000
0000
0300
0000
0000
0001
0000
0100
,
0001
0000
0100
0001
0000
0100
0010
0000
0000
1000
0000
0001
,
0100
0000
0000
0200
0000
0000
0300
0000
0000
0001
0000
0100
,
0001
0000
0100
0001
0000
0100
0010
0000
0000
1000
0000
0000
,
0001
1000
0001
0010
0001
0100
0002
0000
0000
0003
0000
0000
,
1000
0001
1000
0010
1000
0100
1000
0000
0000
1000
0000
0001
,
1000
0000
0000
0001
0000
0000
0000
0000
0000
0001
0000
0010
,
0001
0000
0010
0001
0000
0010
0100
0000
0000
0000
0000
0000
;
