#TITLE:Deep Down Low;
#SUBTITLE:;
#ARTIST:Valentino Khan;
#TITLETRANSLIT:;
#SUBTITLETRANSLIT:;
#ARTISTTRANSLIT:;
#GENRE:;
#CREDIT:NOWHERE Dance Club;
#MUSIC:Deep Down Low.ogg;
#BANNER:Deep Down Low-bn.png;
#BACKGROUND:Deep Down Low-bg.png;
#CDTITLE:;
#SAMPLESTART:91.512;
#SAMPLELENGTH:7.619;
#SELECTABLE:YES;
#OFFSET:-0.083;
#BPMS:0.000=126.000
,256.000=0.984
,256.063=0.492
,256.125=1.969
,256.250=7.875
,256.292=15.750
;
#STOPS:;
#DISPLAYBPM:126.000;
#BGCHANGES:-0.174=Deep Down Low.avi=1.000=0=0=0=StretchNoLoop====,
99999.000=-nosongbg-=1.000=0=0=0=StretchNoLoop====
;
#FGCHANGES:;

//--------------- dance-single - NOWHERE Dance Club ----------------
#NOTES:
     dance-single:
     NOWHERE Dance Club:
     Easy:
     5:
     0,0,0,0,0:
0000
0000
0000
0000
,
0000
0000
0000
0000
,
0000
0000
0000
0000
,
0000
0000
0000
0000
,
0001
0000
1000
0000
,
0100
0000
0010
0000
,
0001
0100
0100
0000
,
0010
0000
1000
0000
,
0001
0000
1000
0000
,
0100
0000
1000
0001
,
1000
0100
0100
0000
,
0010
0000
0001
0000
,
1000
0000
0010
0000
,
1000
0000
0001
0000
,
1000
0100
1000
0100
,
2000
0000
3002
0000
,
0013
0000
0001
0000
,
0001
0000
0000
0000
0100
0000
0000
0100
,
0000
0000
0010
0000
,
0010
0000
0000
0000
1000
0000
0000
1000
,
0000
0000
0100
0000
,
0100
0000
0000
0000
0010
0000
0000
0010
,
0000
0000
0001
0000
,
0001
0000
1000
0000
,
0100
0000
0100
0000
,
0100
0000
0100
0000
,
0100
0000
0100
0000
,
0100
0000
0100
0000
,
0200
0300
0200
0300
,
0200
0300
0200
0300
,
0100
0100
0100
0100
,
1000
0001
1000
1001
,
0002
0100
0103
0020
,
0100
0130
0001
1001
,
0002
0010
0013
0200
,
1000
1300
0100
1100
,
2000
0010
3010
0200
,
0001
0301
1000
1001
,
1000
0100
1100
0010
,
0001
0011
0010
0200
,
0320
0100
0130
0020
,
0100
0130
0010
0002
,
0203
0010
0310
0200
,
0010
0310
0100
0002
,
1003
0100
0110
0010
,
0001
0011
0010
0100
,
0010
0001
0011
0010
,
0001
1000
0020
0000
,
1030
1000
0001
0001
,
1000
1000
0001
0100
,
0001
0001
1000
1000
,
0001
0001
1000
0100
,
0010
0001
0100
0010
,
1000
0100
0010
0100
,
0010
0001
0100
0010
,
1000
0100
0020
0130
,
0010
0110
0001
0011
,
0001
0100
0010
0110
,
1000
1001
0001
0011
,
0001
0010
0100
0200
,
0310
0100
1000
0001
,
0010
0001
1000
0010
,
1000
0001
0010
0001
,
1000
0001
0100
0100
,
0200
0000
0000
0000
0000
0000
0000
0000
0000
0000
0000
0000
0000
0300
0000
0000
0000
0000
0000
0000
0000
0000
0000
0000
0000
0000
0000
0000
0000
0000
0000
0000
0000
0000
0000
0000
0000
0000
0000
0000
0000
0000
0000
0000
0000
0000
0000
0000
0000
0000
0000
0000
0000
0000
0000
0000
0000
0000
0000
0000
0000
0000
0000
0000
0000
0000
0000
0000
0000
0000
0000
0000
0000
0000
0000
0000
0000
0000
0000
0000
0000
0000
0000
0000
0000
0000
0000
0000
0000
0000
0000
0000
0000
0000
0000
0000
0000
0000
0000
0000
0000
0000
0000
0000
0000
0000
0000
0000
0000
0000
0000
0000
0000
0000
0000
0000
0000
0000
0000
0000
0000
0000
0000
0000
0000
0000
0000
0000
0000
0000
0000
0000
0000
0000
0000
0000
0000
0000
0000
0000
0000
0000
0000
0000
0000
0000
0000
0000
0000
0000
0000
0000
0000
0000
0000
0000
0000
0000
0000
0000
0000
0000
0000
0000
0000
0000
0000
0000
0000
0000
0000
0000
0000
0000
0000
0000
0000
0000
0000
0000
0000
0000
0000
0000
0000
0000
0000
0000
0000
0000
0000
0000
;

//--------------- dance-single - NOWHERE Dance Club ----------------
#NOTES:
     dance-single:
     NOWHERE Dance Club:
     Medium:
     8:
     0,0,0,0,0:
0000
0000
0000
0000
,
0000
0000
0000
0000
,
0000
0000
0000
0000
,
0000
0000
0000
0000
,
0001
0000
0100
0000
,
0001
0000
1000
0000
,
0100
0100
0100
0000
,
0010
0000
0001
1000
,
0001
0010
0100
0000
,
1000
0010
0200
0310
,
0001
0000
0010
0100
0010
0000
0001
0000
,
0100
0010
2000
3001
,
0100
0100
0001
0010
,
0001
0000
0100
0010
2000
0000
3010
0000
,
1000
0000
0100
0010
0100
0000
1000
0000
,
0001
0010
0100
0100
,
0100
0000
0000
0000
0000
0000
0020
0030
0000
0000
0000
0000
0000
0000
0200
0300
,
0000
0000
0000
0000
0000
0000
0020
0030
0000
0000
0000
0000
0000
0000
1001
0000
,
0000
0000
0000
0000
0000
0000
0002
0003
0000
0000
0000
0000
0000
0000
0200
0300
,
0000
0000
0000
0000
0000
0000
0020
0030
0000
0000
0000
0000
0000
0000
0110
0000
,
0000
0000
0000
0000
0000
0000
2000
3000
0000
0000
0000
0000
0000
0000
0200
0300
,
0000
0000
0000
0000
0000
0000
2000
3000
0000
0000
0000
0000
0000
0000
1001
0000
,
0000
0000
0000
0000
0000
0000
0002
0003
0000
0000
0000
0000
0000
0000
2000
3000
,
0000
0000
0000
0002
0013
0000
0100
0010
,
0100
0000
0100
0000
,
0100
0000
0100
0000
,
0200
0300
0200
0300
,
0200
0300
0200
0300
,
0100
0100
0100
0100
,
0100
0010
0002
0000
0103
0010
2000
0000
,
3100
0010
0002
0000
0013
0100
1000
0001
,
0200
0300
0100
0100
,
0010
0000
0100
0000
0110
0000
0010
1000
,
0100
1100
1001
0101
,
0001
0000
0010
0000
0110
0000
1000
0001
,
1000
0000
1001
0000
1000
0001
0101
0000
,
0001
0000
1000
0000
1001
0000
1000
0100
,
1100
0000
1001
0000
0010
0001
0011
0000
,
1000
0000
0001
0000
1001
0000
1000
0100
,
0010
0000
0011
0000
0001
0100
1000
0100
,
0001
0000
1000
0000
0001
1000
0001
0000
,
1000
0000
0010
0000
0200
0001
0301
0000
,
0010
0100
0010
0001
,
1000
0000
0100
0000
2000
0100
3100
0000
,
1000
0000
0010
0000
0100
0000
0001
1000
,
0001
0000
1000
0000
0002
0100
0103
0000
,
0010
1000
0100
0010
,
0001
0000
0100
0000
0010
0100
0020
0000
,
2030
0000
0000
3000
0000
0000
0000
0000
0002
0000
0000
0003
0000
0000
0000
0000
,
0020
0000
0000
0030
0000
0000
0000
0000
0001
0000
0100
0000
0001
0000
0000
0000
,
0002
0000
0000
0003
0000
0000
0000
0000
2000
0000
0000
3000
0000
0000
0000
0000
,
0020
0000
0000
0030
0000
0000
0000
0000
0100
0000
0010
0000
0100
0000
0000
0000
,
0020
0000
0000
0030
0000
0000
0000
0000
2000
0000
0000
3000
0000
0000
0000
0000
,
0020
0000
0000
0030
0000
0000
0000
0000
2000
0000
0100
0000
3100
0000
0000
0000
,
0002
0103
2000
3100
,
0002
0000
1003
0000
1000
0100
0100
0000
,
0010
0000
0001
0000
0001
0000
1000
0001
,
1000
0000
0000
0100
0000
0000
0000
0000
1000
0000
0000
0000
1001
0000
0000
0000
,
0101
0000
0101
0000
0001
0000
0100
0010
,
0100
0010
1000
1100
,
0100
0000
1000
0001
1000
0000
0001
1000
,
0001
0000
0000
0010
0000
0000
0000
0000
0010
0000
0000
0000
0110
0000
0000
0000
,
0100
0000
1000
0001
1000
0000
0010
0100
,
0010
0000
0000
1000
0000
0000
0001
0000
0100
0000
0000
0000
0100
0000
0000
0000
,
0200
0000
0000
0000
0000
0000
0000
0300
0000
0000
0000
0000
0000
0000
0000
0000
0000
0000
0000
0000
0000
0000
0000
0000
0000
0000
0000
0000
0000
0000
0000
0000
0000
0000
0000
0000
0000
0000
0000
0000
0000
0000
0000
0000
0000
0000
0000
0000
0000
0000
0000
0000
0000
0000
0000
0000
0000
0000
0000
0000
0000
0000
0000
0000
0000
0000
0000
0000
0000
0000
0000
0000
0000
0000
0000
0000
0000
0000
0000
0000
0000
0000
0000
0000
0000
0000
0000
0000
0000
0000
0000
0000
0000
0000
0000
0000
;

//--------------- dance-single - NOWHERE Dance Club ----------------
#NOTES:
     dance-single:
     NOWHERE Dance Club:
     Hard:
     11:
     0,0,0,0,0:
0000
0000
0000
0000
,
0000
0000
0000
0000
,
0000
0000
0000
0000
,
0000
0000
0000
0000
,
1000
0000
0100
0000
,
1000
0000
0000
0002
0100
0000
0103
0000
,
0010
0000
2000
0001
3100
0000
0001
0000
,
1000
0000
0001
0000
0020
0230
1300
0000
,
0001
0000
0010
0000
0100
0010
0100
0000
,
1000
0000
0020
0100
1030
0000
0001
0000
,
1000
0000
0010
0100
0010
0000
1000
0000
,
0100
0000
0020
0100
0031
0000
1000
0000
,
0100
0010
0001
0000
1000
0000
0010
0000
,
1000
0000
0200
1000
0310
0000
1000
0000
,
0100
0010
0001
0010
0001
0000
1000
0000
,
0010
0100
0010
0000
0100
0000
0100
0000
,
0100
0000
0000
0000
0000
0000
0010
0100
0000
0000
0000
0000
0000
0000
0100
0010
,
0000
0000
0000
0000
0000
0000
0010
1000
0000
0000
0000
0000
0000
0000
0010
0000
,
0000
0000
0000
0000
0000
0000
1000
0100
0000
0000
0000
0000
0000
0000
0100
0010
,
0000
0000
0000
0000
0000
0000
0010
0001
0000
0000
0000
0000
0000
0000
0010
0000
,
0000
0000
0000
0000
0000
0000
0001
0100
0000
0000
0000
0000
0000
0000
0100
0010
,
0000
0000
0000
0000
0000
0000
0010
1000
0000
0000
0000
0000
0000
0000
0010
0000
,
0000
0000
0000
0000
0000
0000
1000
0001
0000
0000
0000
0000
0000
0000
0001
1000
,
0000
0000
0000
2000
3010
0000
0100
0010
,
0100
0100
0100
0100
,
0100
0100
0100
0100
,
0100
0100
0100
0100
,
0100
0100
0100
0100
,
0010
0100
0010
0000
1000
0010
1000
0000
,
0001
1000
0001
0000
1000
0100
1000
0000
,
0001
0100
0001
0000
1000
0010
1000
0010
,
0200
0000
0310
0000
1000
0010
0100
0000
,
0101
1010
0101
1000
,
0011
0000
1100
0000
0001
0001
0101
0000
,
1100
0011
1100
0001
,
1010
0000
0101
0000
1000
1000
1100
0000
,
2000
0000
3100
0000
0200
0000
0310
0001
,
0002
0000
1003
0000
2000
0001
3010
0000
,
0002
0000
0013
0000
0020
0000
0130
1000
,
2000
0000
3001
0000
0001
0010
1000
0010
,
0001
1000
0010
0100
0001
0001
0001
0100
,
0010
1000
0010
0000
0010
1000
0100
0000
,
1000
0001
0100
0010
1000
1000
1000
0010
,
0100
0001
0100
0000
0100
0001
0010
0000
,
0001
1000
0100
0010
0001
0010
0001
0010
,
0100
1000
0100
0000
1000
0001
1001
0000
,
0001
0010
0001
1000
0001
0100
0001
1000
,
0100
1000
0001
0000
2000
0100
3002
0000
,
1003
0000
0000
0100
0000
0000
0010
0000
0100
0000
0000
1000
0000
0000
0010
0000
,
0100
0000
0000
0001
0000
0000
1000
0000
0100
M000
0100
0000
0001
0000
0010
0000
,
0001
0000
0000
0010
0000
0000
0100
0000
0010
0000
0000
0001
0000
0000
0100
0000
,
0010
0000
0000
1000
0000
0000
0001
0000
0100
000M
0100
0000
2000
0000
0000
0000
,
3100
0000
1000
0100
0000
0000
1000
0000
0001
0000
0100
0001
0000
0000
1000
0000
,
0010
0000
1000
0010
0000
0000
1000
0000
0010
0000
1000
0000
0100
0000
1000
0000
,
0001
0000
0100
0001
0000
0000
0001
0000
1000
0000
0100
1000
0000
0000
0001
0000
,
0010
0000
0001
0010
0000
0000
0001
0000
0010
0000
0001
0000
0100
0000
0000
0000
,
0110
0000
1010
0000
1001
0000
1000
0001
,
0200
0000
0000
0301
0000
0000
0000
0000
1000
0000
0000
0000
1100
0000
0000
0000
,
0110
0000
0011
0000
1001
0000
0001
1000
,
0200
0000
0000
1300
0000
0000
0000
0000
0001
0000
0000
0000
0102
0000
0000
0000
,
1003
0000
0100
0000
1000
0000
0001
0010
,
0001
0000
0000
0100
0000
0000
0001
0000
1000
0000
0000
0000
1100
0000
0000
0000
,
1000
0000
0010
0000
1000
0000
0001
0100
,
0001
0000
0000
0010
0000
0000
0001
0000
0010
0000
0010
0000
0100
0000
0000
0000
,
0200
0000
0000
0000
0000
0000
0000
0000
0000
0000
0000
0000
0000
0300
0000
0000
0000
0000
0000
0000
0000
0000
0000
0000
0000
0000
0000
0000
0000
0000
0000
0000
0000
0000
0000
0000
0000
0000
0000
0000
0000
0000
0000
0000
0000
0000
0000
0000
0000
0000
0000
0000
0000
0000
0000
0000
0000
0000
0000
0000
0000
0000
0000
0000
0000
0000
0000
0000
0000
0000
0000
0000
0000
0000
0000
0000
0000
0000
0000
0000
0000
0000
0000
0000
0000
0000
0000
0000
0000
0000
0000
0000
0000
0000
0000
0000
0000
0000
0000
0000
0000
0000
0000
0000
0000
0000
0000
0000
0000
0000
0000
0000
0000
0000
0000
0000
0000
0000
0000
0000
0000
0000
0000
0000
0000
0000
0000
0000
0000
0000
0000
0000
0000
0000
0000
0000
0000
0000
0000
0000
0000
0000
0000
0000
0000
0000
0000
0000
0000
0000
0000
0000
0000
0000
0000
0000
0000
0000
0000
0000
0000
0000
0000
0000
0000
0000
0000
0000
0000
0000
0000
0000
0000
0000
0000
0000
0000
0000
0000
0000
0000
0000
0000
0000
0000
0000
0000
0000
0000
0000
0000
0000
;

//--------------- dance-single - NOWHERE Dance Club ----------------
#NOTES:
     dance-single:
     NOWHERE Dance Club:
     Challenge:
     13:
     0,0,0,0,0:
0000
0000
0000
0000
,
0000
0000
0000
0000
,
0000
0000
0000
0000
,
0000
0000
0000
0000
,
0001
1000
0010
1000
,
0001
0000
0000
0000
0010
0000
0001
0000
0100
0010
0000
0000
1000
0000
0000
0000
,
0001
0010
0100
0100
0100
0000
1000
0000
,
0010
0000
0000
0000
0100
0000
0000
0000
0001
0000
0100
0010
2000
0000
0000
0000
,
3002
0000
0013
0000
0001
0100
0010
1000
,
0200
0000
0000
0000
0310
0000
0001
0000
1000
0001
0000
0000
1000
0000
0000
0000
,
0001
0100
1000
0100
0001
1000
0001
0010
,
0100
0000
0000
0000
0010
0000
0001
0000
0100
0010
0000
0000
1000
0000
0000
0000
,
0100
0100
0100
0000
1000
0010
0100
0001
,
0020
0000
0000
0000
0130
0000
1000
0000
0001
1000
0000
0000
0001
0000
0000
0000
,
1000
0100
0001
0100
1000
0001
1000
0010
,
1000
0000
0010
0100
0001
0000
0000
0000
0010
0000
0100
0000
1000
0000
0001
0000
,
2000
0000
0000
0000
0000
0000
3001
0200
0000
0000
0000
0000
0000
0000
0301
0020
,
0000
0000
0000
0000
0000
0000
0130
2000
0000
0000
0000
0000
0000
0000
3020
0000
,
0000
0000
0000
0000
0000
0000
1030
0200
0000
0000
0000
0000
0000
0000
0310
0002
,
0000
0000
0000
0000
0000
0000
0103
0020
0000
0000
0000
0000
0000
0000
2030
0000
,
0000
0000
0000
0000
0000
0000
3001
0020
0000
0000
0000
0000
0000
0000
0130
2000
,
0000
0000
0000
0000
0000
0000
3001
0200
0000
0000
0000
0000
0000
0000
0320
0000
,
0000
0000
0000
0000
0000
0000
1030
0200
0000
0000
0000
0000
0000
0000
0310
0002
,
0000
0000
0000
0000
0000
0000
1003
0001
1000
0000
0000
0000
0001
0000
0100
0000
,
0100
0100
0100
0100
,
0400
0300
0000
0000
0000
0000
0000
0000
0000
0000
0000
0000
0000
0000
0000
0000
0400
0300
0000
0000
0000
0000
0000
0000
0000
0000
0000
0000
0000
0000
0000
0000
0400
0300
0000
0000
0000
0000
0000
0000
0000
0000
0000
0000
0000
0000
0000
0000
0400
0300
0000
0000
0000
0000
0000
0000
0000
0000
0000
0000
0000
0000
0000
0000
,
0400
0300
0000
0000
0000
0000
0000
0000
0400
0300
0000
0000
0000
0000
0000
0000
0400
0300
0000
0000
0000
0000
0000
0000
0400
0300
0000
0000
0000
0000
0000
0000
,
0400
0300
0000
0000
0000
0000
0000
0000
0400
0300
0000
0000
0000
0000
0000
0000
0400
0300
0000
0000
0000
0000
0000
0000
0400
0300
0000
0000
0000
0000
0000
0000
,
0001
0100
0001
1000
0100
1000
0001
0100
,
0010
1000
0100
0010
0001
0100
0010
1000
,
0200
1300
0002
0103
0020
1030
0200
0310
,
0001
0000
0010
0100
1000
0000
0000
0000
0010
0000
0100
0000
0100
0000
0000
0000
,
0100
0000
0101
0000
1100
0000
0010
0001
,
0011
0000
0101
0000
0001
1000
1100
0000
,
0010
0000
0001
0000
0101
0000
0010
1000
,
1010
0000
1100
0000
0101
1000
1100
0000
,
1000
0000
0000
0000
0001
0000
0100
0001
0100
0000
0001
1000
0001
0000
1000
0100
,
1000
0000
0001
1000
0001
0000
0100
0001
0100
0000
0001
0000
0100
0000
0000
0000
,
0001
0000
0000
0000
1000
0000
0100
1000
0100
0000
1000
0001
1000
0000
0001
0100
,
0001
0000
1000
0001
1000
0000
0001
0100
0001
0000
0200
0000
0301
0000
0001
0000
,
0101
0000
0001
0000
0010
0000
0100
0000
1000
0000
0100
1000
0001
0000
0010
0000
,
1000
0000
0010
0000
0001
0000
0100
0000
0001
0000
0010
0001
1000
0000
0001
1000
,
0100
0000
0010
0000
0001
0000
1000
0000
0001
0000
1000
0001
0100
0000
0010
0000
,
1000
0000
0000
0000
0100
0000
0000
0000
1000
0000
0000
0000
0010
0000
0000
0000
1000
0000
0000
0000
0100
M000
0100
0000
0001
0000
0000
0000
0010
000M
0010
0000
,
1000
0000
0001
1000
0001
0000
1000
0100
1000
0000
0001
0100
0001
0000
1000
0001
,
1000
0000
0001
0100
0001
0000
1000
0100
1000
0000
0001
0000
0100
0000
0001
0000
,
1000
0000
0100
0010
0001
0000
0100
0000
0001
0000
0100
0010
1000
0000
0001
0000
,
0100
000M
0100
0000
1000
0000
0001
0000
1000
0000
0100
0010
0002
0000
0000
0000
,
0013
0000
0000
0110
0000
0000
0010
0000
0001
0000
0000
0101
0000
0000
0001
0000
,
0010
0000
0000
0011
0000
0000
0001
0000
1000
0000
0001
0000
0200
0000
0000
0000
,
0301
0000
0000
0101
0000
0000
1000
0000
0010
0000
0000
1010
0000
0000
1000
0000
,
0100
0000
0000
1100
0000
0000
0010
0000
0001
0000
0010
0000
0002
0000
0000
0000
,
1003
0000
0100
1000
0100
0000
0010
0000
0001
0000
0010
0001
0010
0000
0001
0000
,
0100
0000
0010
1000
0010
0000
1000
0000
0100
0000
1000
0000
1001
0000
0000
0000
,
0001
0000
0010
0100
0010
0000
0001
0000
1000
0000
0010
0100
0010
0000
1000
0000
,
0001
0000
0010
0100
0010
0000
0001
0000
0101
0000
1000
0000
1100
0000
0000
0000
,
0021
0000
1000
0000
0031
0000
0001
1000
,
0010
0000
0000
1010
0000
0000
1000
0000
0001
0000
1000
0000
0101
0000
0000
0000
,
4002
0000
3003
0000
1100
0000
1000
0100
,
0010
0000
0000
0011
0000
0000
0001
0000
0100
0000
0010
0000
0110
0000
0000
0000
,
0001
0000
1000
0001
0010
0000
0100
0000
0010
0000
0100
1000
0100
0000
1000
0000
,
0001
0000
1000
0010
1000
0000
0001
0000
0100
0000
0010
0000
0100
0000
0010
0000
,
1000
0000
0000
0000
0010
M000
0010
0000
0001
0000
0000
0000
1000
0000
0000
0000
0001
0000
0000
0000
0100
000M
0100
0000
1000
0000
0000
0000
0001
0000
0000
0000
,
1000
0100
0010
0001
0100
0000
0010
0000
0100
0000
0000
0000
0100
0000
0000
0000
,
0200
0000
0000
0000
0000
0000
0000
0000
0000
0000
0000
0000
0000
0300
0000
0000
0000
0000
0000
0000
0000
0000
0000
0000
0000
0000
0000
0000
0000
0000
0000
0000
0000
0000
0000
0000
0000
0000
0000
0000
0000
0000
0000
0000
0000
0000
0000
0000
0000
0000
0000
0000
0000
0000
0000
0000
0000
0000
0000
0000
0000
0000
0000
0000
0000
0000
0000
0000
0000
0000
0000
0000
0000
0000
0000
0000
0000
0000
0000
0000
0000
0000
0000
0000
0000
0000
0000
0000
0000
0000
0000
0000
0000
0000
0000
0000
0000
0000
0000
0000
0000
0000
0000
0000
0000
0000
0000
0000
0000
0000
0000
0000
0000
0000
0000
0000
0000
0000
0000
0000
0000
0000
0000
0000
0000
0000
0000
0000
0000
0000
0000
0000
0000
0000
0000
0000
0000
0000
0000
0000
0000
0000
0000
0000
0000
0000
0000
0000
0000
0000
0000
0000
0000
0000
0000
0000
0000
0000
0000
0000
0000
0000
0000
0000
0000
0000
0000
0000
0000
0000
0000
0000
0000
0000
0000
0000
0000
0000
0000
0000
0000
0000
0000
0000
0000
0000
0000
0000
0000
0000
0000
0000
;
