#TITLE:Come With Us;
#SUBTITLE:;
#ARTIST:Sophie Ellis-Bextor;
#TITLETRANSLIT:;
#SUBTITLETRANSLIT:;
#ARTISTTRANSLIT:;
#GENRE:;
#CREDIT:;
#BANNER:banner.png;
#BACKGROUND:Come With Us-bg.png;
#LYRICSPATH:;
#CDTITLE:;
#MUSIC:Come With Us.ogg;
#OFFSET:0.000000;
#SAMPLESTART:43.956547;
#SAMPLELENGTH:16.019983;
#SELECTABLE:YES;
#BPMS:0.000000=120.000000
;
#STOPS:
;
#BGCHANGES:0.000=Come With Us.avi=1.000=0=0=0=StretchNoLoop====,
99999=-nosongbg-=1.000=0=0=0 // don't automatically add -songbackground-
;
#KEYSOUNDS:;
#ATTACKS:;

//---------------dance-single - ----------------
#NOTES:
     dance-single:
     :
     Beginner:
     2:
     0.107450,0.147618,0.014059,0.000000,0.000000,107.000000,105.000000,2.000000,0.000000,0.000000,0.000000,0.107450,0.147618,0.014059,0.000000,0.000000,107.000000,105.000000,2.000000,0.000000,0.000000,0.000000:
0000
0000
0000
0000
,
0000
0000
0000
0000
,
0000
0000
0000
0000
,
0000
0000
0000
0000
,
0000
0000
0000
0000
,
0000
0000
0000
0000
,
1000
0000
1000
0000
,
1000
0000
0000
0000
,
0001
0000
0001
0000
,
0001
0000
0000
0000
,
0100
0000
0100
0000
,
0100
0000
0000
0000
,
0010
0000
0010
0000
,
0010
0000
0000
0000
,
1000
0000
0100
0000
,
0100
0000
0010
0000
,
0010
0000
0001
0000
,
0001
0000
0000
0000
,
0001
0000
0100
0000
,
0100
0000
0010
0000
,
0010
0000
1000
0000
,
1000
0000
0000
0000
,
0001
0000
0001
0000
,
0001
0000
0000
0000
,
0010
0000
0010
0000
,
0010
0000
0000
0000
,
0100
0000
0100
0000
,
0100
0000
0000
0000
,
1000
0000
1000
0000
,
1000
0000
0000
0000
,
0001
0000
0000
0000
,
0100
0000
0000
0000
,
0010
0000
0000
0000
,
1000
0000
0000
0000
,
0001
0000
0001
0000
,
0001
0000
0000
0000
,
0010
0000
0010
0000
,
0010
0000
0100
0000
,
1001
0000
1000
0000
,
1000
0000
0000
0000
,
0001
0000
0001
0000
,
0001
0000
0000
0000
,
0100
0000
0100
0000
,
0100
0000
0000
0000
,
0010
0000
0010
0000
,
0010
0000
0000
0000
,
1000
0000
1000
0000
,
0100
0000
0100
0000
,
0010
0000
0010
0000
,
0001
0000
0001
0000
,
0100
0000
0100
0000
,
0010
0000
0010
0000
,
1000
0000
1000
0000
,
0001
0000
0001
0000
,
1000
0000
1000
0000
,
1000
0000
0000
0000
,
0100
0000
0100
0000
,
0100
0000
0000
0000
,
0010
0000
0010
0000
,
0010
0000
0000
0000
,
0001
0000
0001
0000
,
0001
0000
0000
0000
,
0100
0000
0100
0000
,
0010
0000
0010
0000
,
1000
0000
1000
0000
,
0001
0000
0001
0000
,
0010
0000
0010
0000
,
0010
0000
0000
0000
,
0100
0000
0100
0000
,
0010
0000
0010
0000
,
1001
0000
0000
0000
;

//---------------dance-single - ----------------
#NOTES:
     dance-single:
     :
     Easy:
     4:
     0.195820,0.224590,0.049206,0.014059,0.000000,195.000000,188.000000,7.000000,2.000000,0.000000,0.000000,0.195820,0.224590,0.049206,0.014059,0.000000,195.000000,188.000000,7.000000,2.000000,0.000000,0.000000:
0000
0000
0000
0000
,
0000
0000
0000
0000
,
0000
0000
0000
0000
,
0000
0000
0000
0000
,
0000
0000
0000
0000
,
0000
0000
0000
0000
,
1000
1000
0100
0000
,
0010
0000
0010
0000
,
0001
0001
0100
0000
,
0010
0000
1001
0000
,
1000
1000
0010
0000
,
0100
0000
0100
0000
,
0001
0001
0010
0000
,
0100
0000
1001
0000
,
0001
0000
1000
0100
,
1000
0000
0001
0010
,
0001
0000
1000
0010
,
0100
0000
0100
0000
,
0001
0000
1000
0100
,
0010
0000
0001
0100
,
0010
0000
0100
0100
,
0101
0000
1001
0000
,
0001
0000
0010
0000
,
0100
0100
0100
0000
,
1000
0010
0100
0001
,
0100
0010
1000
0000
,
0001
0000
0010
0000
,
0100
0100
0100
0000
,
0010
0001
0100
1000
,
0100
0000
0001
0000
,
1000
0000
0100
0100
,
0100
0000
1000
0000
,
0010
0000
0100
0100
,
0100
0000
0001
0000
,
0010
0000
0001
0000
,
0101
0000
1010
0000
,
0010
1000
0100
0000
,
0010
0001
0100
0100
,
0010
0000
0100
0100
,
0001
0000
0010
0010
,
0100
0000
1000
1000
,
0001
0000
0100
0100
,
0010
0000
0100
0001
,
1000
0000
0100
1000
,
0010
0000
0100
0001
,
0010
0000
0001
1000
,
0010
0010
1000
0000
,
0100
0100
0010
0001
,
0100
0100
0100
0000
,
0001
0001
0001
0010
,
0100
0100
0100
0000
,
1000
1000
1000
0010
,
0100
0100
0100
0000
,
0010
1000
0100
0010
,
0001
0001
1000
0000
,
0100
0100
1000
0000
,
0010
1000
0100
0010
,
0001
0100
0010
0000
,
1000
1000
0001
0000
,
0001
0001
0100
0000
,
0001
0100
1000
0100
,
0001
0010
1000
0000
,
0010
0010
0001
0001
,
0100
0100
0010
0010
,
1000
0000
0100
1000
,
0010
0100
0001
0000
,
1000
0000
1000
0000
,
0100
0000
0010
0001
,
0100
0000
0100
0000
,
0010
0000
0000
0000
0010
0000
0000
2002
,
0000
0000
0000
0000
,
3003
0000
0000
0000
;

//---------------dance-single - ----------------
#NOTES:
     dance-single:
     :
     Medium:
     9:
     0.327371,0.324408,0.224942,0.119500,0.038662,326.000000,294.000000,32.000000,17.000000,0.000000,0.000000,0.327371,0.324408,0.224942,0.119500,0.038662,326.000000,294.000000,32.000000,17.000000,0.000000,0.000000:
0000
0000
0000
0000
,
0000
0000
0000
0000
,
1000
0000
0000
0000
0100
0000
0000
0100
0000
0000
0000
0000
0010
0000
0000
0010
,
0000
0000
0000
0000
0001
0000
0000
0001
0000
0000
0000
0000
1000
0000
0000
1000
,
0000
0000
0000
0000
0010
0000
0000
0100
0000
0000
0000
0000
0100
0000
0000
0001
,
0000
0000
0000
0000
0001
0000
0000
0010
0000
0000
0100
0000
0000
0000
0100
0000
,
1000
0010
0100
0000
0010
0000
1000
0000
,
0001
0001
0000
0010
,
0001
1000
0010
0000
0100
0000
0100
0000
,
0101
0000
0000
1100
0000
1001
0000
0001
,
1000
0010
0100
0000
0001
0000
0001
0000
,
1000
0000
1000
0000
0000
0100
0000
0100
,
0010
0010
0001
0001
,
0100
0010
0000
0010
0000
0000
0100
0000
,
0101
0000
0001
0000
0010
0000
0100
1000
,
0100
0000
0010
0000
0001
0000
0100
0010
,
0100
0000
0001
0000
1000
0010
0100
0000
,
0001
0001
1000
1000
,
0100
0000
0000
0000
1000
0000
0100
0010
,
0001
0000
0100
0000
0010
0100
0010
0000
,
0100
0000
0001
0000
1000
0001
1000
0000
,
0110
1001
0000
0001
,
1100
0000
1000
0000
1010
0000
0000
0101
,
0000
0000
0001
0000
1000
0000
0100
1000
,
0000
1000
0010
0000
0100
0000
0001
0010
,
0000
0100
0010
0001
0000
0001
0100
0000
,
0110
0000
0100
0000
0101
0000
0000
0011
,
0000
0001
1000
0100
,
0001
0100
1000
0000
0001
0100
0001
0000
,
0010
0011
0100
1100
,
1000
0000
0001
0000
1000
0010
0100
0001
,
0000
0011
0000
1100
0000
0100
0000
1001
,
0000
0000
0001
0000
1000
0000
0100
1000
,
0000
1000
0010
0000
0100
0001
0010
0000
,
1100
0000
0001
0000
0011
0000
0000
0101
,
0000
0000
1000
0000
0001
0000
0100
0020
,
0000
1030
0100
1000
0000
0010
0000
0200
,
0000
0301
0010
0001
0000
0100
0000
0110
,
0000
0000
0000
0000
0010
0000
0000
0000
1000
0000
0000
1000
0000
0000
2000
0000
,
0000
0000
0000
0000
3100
0000
0000
0000
0010
0000
0000
0010
0000
0000
0020
0000
,
0000
0000
0000
0000
0031
0000
0000
0000
0100
0000
0000
0100
0000
0000
0200
0000
,
0000
0000
0000
0000
0310
0000
0000
0000
1000
0000
0000
1000
0000
0000
2000
0000
,
0000
0000
3001
1000
0000
0100
0010
0001
,
0200
0000
0000
0310
0000
0010
0100
0001
,
0020
0000
0000
0230
0000
0310
0001
2000
,
0000
3001
0001
0001
,
0000
1000
0100
0010
,
0000
0000
0001
0000
0100
0020
0000
0130
,
0000
0100
0001
1000
,
0000
0000
0100
0000
0010
0200
0000
0310
,
0001
1000
0010
0100
,
0010
0000
1000
0000
0100
0020
0000
0031
,
0100
0010
1000
0100
,
1000
0000
0010
0000
0100
0001
0100
0001
,
0010
0000
1100
0000
0010
0000
0000
1001
,
0000
0000
0101
0000
0001
0000
0010
0100
,
0000
0100
1000
0000
0010
0000
0100
0001
,
0000
0001
0000
1000
0000
0100
1000
0000
,
1010
0000
0100
0000
0101
0000
0000
1001
,
0000
1000
0100
1000
,
0001
0100
1000
0100
0001
0000
1000
0000
,
0100
0100
0010
0000
,
0001
0000
1000
0000
0100
0000
1000
0010
,
0000
0100
0000
0001
0000
0001
0000
1000
,
0000
0000
0100
0000
1000
0000
0010
0100
,
0000
0100
0001
0000
0010
0000
0100
0000
,
0011
0000
0100
0000
1100
0000
0000
1010
,
0000
0000
0010
0000
0100
0000
0001
2000
,
0000
3100
0010
0001
0000
0100
0000
0020
,
0000
0130
0001
0010
0000
0110
0000
2002
,
0000
0000
0000
0000
,
3003
0000
0000
0000
;

//---------------dance-single - ----------------
#NOTES:
     dance-single:
     :
     Hard:
     12:
     0.463943,0.524044,0.231971,0.231971,0.179251,462.000000,429.000000,33.000000,33.000000,0.000000,0.000000,0.463943,0.524044,0.231971,0.231971,0.179251,462.000000,429.000000,33.000000,33.000000,0.000000,0.000000:
// measure 0
0000
0000
0000
0000
,  // measure 1
0000
0000
0000
0000
,  // measure 2
1000
0000
0001
0000
0100
0000
0001
1000
0000
0000
0010
0000
0010
0000
1000
0001
,  // measure 3
0000
0000
0100
0000
0100
0000
0001
0010
0000
0000
0100
0000
0100
0000
1000
0010
,  // measure 4
0000
0000
1000
0000
0100
0000
0010
0001
0000
0000
1000
0000
0010
0000
0100
0001
,  // measure 5
0000
0000
0001
0000
0010
0000
0100
1000
0000
0000
1010
0000
0000
0000
0101
0000
,  // measure 6
0001
1000
0100
0010
0001
0100
0010
0100
,  // measure 7
0001
0010
0100
1000
0010
0101
0000
1010
,  // measure 8
1000
0001
0010
0100
2000
0000
3010
0000
,  // measure 9
0010
0100
0001
0010
0100
0110
0000
0011
,  // measure 10
0001
1000
0010
0100
0001
1000
0100
0010
,  // measure 11
0100
1000
0010
0100
0001
1010
0000
0101
,  // measure 12
1000
0100
0010
0001
0200
0000
0310
0000
,  // measure 13
0010
0100
0001
1000
0100
2000
0000
0001
,  // measure 14
3001
0000
1000
0000
0000
0100
0000
0000
1000
0000
0000
0010
0000
0000
0100
0000
,  // measure 15
0000
0000
0001
0000
0000
0010
0000
0000
0100
0000
0000
1000
0000
0000
0001
0000
,  // measure 16
0000
0000
1000
0000
0000
0010
0000
0000
0100
0000
0000
0010
0000
0000
1000
0000
,  // measure 17
0000
0000
0001
0000
0000
0100
0000
0000
0010
0000
0000
1000
0000
0000
0001
0000
,  // measure 18
0000
0000
0010
0000
0100
1000
0000
1000
0010
0000
0100
0001
0000
0001
1000
0000
,  // measure 19
0000
0000
0100
0000
1000
0010
0000
0010
0100
0000
0100
0001
0000
0001
1000
0000
,  // measure 20
0000
0000
0001
0000
0010
0100
0000
0100
1000
0000
0010
0000
0100
0000
0001
0000
,  // measure 21
0000
0022
0000
0033
0000
1000
0000
1000
,  // measure 22
0101
0000
1010
0000
1000
0100
0010
0001
,  // measure 23
0000
0001
0100
0000
0010
0100
0001
0020
,  // measure 24
0000
1030
0010
0001
0100
1000
0100
0002
,  // measure 25
0000
1003
0100
0002
0000
0103
1000
0000
,  // measure 26
0110
0000
1001
0000
0001
0010
0100
1000
,  // measure 27
0000
1000
0001
0000
0100
0010
0000
0010
,  // measure 28
1000
0100
0001
1000
0010
0001
1000
0000
,  // measure 29
0010
0010
1000
0001
,  // measure 30
0010
0000
0001
0000
0100
0001
0010
0200
,  // measure 31
0000
1300
0010
0200
0000
0301
0010
0200
,  // measure 32
0000
0000
1300
0000
1000
0100
0010
0002
,  // measure 33
0000
1000
1003
0000
0010
1000
0100
0000
,  // measure 34
0110
0000
1001
0000
0001
1000
0010
0200
,  // measure 35
0000
0310
0010
0000
1000
0100
0010
0002
,  // measure 36
0000
0103
1000
0100
0000
0001
0000
2000
,  // measure 37
0000
3100
0001
0100
0000
0010
0000
0010
,  // measure 38
0110
0000
0000
0000
0010
0000
0001
0000
0100
0000
0000
0010
0000
0000
1010
0000
,  // measure 39
0000
0000
1000
0000
0100
0000
0010
0000
0001
0000
0000
0100
0000
0000
0101
0000
,  // measure 40
0000
0000
0001
0000
1000
0000
0100
0000
1000
0000
0000
0010
0000
0000
0110
0000
,  // measure 41
0000
0000
0100
0000
0001
0000
0010
0000
0100
0000
0000
0010
0000
0000
0011
0000
,  // measure 42
0000
0000
0001
0000
0100
0000
2000
0000
0000
0000
3100
0000
0001
0000
0000
1000
,  // measure 43
0002
0000
0000
0203
0000
0310
0010
1000
,  // measure 44
0002
0010
0010
0023
0000
0100
0100
0230
,  // measure 45
0000
0000
0000
0000
1300
0010
0100
0001
,  // measure 46
1000
0000
0100
0000
0010
0001
0000
0001
0100
0000
0100
0010
0000
0010
1000
0000
,  // measure 47
0100
0000
1000
0000
0010
0100
0000
0100
0001
0000
0011
0000
0000
0000
1100
0000
,  // measure 48
0000
0000
0001
0000
1000
0010
0000
0010
0100
0000
0100
0010
0000
0010
1000
0000
,  // measure 49
0100
0000
0010
0000
0001
0100
0000
0100
0010
0000
0101
0000
0000
0000
1010
0000
,  // measure 50
0000
0000
1000
0000
0100
1000
0000
1000
0010
0000
0100
0001
0000
0001
0010
0000
,  // measure 51
0100
0000
0010
0000
0001
0100
0000
0100
0010
0000
0110
0000
0000
0000
1001
0000
,  // measure 52
0001
0000
1000
0000
0100
1000
0000
0000
0000
0000
0001
0000
0100
0001
0000
0000
,  // measure 53
0000
0000
1000
0000
0100
1000
0000
0000
0010
0000
0100
0000
0001
0000
0010
0000
,  // measure 54
0100
0000
1100
0000
0001
0100
1000
0200
,  // measure 55
0000
0001
0301
0000
1000
0100
0010
0002
,  // measure 56
0000
0103
1000
0001
0010
1000
0100
0020
,  // measure 57
0000
1000
0000
0032
0000
1000
1003
0000
,  // measure 58
0010
0000
0101
0000
0010
1000
0100
0010
,  // measure 59
0100
0000
0100
0000
1000
0001
0000
1000
,  // measure 60
0001
0100
1000
0001
0010
1000
0001
0000
,  // measure 61
1000
1000
0001
0001
,  // measure 62
0100
0000
1001
0000
0001
0010
0100
2000
,  // measure 63
0000
3100
0001
0200
0000
0310
0001
0200
,  // measure 64
0000
0010
0310
0000
0100
0001
0010
0200
,  // measure 65
0000
1000
1300
0000
0010
1000
0001
0000
,  // measure 66
0101
0000
1010
0000
1000
0100
0010
0001
,  // measure 67
1000
0000
1000
0000
0001
0100
1000
0200
,  // measure 68
0000
0301
0010
1000
0000
0010
0000
0002
,  // measure 69
0000
1003
0010
0001
0000
0110
0000
2002
,  // measure 70
0000
0000
0000
0000
,  // measure 71
3003
0000
0000
0000
;
