#VERSION:0.83;
#TITLE:Clown Song;
#SUBTITLE:;
#ARTIST:P-Control;
#TITLETRANSLIT:;
#SUBTITLETRANSLIT:;
#ARTISTTRANSLIT:;
#GENRE:Euro House;
#CREDIT:;
#MUSIC:Clown Song.ogg;
#BANNER:Clown Song-bn.png;
#BACKGROUND:Clown Song-bg.png;
#CDTITLE:;
#SAMPLESTART:60.001;
#SAMPLELENGTH:15.000;
#SELECTABLE:YES;
#OFFSET:0.000;
#BPMS:0.000=136.000
,34.500=68.000
,66.500=136.000
;
#STOPS:23.000=0.221
,26.500=0.221
,30.000=0.221
,98.500=1.324
,230.500=0.221
,234.000=0.221
,237.500=0.221
;
#SPEEDS:0.000=1.000=0.000=0;
#SCROLLS:0.000=1.000;
#TICKCOUNTS:0.000=4;
#TIMESIGNATURES:0.000=4=4;
#LABELS:0.000=Song Start;
#COMBOS:0.000=1;
#ORIGIN:Denmark;
#TAGS:;
#PREVIEWVID:;
#JACKET:Clown Song-jacket.png;
#CDIMAGE:;
#DISCIMAGE:;
#BGCHANGES:3.250=Clown Song.mp4=1.000=0=0=1,
99999.000=-nosongbg-=1.000=0=0=0=StretchNoLoop====,
99999.000=-nosongbg-=1.000=0=0=0=StretchNoLoop====
;
#FGCHANGES:;

//--------------- dance-single - RaverAce ----------------
#NOTEDATA:;
#STEPSTYPE:dance-single;
#DESCRIPTION:RaverAce;
#DIFFICULTY:Beginner;
#METER:3;
#RADARVALUES:0.13085,0.211328,0.093147,0.015525,0,118,106,12,2,0,0,0,0,0,0.13085,0.211328,0.093147,0.015525,0,118,106,12,2,0,0,0,0,0;
#CHARTNAME:;
#CHARTHASH:2499440255;
#BANNER:;
#CHARTSTYLE:;
#METERF:0.000000;
#LASTSECONDHINT:123.532356;
#CREDIT:RaverAce;
#NOTES:
0000
0000
0000
0000
,
0000
0000
0000
0000
,
0000
0000
0000
0000
,
0000
0000
0000
0000
,
0000
0000
0000
0000
,
1000
0000
1000
0000
1000
0000
0000
0001
,
0000
0001
0000
0001
0000
0000
1000
0000
,
1000
0000
1000
0000
0000
0001
0000
0001
,
0000
0001
0000
0000
0000
1001
0000
0000
,
0000
0000
0000
0000
0000
1000
0000
0000
,
0000
0000
0000
0000
0000
0001
0000
0000
,
0000
0000
0000
0000
0000
1000
0000
0000
,
0000
0000
0000
0000
0000
0010
0000
0000
,
0000
0000
0000
0000
0000
0100
0000
0000
,
0000
0000
0000
0000
0000
0010
0000
0000
,
0000
0000
0000
0000
0000
0100
0000
0000
,
0000
0000
0000
0000
0000
1001
0000
0000
,
0000
0000
0000
0000
0000
0100
0000
0000
,
0000
0000
0000
0000
0000
0010
0000
0000
,
0000
0000
0000
0000
0000
0100
0000
0000
,
0000
0000
0000
0000
0000
1000
0000
0000
,
0000
0001
0000
0000
0000
1000
0000
0000
,
0000
0001
0000
0000
0000
1000
0000
0000
,
0000
0001
0000
0000
0000
2002
0000
0000
,
0000
0000
0000
3003
0000
0000
0000
1001
,
0000
0000
0000
0001
0000
0000
0000
0010
,
0000
0000
0000
0100
0000
0000
0000
1000
,
0000
0000
0000
0010
0000
0000
0000
0100
,
0000
0000
0000
0001
0000
0000
0000
1000
,
0000
0000
0000
0100
0000
0000
0000
0001
,
0000
0000
0000
0100
0000
0000
0000
0010
,
0000
0000
0000
0001
0000
0000
0000
0100
,
0000
0000
0000
0010
0000
0000
0000
1000
,
0000
0001
0000
1000
0000
0000
0000
0100
,
0000
1000
0000
0100
0000
0000
0000
0010
,
0000
0001
0000
0010
0000
0000
0000
0100
,
0000
0010
0000
0100
0000
0000
0000
1000
,
0000
0001
0000
1000
0000
0000
0000
0010
,
0000
0100
0000
0010
0000
0000
0000
0100
,
0000
0001
0000
0100
0000
0000
0000
0110
,
0000
0010
0000
0010
0000
0000
0000
1001
,
0000
1000
0000
1000
0000
0000
0000
0001
,
0000
0001
0000
0001
0000
0000
0000
0010
,
0000
0010
0000
0010
0000
0000
0000
0100
,
0000
0000
0000
0000
0000
0000
0000
0001
,
0000
0001
0000
0001
0000
0000
0000
1000
,
0000
1000
0000
1000
0000
0000
0000
0010
,
0000
0010
0000
0010
0000
0000
0000
0100
,
0000
0000
0000
0000
0000
0000
0000
1001
,
0000
0000
0000
0000
0000
0000
0000
1001
,
0000
0000
0000
0000
0000
0000
0000
0100
,
0000
0100
0000
0100
0000
0000
0000
0010
,
0000
0000
0000
0000
0000
0000
0000
1001
,
0000
0000
0000
0000
0000
0000
0000
1001
,
0000
0000
0000
0000
0000
0000
0000
0100
,
0000
0100
0000
0100
0000
0000
0000
0010
,
0000
0000
0000
0000
0000
0000
0000
1001
,
0000
0000
0000
0000
,
0000
0000
0000
0000
,
0000
0000
0000
0000
,
0000
0001
1001
0000
;

//--------------- dance-single - RaverAce ----------------
#NOTEDATA:;
#STEPSTYPE:dance-single;
#DESCRIPTION:RaverAce;
#DIFFICULTY:Easy;
#METER:7;
#RADARVALUES:0.229542,0.352214,0.155246,0.069861,0.019406,207,187,20,9,0,0,0,0,0,0.229542,0.352214,0.155246,0.069861,0.019406,207,187,20,9,0,0,0,0,0;
#CHARTNAME:;
#CHARTHASH:27419817;
#BANNER:;
#CHARTSTYLE:;
#METERF:0.000000;
#LASTSECONDHINT:123.532356;
#CREDIT:RaverAce;
#NOTES:
0000
0000
0000
0000
,
0000
0000
0000
0000
,
0000
0000
0000
0000
,
0000
0000
0000
0000
,
0000
0000
0000
0000
,
1001
0000
0001
0000
0001
0000
0000
1000
,
0000
1000
0000
1000
0000
0000
0001
0000
,
0001
0000
0001
0000
0000
1001
0000
1001
,
0000
1001
0000
0001
0000
2002
0000
3003
,
0000
0000
0000
0000
0000
1000
0000
0000
,
0000
0000
0000
0000
0000
0000
0000
0000
0000
0000
0001
1000
0000
0000
0000
0000
,
0000
0000
0000
0000
0000
1000
0000
0000
,
0000
0000
0000
0000
0000
0000
0000
0000
0000
0000
1000
0001
0100
0000
0010
0000
,
0000
0000
0000
0000
0000
0000
0000
0000
0000
0000
0100
0010
0100
0000
0000
0000
,
0000
0000
0000
0000
0000
0000
0000
0000
0000
0000
0001
1000
0100
0000
0010
0000
,
0000
0000
0000
0000
0000
0000
0000
0000
0000
0000
0100
0010
0100
0000
0000
0000
,
0000
0000
0000
0000
0000
1001
0000
0000
,
0000
1000
0000
0010
0000
0100
0000
0000
,
0000
0100
0000
0001
0000
0010
0000
0000
,
0000
0010
0000
0100
0000
1000
0000
0000
,
0000
1000
0000
0001
0000
0100
0000
0010
,
0000
0100
0000
0010
0000
1000
0000
0001
,
0000
1000
0000
0001
0000
1000
0000
0100
,
0000
0010
0000
0001
0000
1001
0000
1001
,
0000
1001
0000
1001
0000
2002
3003
1001
,
0000
0001
0000
0010
0000
0100
0000
1000
,
0000
0010
0000
0100
0000
0001
0000
1000
,
0000
0100
0000
0001
0000
0100
0000
1000
,
0000
0010
0000
0100
0000
0001
0000
1000
,
0000
0100
0000
0010
0000
0001
0000
0010
,
0000
0100
0000
1000
0000
0001
0000
0100
,
0000
1000
0000
0100
0000
0010
0000
1000
,
0000
0001
0000
0010
0000
0100
0000
1000
,
0000
1000
0000
0010
0000
0100
0000
0001
,
0000
0010
0000
0100
0000
1000
0000
0001
,
0000
0100
0000
1000
0000
0100
0000
0001
,
0000
0010
0000
0100
0000
1000
0000
0001
,
0000
0100
0000
0010
0000
1000
0000
0010
,
0000
0100
0000
0001
0000
1000
0000
0100
,
0000
0001
0000
0100
0000
0010
0000
0210
,
0000
1000
0000
1000
0000
1300
0000
1001
,
0000
0001
0000
0001
0000
0000
0000
0010
,
0000
0010
0000
0010
0000
0000
0000
0001
,
0000
0100
0000
0010
0000
0000
0000
0100
,
0000
0100
0000
0100
0000
0000
0000
1000
,
0000
1000
0000
1000
0000
0000
0000
0010
,
0000
0010
0000
0010
0000
0000
0000
1000
,
0000
0100
0000
0010
0000
0000
0000
0100
,
0000
0100
0000
0100
0000
0000
0000
2001
,
0000
0000
0000
3100
0000
0000
0000
1002
,
0000
0000
0000
0103
0000
0000
0000
0001
,
0000
0001
0000
0001
0000
0000
0000
1000
,
0000
0100
0000
0010
0000
0000
0000
1002
,
0000
0000
0000
0103
0000
0000
0000
2001
,
0000
0000
0000
3100
0000
0000
0000
1000
,
0000
1000
0000
1000
0000
0000
0000
0001
,
0000
0100
0000
0010
0000
1000
0000
1001
,
0000
0001
0000
0010
0000
0100
0010
0000
,
0001
0000
1000
0000
0010
0100
0000
0010
,
0000
1000
0000
0001
0010
0000
1000
0000
,
0010
0001
1001
0000
;

//--------------- dance-single - RaverAce ----------------
#NOTEDATA:;
#STEPSTYPE:dance-single;
#DESCRIPTION:RaverAce;
#DIFFICULTY:Medium;
#METER:10;
#RADARVALUES:0.34265,0.469618,0.426926,0.10091,0.027168,309,254,55,13,0,0,0,0,0,0.34265,0.469618,0.426926,0.10091,0.027168,309,254,55,13,0,0,0,0,0;
#CHARTNAME:;
#CHARTHASH:766829455;
#BANNER:;
#CHARTSTYLE:;
#METERF:0.000000;
#LASTSECONDHINT:123.532356;
#CREDIT:RaverAce;
#NOTES:
0000
0000
0000
0000
,
0000
0000
0000
0000
,
0000
0000
0000
0000
,
0000
0000
0000
0000
,
0000
0000
0000
0000
,
1001
0000
0000
0000
1001
0000
0000
0000
1001
0000
1000
0000
0200
0300
1001
0000
,
0000
0000
1001
0000
0000
0000
1001
0000
0001
0000
0200
0300
1001
0000
0000
0000
,
1001
0000
0000
0000
1001
0000
1000
0000
0020
0030
1001
0000
0000
0000
1001
0000
,
0000
1001
0001
0010
0000
0220
0000
0330
,
0000
0000
0000
0000
0000
0001
0000
0000
,
0000
0000
0000
0000
0000
0000
0000
0000
0000
0000
1000
0010
0000
0000
0000
0000
,
0000
0000
0000
0000
0000
1000
0000
0000
,
0000
0000
0000
0000
0000
0000
0000
0000
0000
0000
0001
0010
0100
1000
0001
0000
,
0000
0000
0000
0000
0000
0000
0000
0000
0000
0000
0001
0100
0010
0000
0000
0000
,
0000
0000
0000
0000
0000
0000
0000
0000
0000
0000
1000
0100
0010
0001
1000
0000
,
0000
0000
0000
0000
0000
0000
0000
0000
0000
0000
1000
0010
0100
0000
0000
0000
,
0000
0000
0000
0000
0000
1001
0000
0001
,
0000
0010
0000
0100
1000
0001
0000
0100
,
0000
0010
0000
1000
0001
0100
0000
0001
,
0000
0010
0000
0100
1000
0001
0000
0100
,
0000
0010
0000
1000
0100
0010
0000
0010
,
0001
0100
0000
0100
0010
1000
0000
1000
,
0001
0100
0000
0100
0001
1000
0001
1000
,
0001
0010
0100
0010
0100
0110
0000
1001
,
0000
0110
0000
1001
0000
0220
0330
1001
,
0000
1000
0000
0010
0100
0001
0010
0100
,
0000
1000
0000
0001
0100
0010
1000
0001
,
0000
1000
0000
0100
0000
0001
0000
0100
,
0010
0001
1000
0010
0100
0010
0000
1000
,
0000
0001
0000
0010
0100
1000
0010
0100
,
0000
0001
0000
1000
0100
0010
0001
1000
,
0000
0001
0000
0100
0000
1000
0000
0100
,
0010
1000
0001
0010
0100
0010
0000
0001
,
0000
0100
0000
0010
1000
0010
0100
0001
,
0000
1000
0000
0100
0010
0100
1000
0001
,
0000
0100
0000
1000
0000
0100
0000
0010
,
1000
0001
0010
0100
1000
0001
0000
1000
,
0000
0100
0000
0010
0001
0010
0100
1000
,
0000
0001
0000
0100
0010
0100
0001
1000
,
0000
0100
0000
0001
0000
0100
0000
0120
,
0000
0001
0000
1000
0000
0031
0000
1001
,
0000
0101
0000
1001
0000
1000
0000
1001
,
0000
1100
0000
1001
0000
0001
0000
0110
,
0000
0110
0000
0110
0000
0000
0100
0020
,
0000
0001
0000
1030
0000
0000
0000
1001
,
0000
1100
0000
1001
0000
0001
0000
1001
,
0000
0101
0000
1001
0000
1000
0000
0110
,
0000
0110
0000
0110
0000
0000
0100
0020
,
0000
1000
0000
0031
0000
0000
0000
1002
,
0000
0000
0000
0013
0000
0010
0100
2000
,
0000
0000
0000
3010
0000
0010
0100
0101
,
0000
1001
0000
0201
0000
0000
0301
1001
,
0000
1100
0000
1001
0000
0001
0000
2001
,
0000
0000
0000
3010
0000
0010
0100
0002
,
0000
0000
0000
0013
0000
0010
0100
1100
,
0000
1001
0000
1200
0000
0000
1300
1001
,
0000
0101
0000
1001
0000
1000
0000
1001
,
0000
0001
0000
0010
0000
2000
3010
0000
,
0001
0000
0100
0000
2000
3100
0000
0001
,
0000
0010
0000
0200
1300
0000
0010
0000
,
0100
0001
1001
0000
;

//--------------- dance-single - RaverAce ----------------
#NOTEDATA:;
#STEPSTYPE:dance-single;
#DESCRIPTION:RaverAce;
#DIFFICULTY:Hard;
#METER:14;
#RADARVALUES:0.49346,0.610504,0.232869,0.217344,0.326016,445,415,30,28,0,0,0,0,0,0.49346,0.610504,0.232869,0.217344,0.326016,445,415,30,28,0,0,0,0,0;
#CHARTNAME:;
#CHARTHASH:1494746341;
#BANNER:;
#CHARTSTYLE:;
#METERF:0.000000;
#LASTSECONDHINT:123.532356;
#CREDIT:RaverAce;
#NOTES:
0000
0000
0000
0000
,
0000
0000
0000
0000
,
0000
0000
0000
0000
,
0000
0000
0000
0000
,
0000
0000
0000
0000
,
0102
0000
0010
0000
0103
0010
2000
3002
,
0000
0010
0000
0103
0001
2000
3200
0000
,
0001
0000
0000
0000
1300
0000
0010
0000
0200
0300
0101
0000
0000
0000
0011
0000
,
0000
1100
1000
0001
0000
2002
0000
3003
,
0000
0000
0000
0000
0000
1000
0000
0000
,
0000
0000
0000
0000
0000
0000
0000
0000
0000
0000
0001
0010
0000
0000
0000
0000
,
0000
0000
0000
0000
0000
1000
0000
0000
,
0000
0000
0000
0000
0000
0000
0000
0000
0000
0000
0000
0000
0000
0000
0000
0000
0000
0000
0000
0000
1000
0000
0010
0000
0100
0001
0100
0001
0100
0000
0000
0000
,
0000
0000
0000
0000
0000
0000
0000
0000
0000
0000
1000
0100
0010
0000
0000
0000
,
0000
0000
0000
0000
0000
0000
0000
0000
0000
0000
0000
0000
0000
0000
0000
0000
0000
0000
0000
0000
0001
0000
0010
0000
0100
1000
0100
1000
0100
0000
0000
0000
,
0000
0000
0000
0000
0000
0000
0000
0000
0000
0000
0001
0100
0010
0000
0000
0000
,
0000
0000
0000
0000
0000
1001
0000
1000
,
0000
0001
0100
1000
0100
0010
0000
1000
,
0000
0000
0001
0000
0010
0000
1000
0000
0010
0100
0010
0000
0000
0000
0001
0000
,
0000
1000
0100
0001
0100
0010
0000
0001
,
0000
0000
1000
0000
0010
0000
0001
0000
0010
0100
0010
0000
1000
0000
0100
0000
,
1000
0001
0100
0000
0010
0000
1000
0000
0001
0010
0100
0000
1000
0000
0001
0000
,
0100
0010
1000
0000
0100
0000
1000
0000
0010
1000
0001
0000
0010
0000
1000
0000
,
0010
0001
0100
1000
0100
0101
0000
0011
,
0000
1100
0000
1010
0000
2002
3003
1001
,
0001
0000
0010
0001
0010
0001
0010
0000
0100
0000
1000
0000
0010
0000
0100
0000
,
0001
0000
1000
0100
1000
0100
1000
0000
0010
0000
0100
0000
0001
0000
1000
0000
,
0100
0010
0001
0000
0100
0000
0010
0000
1000
0010
0100
0000
0001
0000
1000
0100
,
1000
0100
0010
0001
0010
0001
1000
0010
0100
0001
0010
0000
0010
0000
0001
0000
,
1000
0000
0010
1000
0010
1000
0010
0000
0100
0000
0001
0000
0010
0000
0100
0000
,
1000
0000
0001
0100
0001
0100
0001
0000
0010
0000
0100
0000
1000
0000
0001
0000
,
0100
0010
1000
0000
0100
0000
0010
0000
0001
0010
0100
0000
1000
0000
0001
0100
,
0001
0100
0010
1000
0010
1000
0001
0010
0100
1000
0010
0000
0010
0000
1000
0000
,
0001
0000
0010
0001
1000
0010
0100
0000
0001
0000
1000
0000
0100
0000
1000
0000
,
0010
0000
0100
0001
0010
0100
1000
0000
0001
0000
0100
0000
0010
0000
1000
0000
,
0001
0010
0100
0000
1000
0000
0010
0000
1000
0100
0010
0000
0001
0000
1000
0010
,
0100
0010
1000
0001
0010
0100
0010
0001
1000
0010
0100
0000
0100
0000
0001
0000
,
1000
0000
0010
1000
0001
0010
0100
0000
1000
0000
0001
0000
0100
0000
0001
0000
,
0010
0000
0100
1000
0010
0100
0001
0000
1000
0000
0100
0000
0010
0000
0001
0000
,
1000
0010
0100
0000
0001
0000
0010
0000
0001
0100
0010
0000
1000
0000
1002
0000
,
0000
0100
0000
1000
0000
0103
0000
1001
,
1000
0000
0100
0000
0001
0000
0100
0000
0010
0001
0000
0100
0001
0000
0010
0000
,
0100
0000
1000
0000
0010
0000
0100
0000
0001
0100
0000
1000
0100
0000
0020
0000
,
0000
0001
0000
2030
0000
3001
0010
0110
,
0100
0000
0001
0000
0100
0000
0010
0000
0001
1000
0000
1000
0100
0000
1000
0000
,
0001
0000
0100
0000
1000
0000
0100
0000
0010
1000
0000
0100
1000
0000
0010
0000
,
0100
0000
0001
0000
0010
0000
0100
0000
1000
0100
0000
0001
0100
0000
0020
0000
,
0000
1000
0000
0032
0000
1003
0010
0110
,
0100
0000
1000
0000
0100
0000
0001
0000
0010
0100
0000
0010
0001
0000
2001
0000
,
0000
0000
0010
0000
0000
0000
3002
0000
0000
0013
0000
0100
1000
0000
1002
0000
,
0000
0000
0100
0000
0000
0000
2003
0000
0000
3100
0000
0010
0001
0000
2000
0000
,
0000
0010
0000
3200
0000
0310
0001
0011
,
0010
0000
0100
0000
1000
0000
0010
0000
0100
0001
0000
0001
1000
0000
1002
0000
,
0000
0000
0010
0000
0000
0000
2003
0000
0000
3010
0000
0100
0001
0000
2001
0000
,
0000
0000
0100
0000
0000
0000
3002
0000
0000
0103
0000
0010
1000
0000
0002
0000
,
0000
0010
0000
0203
0000
0310
1000
1010
,
0010
0000
0100
0000
0001
0000
0010
0000
0100
1000
0000
1000
0001
0000
1001
0000
,
1000
0010
0100
0010
1000
0002
0013
0001
,
0100
0010
0100
0001
2000
3100
0010
0001
,
1000
0001
0010
0200
1300
0010
0001
0010
,
0100
0001
1000
0000
1001
0000
0000
0000
;
