#VERSION:0.83;
#TITLE:Changes;
#SUBTITLE:;
#ARTIST:TaQ;
#TITLETRANSLIT:;
#SUBTITLETRANSLIT:;
#ARTISTTRANSLIT:;
#GENRE:;
#CREDIT:;
#MUSIC:Changes.ogg;
#BANNER:Changes.png;
#BACKGROUND:Changes-bg.png;
#CDTITLE:;
#SAMPLESTART:77.419;
#SAMPLELENGTH:15.000;
#SELECTABLE:YES;
#OFFSET:0.000;
#BPMS:0.000=155.000
,36.000=310.000
,40.000=155.000
;
#STOPS:36.000=0.774;
#SPEEDS:0.000=1.000=0.000=0;
#SCROLLS:0.000=1.000;
#TICKCOUNTS:0.000=4;
#TIMESIGNATURES:0.000=4=4;
#LABELS:0.000=Song Start;
#COMBOS:0.000=1;
#DISPLAYBPM:155.000;
#ORIGIN:;
#TAGS:;
#PREVIEWVID:;
#JACKET:Changes-jacket.png;
#CDIMAGE:;
#DISCIMAGE:;
#BGCHANGES:1.000=Changes.mp4=1.000=0=0=1,
99999.000=-nosongbg-=1.000=0=0=0=StretchNoLoop====,
99999.000=-nosongbg-=1.000=0=0=0=StretchNoLoop====
;
#FGCHANGES:;

//--------------- dance-single - RaverAce ----------------
#NOTEDATA:;
#STEPSTYPE:dance-single;
#DESCRIPTION:RaverAce;
#DIFFICULTY:Beginner;
#METER:3;
#RADARVALUES:0.07812,0.12789,0.07056,0,0,62,54,8,0,0,0,0,0,0,0.07812,0.12789,0.07056,0,0,62,54,8,0,0,0,0,0,0;
#DISPLAYBPM:155.000;
#CHARTNAME:;
#CHARTHASH:4232052736;
#BANNER:;
#CHARTSTYLE:;
#METERF:0.000000;
#LASTSECONDHINT:112.257874;
#CREDIT:RaverAce;
#NOTES:
0000
0000
0000
0000
,
0000
0000
0000
0000
,
0000
0000
0000
0000
,
0000
0000
0000
0000
,
0000
0000
0000
0000
,
0000
0000
0000
0000
,
0000
0000
0000
0000
,
0000
0000
0000
0000
,
0000
0000
0000
0010
,
0000
0000
0000
0000
,
1001
0000
0000
0000
,
1000
0000
0000
0000
,
0001
0000
0000
0000
,
1000
0000
0000
0000
,
0001
0000
0000
0000
,
1000
0000
0000
0000
,
0001
0000
0000
0000
,
1000
0000
0000
0000
,
1001
0000
0000
0000
,
0010
0000
0000
0000
,
0100
0000
0000
0000
,
0010
0000
0000
0000
,
0100
0000
0000
0000
,
0001
0000
0000
0000
,
1000
0000
0000
0000
,
0001
0000
0000
0000
,
1001
0000
0000
0000
,
1000
0000
0000
0000
,
0100
0000
0000
0000
,
0010
0000
0000
0000
,
0001
0000
0000
0000
,
0100
0000
0000
0000
,
0010
0000
0000
0000
,
1000
0000
0000
0000
,
0001
0000
0000
0000
,
0000
0000
0000
0000
,
1000
0000
0000
0000
,
0000
0000
0000
0000
,
0001
0000
0000
0000
,
0000
0000
0000
0000
,
1000
0000
0000
0000
,
0000
0000
0000
0000
,
1001
0000
0000
0000
,
0000
0000
0000
0000
,
0010
0000
0000
0000
,
0000
0000
0000
0000
,
0100
0000
0000
0000
,
0000
0000
0000
0000
,
0010
0000
0000
0000
,
0000
0000
0000
0000
,
1001
0000
0000
0000
,
0010
0000
0000
0000
,
1000
0000
0000
0000
,
0100
0000
0000
0000
,
0001
0000
0000
0000
,
1000
0000
0000
0000
,
0100
0000
0000
0000
,
0010
0000
0000
0000
,
1001
0000
0000
0000
,
0001
0000
0000
0000
,
0100
0000
0000
0000
,
0010
0000
0000
0000
,
1001
0000
0000
0000
,
1000
0000
0000
0000
,
0100
0000
0000
0000
,
0010
0000
0000
0000
,
1001
0000
0000
0000
,
0000
0000
0000
0000
,
0010
0000
0000
0000
,
0000
0000
0000
0000
,
0100
0000
0000
0000
,
0000
0000
0000
0000
,
0010
0000
0010
0000
;

//--------------- dance-single - RaverAce ----------------
#NOTEDATA:;
#STEPSTYPE:dance-single;
#DESCRIPTION:RaverAce;
#DIFFICULTY:Easy;
#METER:8;
#RADARVALUES:0.347759,0.385653,0.07056,0.15876,0.00882,276,268,8,18,0,0,0,0,0,0.347759,0.385653,0.07056,0.15876,0.00882,276,268,8,18,0,0,0,0,0;
#DISPLAYBPM:155.000;
#CHARTNAME:;
#CHARTHASH:1101004800;
#BANNER:;
#CHARTSTYLE:;
#METERF:0.000000;
#LASTSECONDHINT:112.838524;
#CREDIT:RaverAce;
#NOTES:
0000
0000
0000
0000
,
0000
0000
0000
0000
,
0000
0000
0000
0000
,
0000
0000
0000
0000
,
0000
0000
0000
0000
,
0000
0000
0000
0000
,
1000
0010
0100
0001
,
1000
0100
0010
0001
,
0100
0010
2000
0002
,
0000
0000
0000
3003
,
1001
0001
0010
0100
,
1000
0100
0010
0001
,
1000
0010
0100
0001
,
1000
0000
0100
0000
0010
0000
0001
1000
,
0001
0100
0010
1000
,
0100
0010
0001
1000
,
0010
0100
0001
1000
,
0100
0000
1000
0000
0010
0000
1000
0001
,
1002
0010
0010
0010
,
1000
1000
1000
1000
,
0100
0100
0100
0100
,
1000
0000
1000
0000
1000
0000
1003
0001
,
2000
0100
0100
0100
,
0001
0001
0001
0001
,
0010
0010
0010
3002
,
2000
0000
0000
3003
,
1001
0001
0010
0100
,
0010
0001
0100
0010
,
0100
0001
0010
0100
,
0010
0000
0001
0000
0100
0000
0001
0010
,
0001
1000
0010
0100
,
0010
1000
0100
0010
,
0100
1000
0010
0100
,
0010
0000
1000
0000
0200
0000
0000
1300
,
0002
0100
0100
0100
,
2003
0100
0100
0100
,
3002
0010
0010
0010
,
2003
0000
0010
0000
0010
0000
3010
0010
,
1000
0000
0100
0000
0010
0000
0001
1000
,
0001
0000
0010
0000
0100
0000
1000
0001
,
1000
0100
0001
0200
,
0020
0000
0000
0330
,
1001
0001
0100
1000
,
0100
0010
1000
0001
,
1000
0100
0001
0100
,
0010
0000
0001
0000
1000
0000
0010
0100
,
0010
1000
0100
0001
,
0100
0010
0001
1000
,
0001
0100
1000
0200
,
0020
0000
0000
0330
,
1001
0001
0010
1000
,
0010
0100
1000
0010
,
0100
0001
0100
1000
,
0100
0000
0010
0000
1000
0000
0001
0010
,
0001
1000
0010
0001
,
0010
0100
0001
0010
,
0100
1000
0100
0001
,
0100
0000
0010
0000
0001
0000
1000
0001
,
1001
1000
0010
0001
,
1000
0000
0100
0000
0001
0000
0010
0001
,
0010
0001
0100
1000
,
0001
0000
0010
0000
1000
0001
1000
0000
,
1001
0001
0010
1000
,
0001
0000
0100
0000
1000
0000
0010
1000
,
0010
0000
1000
0100
1000
0000
0001
0000
,
2000
0000
0000
0001
0000
0000
0001
0000
0000
0001
0000
0000
3001
0000
1000
0000
,
1001
0000
0001
0200
0000
0000
0301
0000
,
0010
0000
0100
0000
1000
0000
0001
1000
,
0001
0000
1000
0200
0000
0000
1300
0000
,
0010
0000
0100
0000
0001
0000
1000
0001
,
1000
0010
0001
0010
,
1000
0100
0001
0100
,
1000
0000
0010
0000
0100
0000
0001
1000
;

//--------------- dance-single - RaverAce ----------------
#NOTEDATA:;
#STEPSTYPE:dance-single;
#DESCRIPTION:RaverAce;
#DIFFICULTY:Medium;
#METER:13;
#RADARVALUES:0.589678,0.642756,0.07056,0.538019,0.343979,468,460,8,61,0,0,0,0,0,0.589678,0.642756,0.07056,0.538019,0.343979,468,460,8,61,0,0,0,0,0;
#DISPLAYBPM:155.000;
#CHARTNAME:;
#CHARTHASH:4270850048;
#BANNER:;
#CHARTSTYLE:;
#METERF:0.000000;
#LASTSECONDHINT:112.838524;
#CREDIT:RaverAce;
#NOTES:
0000
0000
0000
0000
,
0000
0000
0000
0000
,
0000
0000
0000
0000
,
0000
0000
0000
0000
,
0000
0000
0000
0000
,
0000
0000
0000
0000
,
0001
0100
0010
1000
,
0001
0010
0100
1000
,
0010
0100
0002
2000
,
0000
0000
0000
3003
,
1001
1000
0100
0000
1000
0000
0010
0100
,
0001
0010
0001
0000
0100
0000
0001
0010
,
0100
1000
0010
0000
0100
0000
0001
1000
,
0100
0000
0010
0000
0001
0000
0000
0000
1000
0000
0000
0000
0100
1000
0000
0010
,
1000
0001
0100
0000
0001
0000
0010
0100
,
1000
0010
1000
0000
0100
0000
1000
0010
,
0100
0001
0010
0000
0100
0000
1000
0010
,
0001
0010
0100
0000
0002
0000
1000
1003
,
1001
0000
0001
0000
0010
0000
0100
0020
0000
0000
0031
0000
0100
0000
0010
0000
,
1000
0000
0010
0000
0100
0000
0010
2000
0000
0000
3100
0000
0010
0000
0001
0100
,
0001
0000
1000
0000
0100
0000
0010
0200
0000
0000
1300
0000
0010
0000
0100
0000
,
0001
0000
0100
0000
0010
0000
0100
0002
0000
0000
0013
0000
0100
0000
1000
0010
,
2000
0000
0001
0000
0000
0100
0000
0000
0001
0000
0000
0010
0000
0000
3002
0000
,
0000
0000
1000
0000
0000
0100
0000
0000
1000
0000
0000
0010
0000
0000
2003
0000
,
0000
0000
3020
0000
0000
2030
0000
0000
3002
0000
0000
0023
0000
0000
0200
0000
,
0000
0000
0000
0330
,
1001
0000
1000
0001
0000
0100
0001
0000
1000
0001
0000
1000
0100
0000
0020
0000
,
0000
0000
0130
0010
0000
0001
0010
0000
0100
0010
0000
0100
1000
0000
0020
0000
,
0000
0000
1030
0001
0000
1000
0100
0000
1000
0001
0000
1000
0100
0000
2000
0000
,
0000
0000
3001
1000
0000
0001
0100
0000
0001
1000
0000
0001
0100
0000
0001
0000
,
1000
0000
0001
1000
0000
0100
1000
0000
0001
1000
0000
0001
0100
0000
0020
0000
,
0000
0000
0130
0010
0000
1000
0010
0000
0100
0010
0000
0100
0001
0000
0020
0000
,
0000
0000
0031
1000
0000
0001
0100
0000
0001
1000
0000
0001
0100
0000
0002
0000
,
0000
0000
1003
0001
0000
1000
0010
0000
2000
0000
0000
0100
0000
0000
3001
0000
,
0002
0000
0100
0000
0100
0000
1003
0001
,
2000
0000
0000
0000
0100
0000
0000
0000
3100
0000
1000
0000
0001
1000
0000
0100
,
2000
0000
0010
0000
0010
0000
3001
1000
,
0002
0000
0000
0000
0010
0000
0000
0000
0013
0000
0001
0100
0000
0100
0010
0000
,
2000
0000
0000
3200
0000
0000
0320
0000
0000
0000
0031
0020
0000
0000
0031
0000
,
0200
0000
0000
0320
0000
0000
2030
0000
0000
0000
3100
1000
0100
1000
0000
1000
,
0002
0000
0000
0203
0000
0000
0320
0000
0000
0000
1030
0001
0010
0000
0002
0000
,
2000
0000
0000
0000
0000
0000
3003
0001
,
2001
0000
3100
0002
0000
0103
0010
0001
,
2000
0000
0000
0000
3001
0000
0200
0000
0000
0000
1300
0000
0100
0000
0001
1000
,
0002
0000
0013
2000
0000
3010
0100
1000
,
0002
0000
0000
0000
1003
0000
0020
0000
0000
0000
0031
0000
0010
0000
1000
0001
,
1000
0010
0100
0020
0000
1030
0010
0100
,
0001
0010
0100
0020
0000
0031
0100
0010
,
1000
0100
0010
0200
0000
1300
0010
2000
,
0002
0000
0000
3003
,
1001
0001
0100
1000
0100
0010
1000
0010
,
0100
0000
0001
0000
0010
0000
0100
0000
0010
0000
0001
0000
1000
0010
0000
1000
,
0100
1000
0010
0001
0010
0100
0001
0010
,
0100
0000
1000
0000
0001
0000
0100
0000
0010
0000
0100
0000
0001
0010
0000
0010
,
0001
1000
0100
0001
0100
0010
0001
0010
,
0100
0000
1000
0000
0010
0000
0100
0000
0010
0000
1000
0000
0001
0010
0000
0001
,
0100
0001
0010
1000
0010
0100
1000
0010
,
0100
0001
1000
0100
0010
0100
1000
1000
,
1001
0001
0100
1000
0100
0010
1000
0100
,
0010
1000
0010
0100
1000
0010
0100
1000
,
0100
0001
0010
1000
0010
0100
1000
0001
,
0100
0010
1000
0010
0001
0010
0100
0001
,
1001
1000
0100
0001
0100
0010
0001
0100
,
0010
0001
0010
0100
0001
0010
0100
0001
,
0100
0010
0000
0001
0010
0001
0000
1000
0010
1000
0000
0001
0100
0001
0000
1000
,
0200
0000
0000
0001
0000
0000
0010
0000
0000
2300
0000
0000
0001
0000
3001
0000
,
1001
0000
0000
0000
0001
0100
0002
0000
0000
0000
0000
0000
0013
0000
0001
0000
,
1000
0000
0010
0000
0100
0000
0010
0000
0001
0000
0010
0000
0100
0001
0000
1000
,
0001
0000
0000
0000
1000
0100
2000
0000
0000
0000
0000
0000
3010
0000
1000
0000
,
0001
0010
0100
0010
1000
0010
0100
0100
,
2000
0000
0000
0000
3010
1000
0002
0000
0000
0000
0000
0000
0013
0100
0010
0100
,
2000
0000
0000
0000
3001
0100
0020
0000
0000
0000
0130
0000
0010
0100
0010
0100
,
0002
0000
0000
0000
1003
0001
0020
0000
0000
0000
0130
0000
1000
0000
0001
0000
;

//--------------- dance-single - RaverAce ----------------
#NOTEDATA:;
#STEPSTYPE:dance-single;
#DESCRIPTION:RaverAce;
#DIFFICULTY:Hard;
#METER:16;
#RADARVALUES:0.818998,0.931996,0.07056,0.467459,1.067217,650,642,8,53,0,0,0,0,0,0.818998,0.931996,0.07056,0.467459,1.067217,650,642,8,53,0,0,0,0,0;
#DISPLAYBPM:155.000;
#CHARTNAME:;
#CHARTHASH:4183818240;
#BANNER:;
#CHARTSTYLE:;
#METERF:0.000000;
#LASTSECONDHINT:112.838524;
#CREDIT:RaverAce;
#NOTES:
0000
0000
0000
0000
,
0000
0000
0000
0000
,
0000
0000
0000
0000
,
0000
0000
0000
0000
,
0000
0000
0000
0000
,
0000
0000
0000
0000
,
1000
0100
0010
0001
,
1000
0010
0100
0001
,
0010
0100
2000
0002
,
0000
0000
0000
3003
,
1001
0000
0001
0000
0100
0000
0001
0010
0001
0000
0100
0001
1000
0000
0000
0000
,
0001
0000
1000
0000
0010
0000
1000
0100
1000
0000
0010
1000
0001
0100
0000
0010
,
1000
0000
0100
0000
0010
0000
0001
0100
0001
0000
1000
0100
0010
0000
0000
0000
,
0001
0000
0100
0000
0010
0000
1000
0100
1000
0000
0001
0100
0001
0100
0010
1000
,
0001
0000
1000
0000
0100
0000
1000
0010
1000
0000
0100
1000
0001
0000
0000
0000
,
1000
0000
0001
0000
0010
0000
0001
0100
0001
0000
0010
0001
1000
0100
0000
0010
,
0001
0000
0100
0000
0010
0000
1000
0100
1000
0000
0001
0100
0010
0000
0000
0000
,
1000
0000
0100
0000
0010
0000
0001
0100
0001
1000
0001
0100
0001
0000
0001
0000
,
1001
0000
1000
0000
0100
0000
1000
0020
0000
0000
0031
0000
0010
0100
0010
0100
,
0001
0000
1000
0000
0100
0000
0001
0200
0000
0000
0310
0000
0001
0000
1000
0010
,
1000
0000
0001
0000
0100
0000
0001
0020
0000
0000
1030
0000
0010
0100
0010
0100
,
1000
0000
0001
0000
0100
0000
1000
0200
0000
0000
0310
0000
1000
0001
1000
0001
,
0010
0000
1000
0000
0010
0000
0100
2000
0000
0000
3001
0000
1000
0100
0010
0001
,
0100
0000
1000
0000
0100
0000
0010
2000
0000
0000
3001
0000
0010
0100
1000
0001
,
0100
0000
0001
0000
0010
0000
1000
0020
0000
0000
0031
0000
0100
0001
1000
0020
,
0200
0000
0000
0330
,
1001
0000
1000
0100
0000
0010
0100
0000
1000
0010
0000
1000
0100
0000
0010
0000
,
0001
0000
0010
0100
0000
1000
0100
0000
1000
0010
0000
0010
1000
0000
0100
0000
,
1000
0000
0001
0100
0000
0010
0100
0000
0001
0010
0000
0001
0100
0000
0010
0000
,
1000
0000
0010
0100
0000
0001
0100
0000
0001
0010
0000
0100
1000
0010
0100
0001
,
0010
0000
0001
0100
0000
1000
0100
0000
0010
0100
0000
1000
0100
0000
0010
0000
,
1000
0000
0100
0001
0000
0100
0010
0000
0100
0001
0000
0100
0010
0000
0001
0000
,
1000
0000
0010
0001
0000
0010
0100
0000
0010
0001
0000
0010
1000
0000
0001
0000
,
0010
0000
1000
0010
0000
0100
0010
0000
0002
0000
0000
0100
0000
0000
1000
0000
,
2003
0000
0010
0000
0010
0000
3001
1000
,
0002
0000
0000
0000
0010
0000
0000
0000
0013
0000
0001
0000
0100
0001
0000
1000
,
0002
0000
0100
0000
0100
0000
1003
0001
,
2000
0000
0000
0000
0100
0000
0000
0000
3100
0000
1000
0010
0000
0010
0100
0000
,
0002
0000
0000
0023
0000
0000
2030
0000
0000
0000
3001
0200
0000
0000
1300
0000
,
0020
0000
0000
0230
0000
0000
0302
0000
0000
0000
0013
0001
0010
0001
0000
0001
,
2000
0000
0000
3020
0000
0000
0032
0000
0000
0003
1000
0100
0010
0000
1000
0000
,
0200
0000
0000
2300
0000
0000
0002
0000
0000
0000
0000
0000
3000
0000
1003
0000
,
1001
0000
0001
0010
1000
0000
0020
0000
0000
0000
0031
0000
0100
0001
1000
0100
,
0010
0000
0001
0100
0010
0000
1000
0000
0000
0000
1000
0000
0100
0010
0001
1000
,
0001
0000
1000
0010
0001
0000
0020
0000
0000
0000
1030
0000
0100
1000
0001
0100
,
0010
0000
1000
0100
0010
0000
0001
0000
0000
0000
0001
0000
0100
0010
1000
0001
,
0010
0000
0100
1000
0010
0000
1000
0000
0000
0000
1000
0000
0100
0010
0001
0100
,
0010
0000
0100
0001
0010
0000
0001
0000
0000
0000
0001
0000
0010
0100
1000
0010
,
1000
0000
0001
0100
1000
0000
0200
0000
0000
0000
0310
0000
1000
0100
1000
0002
,
2000
0000
0000
3003
,
1001
0000
0001
0100
0010
0100
0000
0100
0001
0010
0000
0010
0001
1000
0010
0100
,
0001
0000
1000
0100
0010
0100
0000
1000
0001
0100
0010
0100
0001
0010
0100
1000
,
0010
0000
1000
0100
0010
0100
0000
0100
1000
0010
0000
0010
1000
0001
0010
0100
,
1000
0000
0001
0100
0010
1000
0000
1000
0001
0010
0100
0010
0001
0100
0010
0100
,
0001
0000
0010
0001
1000
0100
0000
0100
1000
0010
0000
0010
1000
0100
0010
0001
,
1000
0000
0001
0100
0010
1000
0000
0001
0010
0100
1000
0010
0100
0001
1000
0100
,
1000
0000
0010
1000
0001
0100
0000
0100
0001
0010
0000
0010
0001
0100
0010
1000
,
0001
0000
1000
0100
0010
0001
0000
1000
0010
0100
0001
0010
0001
0000
0001
0000
,
1001
0000
1000
0010
0100
0002
0000
0013
0100
2000
0000
3010
0100
0002
0000
1003
,
0100
0010
0001
1000
0010
0001
0010
0100
0001
0010
0100
1000
0001
0200
0000
0301
,
1000
0200
0000
0310
0100
2000
0000
3010
0100
0002
0000
0013
0100
2000
0000
3001
,
0100
0010
1000
0001
0010
1000
0010
0100
1000
0010
0100
0001
1000
0000
0001
0000
,
1001
0000
1000
0100
0010
0200
0000
1300
0010
0200
0000
0301
0010
0200
0000
1300
,
0001
0100
0010
1000
0100
0010
0001
0100
1000
0100
0010
1000
0001
0010
0000
0001
,
0100
0020
0000
1030
0100
0020
0000
0031
1000
0200
0000
1300
0001
0200
0000
0301
,
0020
0000
0000
1000
0000
0000
0100
0000
0000
0032
0000
0000
1000
0000
1003
0000
,
1001
0000
0001
0100
1000
0100
0020
0000
0000
0000
1030
0000
0001
1000
0001
1000
,
0100
0000
0010
0001
0010
0000
0001
1000
0100
0000
1000
0000
0010
1000
0010
0100
,
0001
0000
1000
0100
0001
0100
0020
0000
0000
0000
0031
0000
1000
0001
1000
0001
,
0100
0000
0010
1000
0010
0000
1000
0001
0100
0000
0001
0000
0010
0000
0010
0000
,
0001
0100
0010
0100
0001
0010
0200
0000
0000
0000
1300
0000
0010
0100
0010
0100
,
0001
1000
0010
1000
0001
0000
0020
0000
0000
0000
0031
0000
0100
0001
0100
0001
,
1000
0010
0100
0010
1000
0000
0200
0000
0000
0000
0310
0000
0001
0000
1000
0000
;
