#TITLE:Centipede [MODS];
#SUBTITLE:;
#ARTIST:Knife Party;
#TITLETRANSLIT:;
#SUBTITLETRANSLIT:;
#ARTISTTRANSLIT:;
#GENRE:;
#CREDIT:darkanine;
#BANNER:Centipede.png;
#BACKGROUND:Centipede-bg.png;
#LYRICSPATH:;
#CDTITLE:;
#MUSIC:Centipede.ogg;
#OFFSET:0.000000;
#SAMPLESTART:44.632999;
#SAMPLELENGTH:12.000000;
#SELECTABLE:YES;
#BPMS:0.000000=17.500000
,24.000000=140.000000
,56.000000=70.000000
,96.000000=140.000000
,224.000000=70.000000
;
#STOPS:1.000000=-72.000000,
39.000000=-6.857143,
71.500000=-6.857143,
96.000000=-6.857143,
207.000000=-6.857143,
256.020844=-13.714286
;
#BGCHANGES:0.000=Centipede.mp4=1.000=0=0=1=====,
99999=-nosongbg-=1.000=0=0=0 // don't automatically add -songbackground-
;
#KEYSOUNDS:;
#ATTACKS:;

//---------------dance-single - darkanine----------------
#NOTES:
     dance-single:
     :
     Challenge:
     16:
     0.391174,1.083716,0.070613,0.407987,0.635518,349.000000,340.000000,9.000000,52.000000,100.000000,3.000000,0.391174,1.083716,0.070613,0.407987,0.635518,349.000000,340.000000,9.000000,52.000000,100.000000,3.000000:
// measure 0
0000
0000
0000
0000
,  // measure 1
0000
0000
0000
0000
,  // measure 2
0000
0000
0000
0000
,  // measure 3
0000
0000
0000
0000
,  // measure 4
0000
0000
0000
0000
,  // measure 5
0000
0000
0000
0000
,  // measure 6
0010
1000
0010
1000
0010
0100
0010
0100
,  // measure 7
0001
0010
0001
0010
0100
0010
0100
0010
,  // measure 8
0001
1000
0001
1000
0001
1000
0001
1000
,  // measure 9
0002
0100
1003
0000
,  // measure 10
1001
0000
0000
0000
,  // measure 11
0000
0000
0000
0000
,  // measure 12
0000
0000
0000
0000
,  // measure 13
0000
0000
0000
0000
,  // measure 14
2002
0000
0000
0000
0000
0000
0003
0000
0000
0000
0000
0000
3100
1000
0100
1000
0100
1000
0100
1000
0100
1000
0100
1000
0200
0000
0000
0000
0000
0000
0000
0000
0000
0000
0000
0000
0320
0000
0000
0000
0000
0000
0000
0000
0000
0000
0000
0000
,  // measure 15
2032
0000
0000
0000
3000
0000
0000
0000
1003
0100
1000
0100
1000
0100
0010
0000
0001
0000
0200
0000
0000
0000
0310
0000
2000
0000
0000
0000
3200
0000
0000
0000
,  // measure 16
0310
0001
M010
0001
M010
0001
M010
0001
0000
0000
100M
0010
000M
1000
001M
0000
M010
0001
M010
0001
M010
0001
1000
0000
001M
1000
001M
1000
002M
0000
0000
0000
,  // measure 17
2030
3200
0320
0031
,  // measure 18
1001
0000
0000
0000
,  // measure 19
0000
0000
0000
0000
,  // measure 20
2002
0000
0000
0000
0000
0000
3000
0000
0000
0000
0000
0000
0013
0001
0010
0001
0010
0001
0010
0001
0010
0001
0010
0001
0020
0000
0000
0000
0000
0000
0000
0000
0000
0000
0000
0000
0230
0000
0000
0000
0000
0000
0000
0000
0000
0000
0000
0000
,  // measure 21
2302
0000
0000
0000
0003
0000
0000
0000
3001
0010
0001
0010
0001
0010
0100
0000
1000
0000
0020
0000
0000
0000
0130
0000
0002
0000
0000
0000
0023
0000
0000
0000
,  // measure 22
0130
1000
010M
1000
010M
1000
010M
1000
0000
0000
M001
0100
M000
0001
M100
0000
010M
1000
010M
1000
010M
1000
0001
0000
M100
0001
M100
0001
M200
0000
0000
0000
,  // measure 23
0302
0023
0230
2300
,  // measure 24
3000
0000
0000
0000
,  // measure 25
0000
0000
0000
0000
,  // measure 26
0000
0000
0000
0000
,  // measure 27
0000
0000
0000
0000
,  // measure 28
0000
0000
0000
0000
,  // measure 29
0000
0000
0000
0000
,  // measure 30
0000
0000
0000
0000
,  // measure 31
0000
0000
0000
0000
,  // measure 32
0000
0000
0000
0000
,  // measure 33
0000
0000
0000
0000
,  // measure 34
0000
0000
0000
0000
,  // measure 35
0000
0000
0000
0000
,  // measure 36
0000
0000
0000
0000
1000
0000
0100
1000
0000
0000
0001
0000
0100
0000
0001
0000
,  // measure 37
0000
0000
0000
0000
1000
0000
0010
1000
0000
0000
0001
0000
0010
0001
0000
0000
,  // measure 38
0000
0000
0000
0000
1000
0000
0100
1000
0000
0000
0001
0000
0100
0000
0001
0000
,  // measure 39
0000
0000
0000
0000
1000
0000
0010
1000
0000
0000
0001
0000
0010
0001
0000
0000
,  // measure 40
0000
0000
0000
0000
1000
0000
0010
0100
0000
0000
0001
0000
0010
0000
0100
0000
,  // measure 41
0000
0000
0000
0000
1000
0000
0010
0100
0000
0000
0001
0000
0010
0100
0000
0000
,  // measure 42
0000
0000
0000
0000
1000
0000
0100
0010
0000
0000
0001
0000
0100
0000
0010
0000
,  // measure 43
0000
0000
0000
0000
1000
0000
0100
0010
0000
0000
0001
0000
0100
0000
0000
0000
,  // measure 44
0010
1000
0010
1000
0010
1000
0010
1000
,  // measure 45
0001
0100
0001
0100
0001
0100
0001
0100
,  // measure 46
0001
0010
0001
0010
0001
0010
0001
0010
,  // measure 47
0100
1000
0100
1000
0100
1000
0100
1000
,  // measure 48
0010
1000
0010
1000
0010
1000
0010
1000
0001
0100
0001
0100
0001
0100
0001
0100
,  // measure 49
0001
0010
0001
0010
0001
0010
0001
0010
0100
1000
0100
1000
0100
1000
0100
4000
,  // measure 50
0004
0000
0000
0000
,  // measure 51
0000
0000
0000
3003
,  // measure 52
1001
0000
0000
0000
,  // measure 53
0000
0000
0000
0000
,  // measure 54
0000
0000
0000
0000
,  // measure 55
0000
0000
0000
0000
,  // measure 56
2002
0000
0000
0000
0000
0000
0000
0000
0000
0000
0000
0000
0000
0000
0000
0000
0000
0000
0000
0000
0000
0000
0000
0000
0003
0000
0000
0000
0000
0000
0000
0000
0000
0000
0000
0000
0000
0000
0000
0000
0000
0000
0000
0000
0000
0000
0000
0000
3010
0000
0000
0000
0100
0000
0000
0000
0010
0000
0000
0000
0100
0000
0000
0000
0010
0000
0000
0000
0100
0000
0000
0000
0010
0000
0000
0000
0100
0000
0000
0000
0010
0000
0000
0000
0100
0000
0000
0000
0010
0000
0000
0000
0100
0000
0000
0000
0020
0000
0000
0000
0000
0000
0000
0000
0000
0000
0000
0000
0000
0000
0000
0000
0000
0000
0000
0000
0000
0000
0000
0000
0000
0000
0000
0000
0000
0000
0000
0000
0000
0000
0000
0000
0030
0000
0000
0000
0000
0000
1000
0000
0000
0000
0000
0000
0200
0000
0000
0000
0000
0000
0000
0000
0000
0000
0000
0000
0000
0000
0000
0000
0000
0000
0000
0000
0000
0000
0000
0000
0000
0000
0000
0000
0000
0000
0000
0000
0000
0000
0000
0000
0000
0000
0000
0000
0000
0000
0000
0000
0000
0000
0000
0000
,  // measure 57
2302
0000
0000
0000
3000
0000
0000
0000
1003
0100
1000
0100
1000
0100
0010
0000
0001
0000
0200
0000
0000
0000
0310
0000
2000
0000
0000
0000
3002
0000
0000
0000
,  // measure 58
0103
0001
M100
0001
M100
0001
M100
0001
0000
0000
100M
0100
000M
1000
010M
0000
M100
0001
M100
0001
M100
0001
1000
0000
010M
1000
010M
1000
020M
0000
0000
0000
,  // measure 59
2300
0000
0000
0000
0000
0000
0000
0000
3020
0000
0000
0000
0000
0000
0000
0000
0230
0000
0000
0000
0000
0000
0000
0000
0301
0000
0010
0000
0100
1000
0100
0000
,  // measure 60
2000
0000
3000
0000
1010
0000
0001
1000
0200
0000
0300
0000
0110
0010
0010
0000
,  // measure 61
0002
0023
0230
2300
,  // measure 62
3020
0000
0000
0000
0030
0000
0000
0000
1010
0000
0000
0000
0001
0000
1000
0000
0100
0000
0000
0000
1000
0100
0010
0001
0100
0000
0000
0000
0100
0000
0000
0000
,  // measure 63
0002
0203
0320
2030
,  // measure 64
3001
0000
0000
0000
,  // measure 65
0000
0000
0000
0000
,  // measure 66
0000
0000
0000
0000
,  // measure 67
0000
0000
0000
0000
,  // measure 68
0000
0000
0000
0000
0000
0000
M000
0M00
00M0
0M0M
MMM0
0MMM
,  // measure 69
M0M0
0MMM
MMMM
0MMM
MM0M
MMMM
0MM0
M00M
0MM0
0MMM
MMM0
0M0M
,  // measure 70
MMM0
0MMM
M0M0
0M0M
M0M0
0M0M
0MM0
M000
0M00
000M
00M0
0000
;

//---------------dance-single - darkanine----------------
#NOTES:
     dance-single:
     NERFED:
     Edit:
     14:
     0.357549,0.979169,0.070613,0.407987,0.462908,319.000000,310.000000,9.000000,52.000000,0.000000,3.000000,0.357549,0.979169,0.070613,0.407987,0.462908,319.000000,310.000000,9.000000,52.000000,0.000000,3.000000:
0000
0000
0000
0000
,
0000
0000
0000
0000
,
0000
0000
0000
0000
,
0000
0000
0000
0000
,
0000
0000
0000
0000
,
0000
0000
0000
0000
,
0010
1000
0010
1000
0010
0100
0010
0100
,
0001
0010
0001
0010
0100
0010
0100
0010
,
0001
1000
0001
1000
0001
1000
0001
1000
,
0002
0100
1003
0000
,
1001
0000
0000
0000
,
0000
0000
0000
0000
,
0000
0000
0000
0000
,
0000
0000
0000
0000
,
2002
0000
0000
0000
0000
0000
0000
0000
0000
0000
0000
0000
0000
0000
0000
0000
0000
0000
0000
0000
0000
0000
0000
0000
0003
0000
0000
0000
0000
0000
0000
0000
0000
0000
0000
0000
0000
0000
0000
0000
0000
0000
0000
0000
0000
0000
0000
0000
3400
0000
0000
0000
4000
0000
0000
0000
0000
0000
0000
0000
0000
0000
0000
0000
0000
0000
0000
0000
0000
0000
0000
0000
0000
0000
0000
0000
0000
0000
0000
0000
0000
0000
0000
0000
0000
0000
0000
0000
0000
0000
0000
0000
0000
0000
0000
3300
0200
0000
0000
0000
0000
0000
0000
0000
0000
0000
0000
0000
0000
0000
0000
0000
0000
0000
0000
0000
0000
0000
0000
0000
0000
0000
0000
0000
0000
0000
0000
0000
0000
0000
0000
0000
0000
0000
0000
0000
0000
0000
0000
0000
0000
0000
0000
0000
0320
0000
0000
0000
0000
0000
0000
0000
0000
0000
0000
0000
0000
0000
0000
0000
0000
0000
0000
0000
0000
0000
0000
0000
0000
0000
0000
0000
0000
0000
0000
0000
0000
0000
0000
0000
0000
0000
0000
0000
0000
0000
0000
0000
0000
0000
0000
0000
,
2032
0000
0000
0000
3000
0000
0000
0000
1003
0100
1000
0100
1000
0100
0010
0000
0001
0000
0200
0000
0000
0000
0310
0000
2000
0000
0000
0000
3200
0000
0000
0000
,
0310
0001
0010
0001
0010
0001
0010
0001
0000
0000
1000
0010
0000
1000
0010
0000
0100
0001
0100
0001
0100
0001
1000
0000
0100
1000
0100
1000
0200
0000
0000
0000
,
2300
3200
0320
0031
,
1001
0000
0000
0000
,
0000
0000
0000
0000
,
2002
0000
0000
0000
0000
0000
0000
0000
0000
0000
0000
0000
0000
0000
0000
0000
0000
0000
0000
0000
0000
0000
0000
0000
3000
0000
0000
0000
0000
0000
0000
0000
0000
0000
0000
0000
0000
0000
0000
0000
0000
0000
0000
0000
0000
0000
0000
0000
0043
0000
0000
0000
0004
0000
0000
0000
0000
0000
0000
0000
0000
0000
0000
0000
0000
0000
0000
0000
0000
0000
0000
0000
0000
0000
0000
0000
0000
0000
0000
0000
0000
0000
0000
0000
0000
0000
0000
0000
0000
0000
0000
0000
0000
0000
0000
0033
0020
0000
0000
0000
0000
0000
0000
0000
0000
0000
0000
0000
0000
0000
0000
0000
0000
0000
0000
0000
0000
0000
0000
0000
0000
0000
0000
0000
0000
0000
0000
0000
0000
0000
0000
0000
0000
0000
0000
0000
0000
0000
0000
0000
0000
0000
0000
0000
0230
0000
0000
0000
0000
0000
0000
0000
0000
0000
0000
0000
0000
0000
0000
0000
0000
0000
0000
0000
0000
0000
0000
0000
0000
0000
0000
0000
0000
0000
0000
0000
0000
0000
0000
0000
0000
0000
0000
0000
0000
0000
0000
0000
0000
0000
0000
0000
,
2302
0000
0000
0000
0003
0000
0000
0000
3001
0010
0001
0010
0001
0010
0100
0000
1000
0000
0020
0000
0000
0000
0130
0000
0002
0000
0000
0000
0023
0000
0000
0000
,
0130
1000
0100
1000
0100
1000
0100
1000
0000
0000
0001
0100
0000
0001
0100
0000
0010
1000
0010
1000
0010
1000
0001
0000
0010
0001
0010
0001
0020
0000
0000
0000
,
0032
0023
0230
2300
,
3000
0000
0000
0000
,
0000
0000
0000
0000
,
0000
0000
0000
0000
,
0000
0000
0000
0000
,
0000
0000
0000
0000
,
0000
0000
0000
0000
,
0000
0000
0000
0000
,
0000
0000
0000
0000
,
0000
0000
0000
0000
,
0000
0000
0000
0000
,
0000
0000
0000
0000
,
0000
0000
0000
0000
,
0000
0000
0000
0000
1000
0000
0100
1000
0000
0000
0001
0000
0100
0000
0001
0000
,
0000
0000
0000
0000
1000
0000
0010
1000
0000
0000
0001
0000
0010
0001
0000
0000
,
0000
0000
0000
0000
1000
0000
0100
1000
0000
0000
0001
0000
0100
0000
0001
0000
,
0000
0000
0000
0000
1000
0000
0010
1000
0000
0000
0001
0000
0010
0001
0000
0000
,
0000
0000
0000
0000
1000
0000
0010
0100
0000
0000
0001
0000
0010
0000
0100
0000
,
0000
0000
0000
0000
1000
0000
0010
0100
0000
0000
0001
0000
0010
0100
0000
0000
,
0000
0000
0000
0000
1000
0000
0100
0010
0000
0000
0001
0000
0100
0000
0010
0000
,
0000
0000
0000
0000
1000
0000
0100
0010
0000
0000
0001
0000
0100
0000
0000
0000
,
0010
1000
0010
1000
0010
1000
0010
1000
,
0001
0100
0001
0100
0001
0100
0001
0100
,
0001
0010
0001
0010
0001
0010
0001
0010
,
0100
1000
0100
1000
0100
1000
0100
1000
,
0010
1000
0010
1000
0010
1000
0010
1000
0001
0100
0001
0100
0001
0100
0001
0100
,
0001
0010
0001
0010
0001
0010
0001
0010
0100
1000
0100
1000
0100
1000
0100
4000
,
0004
0000
0000
0000
,
0000
0000
0000
3003
,
1001
0000
0000
0000
,
0000
0000
0000
0000
,
0000
0000
0000
0000
,
0000
0000
0000
0000
,
2002
0000
0000
0000
0000
0000
0000
0000
0000
0000
0000
0000
0000
0000
0000
0000
0000
0000
0000
0000
0000
0000
0000
0000
0003
0000
0000
0000
0000
0000
0000
0000
0000
0000
0000
0000
0000
0000
0000
0000
0000
0000
0000
0000
0000
0000
0000
0000
3040
0000
0000
0000
0400
0000
0000
0000
0000
0000
0000
0000
0000
0000
0000
0000
0000
0000
0000
0000
0000
0000
0000
0000
0000
0000
0000
0000
0000
0000
0000
0000
0000
0000
0000
0000
0000
0000
0000
0000
0000
0000
0000
0000
0000
0000
0000
0330
0020
0000
0000
0000
0000
0000
0000
0000
0000
0000
0000
0000
0000
0000
0000
0000
0000
0000
0000
0000
0000
0000
0000
0000
0000
0000
0000
0000
0000
0000
0000
0000
0000
0000
0000
0000
0000
0000
0000
0000
0000
0000
1000
0000
0000
0000
0000
0000
0230
0000
0000
0000
0000
0000
0000
0000
0000
0000
0000
0000
0000
0000
0000
0000
0000
0000
0000
0000
0000
0000
0000
0000
0000
0000
0000
0000
0000
0000
0000
0000
0000
0000
0000
0000
0000
0000
0000
0000
0000
0000
0000
0000
0000
0000
0000
0000
,
2302
0000
0000
0000
3000
0000
0000
0000
1003
0100
1000
0100
1000
0100
0010
0000
0001
0000
0200
0000
0000
0000
0310
0000
2000
0000
0000
0000
3002
0000
0000
0000
,
0103
0001
0100
0001
0100
0001
0100
0001
0000
0000
1000
0100
0000
1000
0100
0000
0010
0001
0010
0001
0010
0001
1000
0000
0010
1000
0010
1000
0020
0000
0000
0000
,
2030
0000
0000
0000
0000
0000
0000
0000
3020
0000
0000
0000
0000
0000
0000
0000
0230
0000
0000
0000
0000
0000
0000
0000
0301
0000
0010
0000
0100
1000
0100
0000
,
2000
0000
3000
0000
1010
0000
0001
1000
0200
0000
0300
0000
0110
0010
0010
0000
,
0002
0023
0230
2300
,
3020
0000
0000
0000
0030
0000
0000
0000
1010
0000
0000
0000
0001
0000
1000
0000
0100
0000
0000
0000
1000
0100
0010
0001
0100
0000
0000
0000
0100
0000
0000
0000
,
0002
0203
0320
2030
,
3001
0000
0000
0000
;
