#VERSION:0.83;
#TITLE:Castlevania;
#SUBTITLE:;
#ARTIST:The Adventures of Duane and BrandO;
#TITLETRANSLIT:;
#SUBTITLETRANSLIT:;
#ARTISTTRANSLIT:;
#GENRE:;
#ORIGIN:;
#CREDIT:LuckJury;
#BANNER:Castlevania-banner.mp4;
#BACKGROUND:;
#PREVIEWVID:;
#JACKET:Castlevania-jacket.png;
#CDIMAGE:;
#DISCIMAGE:Castlevania-bannerstatic.png;
#LYRICSPATH:;
#CDTITLE:;
#MUSIC:Castlevania.ogg;
#OFFSET:-1.058000;
#SAMPLESTART:8.677000;
#SAMPLELENGTH:15.238000;
#SELECTABLE:YES;
#BPMS:0.000=126.000,
80.000=165.000,
83.000=123.000,
213.000=123.500,
214.000=126.500;
#STOPS:212.000=5.680;
#DELAYS:;
#WARPS:;
#TIMESIGNATURES:0.000=4=4;
#TICKCOUNTS:0.000=4;
#COMBOS:0.000=1;
#SPEEDS:0.000=1.000=0.000=0;
#SCROLLS:0.000=1.000;
#FAKES:;
#LABELS:0.000=Song Start;
#BGCHANGES:2.222=Castlevania-bgvid.mp4=1.000=0=0=0=StretchNoLoop====;
#KEYSOUNDS:;
#ATTACKS:
;

//---------------dance-single - LuckJury----------------
#NOTEDATA:;
#CHARTNAME:;
#STEPSTYPE:dance-single;
#DESCRIPTION:LuckJury;
#CHARTSTYLE:;
#DIFFICULTY:Hard;
#METER:12;
#RADARVALUES:0.447358,0.597646,0.218318,0.150094,0.337711,459.000000,427.000000,32.000000,22.000000,17.000000,1.000000,0.000000,0.000000,0.000000,0.447358,0.597646,0.218318,0.150094,0.337711,459.000000,427.000000,32.000000,22.000000,17.000000,1.000000,0.000000,0.000000,0.000000;
#CREDIT:LuckJury;
#NOTES:
// measure 0
0000
0000
0000
0000
,  // measure 1
0000
0000
0000
0000
,  // measure 2
0000
0000
0000
0000
,  // measure 3
0000
0000
0000
0000
,  // measure 4
1000
0000
1000
0000
0100
0000
0010
0000
0001
0000
0100
0001
0000
0000
0010
0000
,  // measure 5
0001
0000
0010
0000
0001
1000
0001
0000
0100
0000
0010
1000
0000
0000
1000
0010
,  // measure 6
1000
0000
0110
0000
0011
1000
1000
1000
,  // measure 7
0001
0000
0100
0000
0001
0000
0010
0000
0001
0000
0100
0010
0000
0000
1000
0000
,  // measure 8
1000
0000
0001
0000
0000
0000
0000
1000
0100
0000
0010
0000
0001
0000
0001
0000
,  // measure 9
1000
0000
0010
0000
0100
0000
0001
0000
0100
0000
0001
0000
1000
0001
0010
0000
,  // measure 10
1000
0001
0100
0000
0000
0001
0000
0001
0100
0000
0100
0000
0000
1000
0000
0000
,  // measure 11
0100
0000
1000
0100
0010
0000
1000
0000
0010
0000
1000
0100
0000
1000
0001
0000
,  // measure 12
1000
0000
0000
0000
0000
0011
0000
0000
0000
0000
0000
0011
0000
0000
0000
0000
0001
0000
0000
0000
0000
1010
0000
0000
0000
0000
0000
1010
0000
0000
0000
0000
,  // measure 13
0010
0000
0000
0000
0000
1100
0000
0000
0000
0000
0000
1100
0000
0000
0000
0000
1000
0000
0000
0000
0000
0101
0000
0000
0000
0000
0000
0101
0000
0000
0000
0000
,  // measure 14
1000
0000
0000
0000
0000
0011
0000
0000
0000
0000
0000
1001
0000
0000
0000
0000
0010
0000
0000
0000
0000
1100
0000
0000
0000
0000
0000
0110
0000
0000
0000
0000
,  // measure 15
0001
0000
0000
0000
0000
0110
0000
0000
0000
0000
0000
1010
0000
0000
0000
0000
0001
0000
0000
0000
0100
0000
0010
0000
0000
0000
1000
0000
0001
0000
0000
0000
,  // measure 16
1001
0000
1001
0000
1000
0100
0010
0000
0202
0000
0303
0000
0000
0000
0000
0000
,  // measure 17
0011
0000
0011
0000
1000
0002
0000
0003
1010
0000
1010
0000
0001
2000
0000
3000
,  // measure 18
0101
0000
0101
0000
0100
0001
0010
0000
0022
0000
0033
0000
0000
0000
0000
0000
,  // measure 19
1100
0000
1100
0000
0010
2000
0000
3000
0101
0000
0101
0000
1000
0200
0000
0300
,  // measure 20
2000
3002
0223
0000
,  // measure 21
0330
0000
0000
0000
0000
0000
0000
0000
0000
0000
0000
0000
1000
0000
0000
0002
,  // measure 22
0000
0000
0003
0000
0001
0000
0000
2000
0000
0000
3000
0000
1000
0000
0000
0020
,  // measure 23
0000
0000
0030
0000
0000
0000
0000
0000
0000
0000
0000
0000
0010
0000
0000
0200
,  // measure 24
0000
0000
0300
0000
0100
0000
0000
0002
0000
0000
0003
0000
0001
0000
0000
2000
,  // measure 25
0000
3000
0000
0000
0000
0000
1000
0001
,  // measure 26
0010
0000
0001
0000
1000
0000
0000
1000
0001
0000
0000
0000
1000
0000
0010
0000
,  // measure 27
0010
1000
0010
0000
0100
0000
0000
0000
0001
0000
0000
0000
1000
0000
0100
0000
,  // measure 28
0001
0000
0100
0000
1000
0000
0000
1000
0010
0000
0000
0000
0100
0000
0010
0000
,  // measure 29
1000
0010
1000
0100
0010
0001
0010
0010
,  // measure 30
0100
0000
0100
0000
1000
0000
0000
1000
0001
0000
0000
0000
0001
0000
0010
0000
,  // measure 31
0010
0001
0100
0000
0010
0000
1000
0010
,  // measure 32
0100
0010
0100
0000
0010
0000
0000
0010
1000
0000
0000
0000
0001
0000
0100
0000
,  // measure 33
0010
0000
1000
0000
0001
0000
0000
0001
1000
0000
0000
0000
0001
1000
0001
0000
,  // measure 34
1000
0001
1000
0000
0001
0000
0010
0000
0000
0000
0010
0000
0001
0000
0010
0000
,  // measure 35
0001
0100
0001
1000
0000
1000
0100
1000
,  // measure 36
0100
1000
0001
0100
0001
0001
1000
0100
,  // measure 37
1000
0000
1000
0000
0100
0000
0000
0100
0000
0000
0010
0000
0000
0010
0000
0000
,  // measure 38
0001
0000
0000
0001
0000
0000
1000
0000
0000
0000
0100
0000
0000
0000
0000
0100
0000
0000
0020
0000
0000
0000
0030
0000
,  // measure 39
0000
0000
0000
0000
0000
0000
0100
0000
0000
0000
0001
0000
0000
0000
0000
0001
0000
0000
0020
0000
0000
0000
0030
0000
,  // measure 40
0000
0000
0000
0000
0000
0000
0100
0000
0000
0000
1000
0000
0000
0000
0000
1000
0000
0000
0002
0000
0000
0000
0003
0000
,  // measure 41
0000
0001
0200
0000
0300
0000
0000
0010
,  // measure 42
1000
0100
1000
0001
1000
0001
0100
0010
,  // measure 43
0100
0010
1000
0100
1000
0100
0010
0001
,  // measure 44
0010
0100
1000
0010
1000
0100
0010
0001
,  // measure 45
0010
0100
1000
0010
0100
0001
1000
0001
,  // measure 46
0100
0000
0010
0000
1000
0000
1000
0000
0001
0001
0000
0100
0000
0100
0000
0100
,  // measure 47
0010
0000
0010
0000
1000
0000
1000
0000
0100
0100
0000
0000
0000
0000
0010
0000
,  // measure 48
0100
0000
1000
0000
0010
0000
0100
0000
0000
0010
0100
0000
0000
0100
0000
0100
,  // measure 49
0000
0010
0100
0000
0000
0001
0000
0001
0000
0100
0010
0000
1000
0000
0100
0000
,  // measure 50
0010
0000
0001
0000
0100
0000
0100
0000
0000
0001
0000
0010
0000
0100
1000
0000
,  // measure 51
0100
0010
0001
0100
0010
0100
0010
1000
,  // measure 52
0100
0000
0010
0000
0001
0000
1000
0000
0100
0000
1000
0000
0001
1000
0001
0000
,  // measure 53
1001
0000
0000
0000
1000
0100
1000
0100
,  // measure 54
1000
0100
0000
0000
0000
0000
0000
0000
1000
0000
0010
0000
1000
0000
0010
0000
,  // measure 55
1000
0010
0000
0000
0000
0000
0000
0000
0100
0000
0001
0000
0100
0000
0001
0000
,  // measure 56
0100
0001
0000
0000
0000
0000
0000
0000
0010
0000
0001
0000
0010
0000
0001
0000
,  // measure 57
0010
0001
0000
0000
0000
0000
0000
0000
1000
0000
0010
0000
1000
0000
0100
0000
,  // measure 58
0010
0001
0000
0000
0000
0000
0000
0000
0100
0000
0010
0000
0100
0000
0001
0000
,  // measure 59
0100
0010
0000
0000
0000
0000
0000
0000
1000
0000
0100
0000
1000
0000
0010
0000
,  // measure 60
0100
0010
0000
0000
0000
0000
0000
0000
0100
0000
0010
0000
0100
0000
0001
0000
,  // measure 61
0010
0001
0000
0000
0000
0000
0000
0000
0010
0000
0001
0000
0100
0000
0010
0000
,  // measure 62
1000
0010
0000
0000
0000
0000
0000
0000
1000
0000
0001
0000
0100
0000
0010
0000
,  // measure 63
1000
0010
0000
0000
0000
0000
0000
0000
0100
0000
0010
0000
1000
0000
0001
0000
,  // measure 64
0100
0001
0000
0000
0000
0000
0000
0000
0100
0000
0001
0000
0100
0000
0010
0000
,  // measure 65
1000
0100
0000
0000
0000
0000
0000
0000
0001
0000
0001
0000
1000
0000
1000
0000
,  // measure 66
0010
0100
0000
0000
0000
0000
0000
0000
0010
0000
0010
0000
1000
0000
1000
0000
,  // measure 67
0001
0010
0000
0000
0000
0000
0000
0000
0001
0000
0001
0000
1000
0000
1000
0000
,  // measure 68
0100
0010
0000
0000
0000
0000
0000
0000
0100
0000
1000
0000
0100
0000
0001
0000
,  // measure 69
0100
1000
0000
0000
0000
0000
0000
0000
0000
0000
0000
0000
0000
M000
000M
M000
,  // measure 70
000M
00M0
0000
0000
00M0
0000
0000
0000
0000
0000
M000
0000
000M
0000
M000
0000
,  // measure 71
0000
0000
0000
00M0
0M00
M000
0000
0000
,  // measure 72
0000
0000
0000
0000
0000
M00M
0MM0
0000
0000
0000
0000
0000
0000
0000
0000
0000
,  // measure 73
00M0
0000
0000
0000
;

//---------------dance-single - LuckJury----------------
#NOTEDATA:;
#CHARTNAME:;
#STEPSTYPE:dance-single;
#DESCRIPTION:LuckJury;
#CHARTSTYLE:;
#DIFFICULTY:Challenge;
#METER:15;
#RADARVALUES:0.652031,0.846666,0.252430,0.177384,1.037012,669.000000,632.000000,37.000000,26.000000,25.000000,1.000000,0.000000,0.000000,0.000000,0.652031,0.846666,0.252430,0.177384,1.037012,669.000000,632.000000,37.000000,26.000000,25.000000,1.000000,0.000000,0.000000,0.000000;
#CREDIT:LuckJury;
#NOTES:
// measure 0
0000
0000
0000
0000
,  // measure 1
0000
0000
0000
0000
,  // measure 2
0000
0000
0000
0000
,  // measure 3
0000
0000
0000
0000
,  // measure 4
1000
0000
1000
0000
0100
0000
0010
0000
0001
0000
0100
0010
0000
0100
0010
0100
,  // measure 5
0001
0000
0010
0000
0001
1000
0001
0000
0100
0000
0010
1000
0000
0000
1000
0010
,  // measure 6
1100
0000
0110
0000
0011
1000
1000
1000
,  // measure 7
0001
0100
0010
1000
0001
0010
0100
1000
0001
1000
0010
0100
0000
0010
1000
0001
,  // measure 8
1000
0000
0001
0000
0000
0000
0000
1000
0100
0000
0010
0000
0001
0100
0001
0000
,  // measure 9
1000
0010
1000
0100
0010
0100
1000
0010
0100
0001
0100
0010
1000
0001
0010
0100
,  // measure 10
1000
0001
0100
0000
0000
0001
0000
0001
0100
0001
0100
0000
0000
1000
0000
0000
,  // measure 11
0100
0010
0001
0100
0010
0000
1000
0010
0100
0010
1000
0100
0000
1000
0001
0000
,  // measure 12
1000
0000
0000
0000
0000
0011
0000
0000
0000
0000
0000
0011
0000
0000
0000
0000
0001
0000
0000
0000
0000
1010
0000
0000
0000
0000
0000
1010
0000
0000
0000
0000
,  // measure 13
0010
0000
0000
0000
0000
1100
0000
0000
0000
0000
0000
1100
0000
0000
0000
0000
1000
0000
0000
0000
0000
0101
0000
0000
0000
0000
0000
0101
0000
0000
0000
0000
,  // measure 14
1000
0000
0000
0000
0000
0011
0000
0000
0000
0000
0000
1001
0000
0000
0000
0000
0010
0000
0000
0000
0000
1100
0000
0000
0000
0000
0000
0110
0000
0000
0000
0000
,  // measure 15
0001
0000
0000
0000
0000
0110
0000
0000
0000
0000
0000
1010
0000
0000
0000
0000
0001
0000
0000
0000
0100
0000
0010
0000
0000
0000
1000
0000
0001
0000
1000
0000
,  // measure 16
1001
0000
1001
0000
1000
0100
0010
0000
0202
0000
0303
0000
0000
0000
0000
0000
,  // measure 17
0011
0000
0011
0000
1000
0022
0000
0033
1010
0000
1010
0000
0001
2020
0000
3030
,  // measure 18
0101
0000
0101
0000
0100
0001
0010
0000
0022
0000
0033
0000
0000
0000
0000
0000
,  // measure 19
1100
0000
1100
0000
0010
2200
0000
3300
0101
0000
0101
0000
1000
0202
0000
0303
,  // measure 20
2000
3002
0223
0000
,  // measure 21
0330
0000
0000
0000
0000
0000
0000
0000
0000
0000
0000
0000
1000
0000
0000
0002
,  // measure 22
0000
0000
0003
0000
0001
0000
0000
2000
0000
0000
3000
0000
1000
0000
0000
0020
,  // measure 23
0000
0000
0030
0000
0000
0000
0000
0000
0000
0000
0000
0000
0010
0000
0000
0200
,  // measure 24
0000
0000
0300
0000
0100
0000
0000
0002
0000
0000
0003
0000
0001
0000
0000
2000
,  // measure 25
0000
0000
0000
0000
3000
0000
0000
0000
0000
0000
0000
0000
0000
0000
0000
0000
0000
0000
0000
0000
0000
0000
0000
0000
1000
0000
0001
1000
0001
0000
0100
0000
,  // measure 26
0010
1000
0001
0100
0001
0001
0000
0001
1000
0000
0000
0000
0001
0100
0010
0000
,  // measure 27
0010
1000
0100
0010
0100
0010
0000
0100
0010
0000
0000
0000
0100
0000
0001
0000
,  // measure 28
1000
0001
1000
0000
0100
0100
0000
0100
0010
0000
0000
0000
0100
1000
0010
0000
,  // measure 29
0010
1000
0100
0010
0001
1000
0000
1000
0001
0000
0000
0000
0010
1000
0010
0000
,  // measure 30
0100
0001
0100
0000
0001
0000
0001
0001
1000
0000
0000
0000
0001
0001
0010
0000
,  // measure 31
0010
0100
1000
0001
0100
0010
0000
0010
0100
0000
0000
0000
1000
0000
0010
0000
,  // measure 32
0100
0010
0100
0000
0010
0010
0000
0010
1000
0000
0000
0000
0001
1000
0100
0000
,  // measure 33
0010
0001
1000
0010
0100
0001
0000
0001
1000
0000
0000
0000
0001
1000
0001
0000
,  // measure 34
1000
0001
1000
0000
0001
0100
0010
0100
0000
0001
0010
0000
0000
1000
0010
0000
,  // measure 35
1000
0010
0100
0000
0001
1000
0100
0010
0000
0001
0010
0000
0000
1000
0010
0000
,  // measure 36
0001
0010
0100
0000
1000
0001
0100
0001
0000
0100
0001
0000
1000
0100
1000
0010
,  // measure 37
0100
0010
1000
0001
0100
0010
0M10
0001
0100
01M0
1000
0100
01M0
0001
0010
0M10
,  // measure 38
1000
0000
0000
0010
0000
0000
1000
0000
0000
0010
0000
0000
1000
0000
0000
0000
0000
0000
0000
0000
0100
0000
0000
0000
0000
0000
0000
0000
0000
0000
0100
0000
0000
0000
0000
0000
0020
0000
0000
0000
0000
0000
0000
0000
0030
0000
0000
0000
,  // measure 39
0000
0000
0000
0000
0000
0000
0100
0000
0000
0000
0001
0000
0000
0000
0000
0001
0000
0000
0020
0000
0000
0000
0030
0000
,  // measure 40
0000
0000
0000
0000
0000
0000
0100
0000
0000
0000
1000
0000
0000
0000
0000
1000
0000
0000
0002
0000
0000
0000
0003
0000
,  // measure 41
0000
0000
1000
0000
0001
0000
0010
0000
0200
0000
0000
0000
0000
0000
0000
0000
0300
0000
0000
0000
0000
0000
0000
0000
0000
0000
0100
0001
0010
0000
0100
0000
,  // measure 42
1000
0001
0100
0010
1000
0001
1000
0001
1000
0001
1000
0001
0100
0010
0100
0010
,  // measure 43
0100
0010
0100
0010
1000
0100
1000
0100
1000
0100
1000
0100
0010
0001
0010
0001
,  // measure 44
0010
0001
0100
0010
1000
0001
1000
0100
1000
0010
1000
0001
0100
0010
0100
0001
,  // measure 45
0100
0010
0100
0001
0010
0100
0010
0001
0010
0100
0010
0001
1000
0100
1000
0001
,  // measure 46
0100
0001
0010
0100
1000
0000
1000
0000
0001
0001
0000
0100
0000
0100
0000
0100
,  // measure 47
0010
0000
0000
0000
0010
0000
0000
0000
1000
0000
0000
0000
1000
0000
0000
0000
0100
0000
0100
0000
0000
0000
0010
0000
0000
0000
0001
0100
0010
0000
1000
0000
,  // measure 48
0100
0010
0001
0100
0010
1000
0100
0010
0000
0M10
0100
0000
0000
0001
0100
0010
,  // measure 49
0000
0M10
0100
0000
0000
1000
0001
1000
0000
0100
1000
0000
0001
0100
0010
1000
,  // measure 50
0001
0100
0001
1000
0100
0010
0001
0100
0000
010M
1000
0000
0000
0100
1000
0010
,  // measure 51
0000
0000
M010
0000
0001
0000
0000
0000
0000
0000
0010
0000
0100
0000
1000
0000
0000
0000
0001
0000
0100
0000
0000
0000
0010
0000
1000
0001
1000
0000
0100
0000
,  // measure 52
0010
0001
0100
0010
1000
0001
1000
0010
0100
0001
1000
0100
0010
0001
0100
0010
,  // measure 53
1001
0000
0000
0000
0000
0000
0000
0000
1000
0100
1000
0100
1000
0100
1000
0001
,  // measure 54
0100
0010
0000
0000
0000
0000
0000
0000
0100
0001
0100
0001
0100
0001
0100
0010
,  // measure 55
1000
0100
0000
0000
0000
0000
0000
0000
1000
0001
1000
0001
1000
0001
1000
0100
,  // measure 56
0010
0001
0000
0000
0000
0000
0000
0000
0010
0001
0010
0001
0010
0001
0010
0100
,  // measure 57
1000
0001
0000
0000
0000
0000
0000
0000
1000
0001
0010
0100
1000
0100
0010
0001
,  // measure 58
1000
0010
0000
0000
0000
0000
0000
0000
1000
0010
0100
0001
0010
0100
1000
0100
,  // measure 59
0010
0001
0000
0000
0000
0000
0000
0000
1000
0001
1000
0010
0100
0010
1000
0001
,  // measure 60
0010
0100
0000
0000
0000
0000
0000
0000
0010
0100
1000
0010
0100
0010
1000
0100
,  // measure 61
0010
0001
0000
0000
0000
0000
0000
0000
0010
0100
1000
0001
0100
0010
1000
0001
,  // measure 62
0100
0010
0000
0000
0000
0000
0000
0000
1000
0001
1000
0100
0010
0001
0010
0100
,  // measure 63
1000
0010
0000
0000
0000
0000
0000
0000
0100
0010
1000
0001
0010
0100
1000
0001
,  // measure 64
0100
0001
0000
0000
0000
0000
0000
0000
0100
0010
1000
0001
0100
0010
0100
0001
,  // measure 65
0010
0100
0000
0000
0000
0000
0000
0000
0001
0010
0001
0010
0001
0010
0001
1000
,  // measure 66
0010
0100
0000
0000
0000
0000
0000
0000
0010
1000
0010
1000
0010
1000
0010
0100
,  // measure 67
0001
0010
0000
0000
0000
0000
0000
0000
0001
1000
0001
1000
0001
1000
0001
0010
,  // measure 68
0100
1000
0000
0000
0000
0000
0000
0000
0100
1000
0100
1000
0100
1000
0100
0010
,  // measure 69
0001
1000
0000
0000
0000
0000
0000
0000
0000
0000
0000
0000
0000
M000
000M
M000
,  // measure 70
000M
00M0
0000
0000
00M0
0000
0000
0000
0000
0000
M000
0000
000M
0000
M000
0000
,  // measure 71
0000
0000
0000
00M0
0M00
M000
0000
0000
,  // measure 72
0000
0000
0000
0000
0000
M00M
0MM0
0000
0000
0000
0000
0000
0000
0000
0000
0000
,  // measure 73
00M0
0000
0000
0000
;
