#VERSION:0.83;
#TITLE:Bloody Mary;
#SUBTITLE:;
#ARTIST:KANKAN;
#TITLETRANSLIT:;
#SUBTITLETRANSLIT:;
#ARTISTTRANSLIT:;
#GENRE:;
#CREDIT:;
#MUSIC:Bloody Mary.ogg;
#BANNER:Bloody Mary.png;
#BACKGROUND:Bloody Mary-bg.png;
#CDTITLE:;
#LYRICSPATH:Bloody Mary.lrc;
#SAMPLESTART:55.609;
#SAMPLELENGTH:10.667;
#SELECTABLE:YES;
#OFFSET:-1.387;
#BPMS:0.000=180.000;
#STOPS:;
#SPEEDS:0.000=1.000=0.000=0;
#SCROLLS:0.000=1.000,
160.000=0.000,
160.667=1.000,
161.000=0.000,
161.667=1.000,
162.000=0.000,
163.000=1.000
;
#TICKCOUNTS:0.000=4;
#TIMESIGNATURES:0.000=4=4;
#LABELS:0.000=Song Start;
#COMBOS:0.000=1;
#ORIGIN:;
#PREVIEWVID:;
#JACKET:Bloody Mary-jacket.png;
#CDIMAGE:;
#DISCIMAGE:;
#BGCHANGES:-4.211=Bloody Mary.avi=1.000=1=0=0=StretchNoLoop==CrossFade==,
99999.000=-nosongbg-=1.000=0=0=0=StretchNoLoop====
;
#FGCHANGES:;

//--------------- dance-single - ----------------
#NOTEDATA:;
#STEPSTYPE:dance-single;
#DESCRIPTION:;
#DIFFICULTY:Beginner;
#METER:4;
#RADARVALUES:0.119515,0.183008,0.067227,0.059758,0,112,103,9,8,0,0,0,0,0,0.119515,0.183008,0.067227,0.059758,0,112,103,9,8,0,0,0,0,0;
#CHARTNAME:;
#CHARTSTYLE:;
#CREDIT:Kikoia;
#NOTES:
0000
0000
0000
0000
,
0000
0000
0000
0000
,
0000
0000
0000
0000
,
0000
0000
0000
0000
,
0000
0000
0000
0000
,
0000
0000
0000
0000
,
0000
0000
0000
0000
,
0000
0000
0000
0000
,
0001
0000
0001
0000
,
0001
0000
0000
0000
,
1000
0000
1000
0000
,
1000
0000
0000
0000
,
0001
0000
0100
0000
,
0001
0000
0000
0000
,
1000
0000
0100
0000
,
1000
0000
0000
0000
,
0001
0000
0001
0000
,
1000
0000
0000
0000
,
1000
0000
1000
0000
,
0001
0000
0000
0000
,
0200
0000
0000
0300
,
0200
0000
0000
0300
,
0001
0000
1000
0000
,
0001
0000
0000
0000
,
1001
0000
0000
0000
,
0110
0000
0000
0000
,
1000
0000
0000
0000
,
1000
0000
0000
0000
,
0001
0000
0000
0000
,
0001
0000
0000
0000
,
1000
0000
1000
0000
,
1000
0000
0000
0000
,
1001
0000
0000
0000
,
0110
0000
0000
0000
,
0001
0000
0000
0000
,
0001
0000
0000
0000
,
1000
0000
0100
0000
,
1000
0000
0000
0000
,
0001
0000
0010
0000
,
0001
0000
0000
0000
,
0000
0000
0000
0000
,
1000
0000
0000
0000
,
1000
0000
0000
0000
,
0001
0000
0000
0000
,
0001
0000
0000
0000
,
1000
0000
1000
0000
,
0100
0000
0000
0000
,
0001
0000
0001
0000
,
0100
0000
0000
0000
,
0001
0000
0000
0000
,
0001
0000
0000
0000
,
1000
0000
0000
0000
,
1000
0000
0000
0000
,
0001
0000
0001
0000
,
0010
0000
0000
0000
,
1000
0000
1000
0000
,
0010
0000
0000
0000
,
2002
0000
0000
0000
,
3003
0000
0000
0000
,
0000
0000
0000
0000
,
0000
0000
0000
0000
,
1000
0000
0000
0000
,
1000
0000
0000
0000
,
0001
0000
0000
0000
,
0001
0000
0000
0000
,
0000
0000
1000
1000
,
0000
0000
0001
0001
,
0000
0000
0010
0010
,
0000
0000
0100
0100
,
0000
0000
0000
0000
,
0000
0000
0000
0000
,
1000
0000
0000
0000
,
0001
0000
0000
0000
,
1001
0000
0000
0000
,
0001
0000
0000
0000
,
0001
0000
0000
0000
,
1000
0000
0000
0000
,
1000
0000
0000
0000
,
0001
0000
0001
0000
,
0010
0000
0000
0000
,
1000
0000
1000
0000
,
0010
0000
0000
0000
,
1000
0000
0000
0000
,
1000
0000
0000
0000
,
0001
0000
0000
0000
,
0001
0000
0000
0000
,
1000
0000
1000
0000
,
0001
0000
0000
0000
,
0001
0000
0001
0000
,
1000
0000
0000
0000
,
2002
0000
0000
0000
,
3003
0000
0000
0000
,
1000
0000
0000
0000
,
0000
0000
0000
0000
,
2002
0000
0000
0000
,
3003
0000
0000
0000
,
0001
0000
0000
0000
,
0000
0000
0000
0000
,
0110
0000
0000
0000
;

//--------------- dance-single - ----------------
#NOTEDATA:;
#STEPSTYPE:dance-single;
#DESCRIPTION:;
#DIFFICULTY:Easy;
#METER:6;
#RADARVALUES:0.271044,0.329414,0.164334,0.194212,0,254,232,22,26,0,0,0,0,0,0.271044,0.329414,0.164334,0.194212,0,254,232,22,26,0,0,0,0,0;
#CHARTNAME:;
#CHARTSTYLE:;
#CREDIT:Kikoia;
#NOTES:
0000
0000
0000
0000
,
0000
0000
0000
0000
,
0000
0000
0000
0000
,
0000
0000
0000
0000
,
0000
0000
0000
0000
,
0000
0000
0000
0000
,
0000
0000
0000
0000
,
0000
0000
0000
0000
,
1000
0000
0001
0000
,
0100
0001
0100
0000
,
0001
0000
1000
0000
,
0100
1000
0100
0000
,
1000
0000
0100
0000
,
0010
0001
0010
0000
,
0001
0000
1000
0000
,
0010
0100
0010
0000
,
0110
0000
1001
0000
,
1000
1000
1000
0000
,
0110
0000
1001
0000
,
0001
0001
0001
0000
,
1000
0000
0100
0000
,
0001
0100
1000
0000
,
0001
0000
0100
0000
,
1000
0100
0001
0000
,
1000
0100
1000
0000
,
0100
1000
0100
0000
,
2000
0000
3002
0000
,
0203
0000
0320
0000
,
1030
1000
0001
0000
,
0001
0001
1000
0000
,
0100
0100
0100
0000
,
0010
0010
0010
0000
,
0001
0010
0001
0000
,
0010
0001
0010
0000
,
0002
0000
2003
0000
,
3020
0000
0230
0000
,
0301
0000
1001
0000
,
1000
0000
1001
0000
,
1000
0001
1000
0000
,
0001
1000
0001
0000
,
0000
0000
0000
0000
,
1001
0000
0110
0000
,
1001
1000
0001
0000
,
1000
0100
0001
0000
,
0001
0100
1000
0000
,
0001
0100
0001
0000
,
1000
0001
1000
0000
,
1000
0010
1000
0000
,
0001
0010
0001
0000
,
1001
0000
0110
0000
,
1001
0001
1000
0000
,
0001
0010
1000
0000
,
1000
0010
0001
0000
,
1000
0100
1000
0000
,
0001
1000
0001
0000
,
0010
0001
0010
0000
,
0001
1000
0001
1000
,
2002
0000
0000
0000
,
3003
0000
0000
0000
,
0000
1000
0100
0001
,
1000
0100
0001
0000
,
0000
0001
0100
1000
,
0001
0100
1000
0000
,
0000
1000
0010
0001
,
1000
0010
0001
0000
,
2000
0000
0001
3001
,
0002
0000
1000
1003
,
2000
0000
3100
0010
,
0002
0000
0103
0010
,
0110
0000
0000
0000
,
1001
0000
2000
0000
,
0001
0001
0001
3000
,
0001
1000
0001
0020
,
0200
0000
0000
0330
,
1001
0000
0110
0000
,
1001
0001
1000
0000
,
0001
0100
1000
0000
,
1000
0100
0001
0000
,
1000
0100
1000
0000
,
0001
1000
0001
0000
,
0001
0010
0001
0000
,
1000
0010
1000
0000
,
1001
0000
0110
0000
,
1001
1000
0001
0000
,
1000
0010
0001
0000
,
0001
0010
1000
0000
,
0001
0100
0001
0000
,
1000
0001
1000
0000
,
0010
1000
0010
0000
,
1000
0001
1000
0001
,
2002
0000
0000
0000
,
3003
0000
1000
1000
,
2000
0000
0000
0000
,
3002
0000
0203
0000
,
0320
0000
0000
0000
,
1030
0000
1000
0000
,
2000
0000
0000
0000
,
3002
0000
0023
0100
,
0130
0000
0000
0000
;

//--------------- dance-single - ----------------
#NOTEDATA:;
#STEPSTYPE:dance-single;
#DESCRIPTION:;
#DIFFICULTY:Medium;
#METER:10;
#RADARVALUES:0.432176,0.551825,0.298788,0.687213,0.295054,405,365,40,92,0,0,0,0,0,0.432176,0.551825,0.298788,0.687213,0.295054,405,365,40,92,0,0,0,0,0;
#CHARTNAME:;
#CHARTSTYLE:;
#CREDIT:Kikoia;
#NOTES:
0000
0000
0000
0000
,
0000
0000
0000
0000
,
0000
0000
0000
0000
,
0000
0000
0000
0000
,
0000
0000
0000
0000
,
0000
0000
0000
0000
,
0000
0000
0000
0000
,
0000
0000
0000
0000
,
1000
0000
0100
0000
,
0010
0000
0000
0000
0000
0001
0000
0000
0001
1000
0000
0000
,
0010
0000
0100
0000
,
0001
0000
0000
0000
0000
1000
0000
0000
1000
0010
0000
0000
,
1000
0001
0100
0001
,
0010
0000
0010
0100
0000
0000
1000
0000
1000
0010
0000
0000
,
0100
0100
0001
0001
,
0001
1000
1001
0110
,
1001
0002
0203
2300
,
3100
0000
0001
1000
0000
0001
1000
0000
0001
1000
0000
0000
,
0001
2000
3200
0302
,
0103
0000
1000
0001
0000
1000
0001
0000
1000
0020
0000
0000
,
0100
0100
2000
3030
,
1010
0000
0000
0000
0000
0101
0000
0000
0000
1001
0000
0000
,
1000
0000
1000
0100
0000
0000
0010
0000
0010
0001
0000
0000
,
1000
0000
0000
0010
0000
0000
1000
0001
1000
0002
0000
0000
,
0103
0000
0100
0020
0000
0000
1030
0000
0001
0000
0000
0001
,
1000
0000
0100
0020
0000
0000
0031
0000
2000
0000
0000
3001
,
0100
0000
0001
0100
0000
0010
1000
0000
0010
1000
0000
0000
,
2001
0100
3002
0100
,
2003
3200
2300
3020
,
2030
3200
0310
0011
,
0002
0203
0302
0023
,
0032
0203
0310
0110
,
1001
1001
2200
3300
,
1001
1001
0202
0303
,
1000
0000
0100
1000
0000
0000
0001
0000
0010
0002
0000
0000
,
0100
0000
0100
0000
0000
1000
0000
0000
1003
0001
0000
0000
,
2000
3200
0302
0203
,
2300
3020
0032
0023
,
1030
0000
0001
0010
0000
0000
0100
0000
0000
1000
0000
0010
,
0100
0000
0000
0001
0000
0000
2000
0000
0002
0000
0000
0000
,
0000
0000
0000
3003
,
1000
1010
0001
0011
,
1000
0000
0000
0010
0000
0000
0100
0000
0000
0001
0000
0001
,
1000
0100
0010
0001
,
1000
0000
1000
0010
0000
0000
1000
0000
0000
0200
0000
0000
,
0010
0010
0001
0001
,
0010
2300
0002
3003
,
0001
0000
1000
0100
0000
0000
1000
0000
0001
0100
0000
0000
,
0010
0000
1000
0001
0000
0000
0010
0000
0001
1000
0000
0000
,
0100
1100
0001
0101
,
0001
0000
0000
0010
0000
0000
0100
0000
0000
1000
0000
1000
,
0010
0100
1000
0100
,
0001
0000
0001
0010
0000
0000
0001
0000
0000
0200
0000
0000
,
0010
0010
1000
1000
,
0010
0302
2000
3003
,
1000
0000
0001
0100
0000
0000
0010
0000
1000
0001
0000
0000
,
0010
0000
0100
1000
0000
0000
0001
1000
0001
1000
0000
0000
,
2002
0000
0000
0000
,
3003
0000
0000
0000
,
0000
0000
1010
0000
0000
0000
0000
0000
0000
0000
0000
0101
,
0000
0000
0000
0000
,
0000
0000
0011
0000
0000
0000
0000
0000
0000
0000
0000
1100
,
0000
0000
0000
0000
,
0000
0000
0110
0000
0000
0000
0000
0000
0000
0000
0000
1001
,
0000
0000
0000
0000
,
0001
0001
0100
0010
,
1000
1000
0100
0010
,
0001
0000
0000
0100
0000
0000
0202
0000
0303
2002
0000
3003
,
1000
0000
0000
0100
0000
0000
2200
0000
3300
2002
0000
0000
,
0000
0000
0000
3003
0000
0000
1000
0000
0100
1000
0000
0000
,
0001
0000
0010
0001
0000
0000
1000
0000
0010
2000
0000
0000
,
3002
0023
0230
1300
,
1000
0000
1000
0001
0000
0001
1000
0000
0100
0020
0000
0002
,
0000
0000
0000
0033
,
0010
0110
0110
1001
,
0001
0000
0000
0010
0000
0000
0100
0000
0000
1000
0000
1000
,
0001
0100
0010
1000
,
0001
0000
1000
0001
0000
0000
0100
0000
0000
0020
0000
0000
,
0100
0100
1000
1000
,
0230
0302
2000
3003
,
1000
0000
0100
0010
0000
0000
0001
0000
0100
0010
0000
0000
,
1000
0000
0001
0010
0000
0000
0100
0000
1000
0010
0000
0000
,
0100
0110
0001
1001
,
1000
0000
0000
0010
0000
0000
0100
0000
0000
0001
0000
0001
,
0010
0100
0001
0100
,
1000
0000
0000
0010
0000
0000
1000
0000
1000
0001
0000
0000
,
0010
0000
0000
0011
0000
0000
1000
0000
0000
0100
0000
0010
,
0001
2000
0002
3003
,
0001
0000
1000
0100
0000
0000
0010
0000
0001
1000
0000
0000
,
0010
0000
0100
0001
0000
0000
1000
0001
1000
0001
0000
0000
,
2002
0000
3003
2200
,
0000
3300
0002
0203
,
0320
0000
0030
2020
,
0000
3030
0022
0033
,
0002
0203
2300
3200
,
0302
0023
2030
3020
,
0031
0000
0000
1000
0000
0001
1000
0000
0000
0001
0000
0000
,
0100
0000
0010
0200
0000
0000
0320
0000
0000
2030
0000
0000
,
0200
0000
3300
0000
;

//--------------- dance-single - ----------------
#NOTEDATA:;
#STEPSTYPE:dance-single;
#DESCRIPTION:;
#DIFFICULTY:Hard;
#METER:13;
#RADARVALUES:0.597577,0.66219,0.298788,0.537819,0.937449,560,520,40,72,0,0,0,0,0,0.597577,0.66219,0.298788,0.537819,0.937449,560,520,40,72,0,0,0,0,0;
#CHARTNAME:;
#CHARTSTYLE:;
#CREDIT:Kikoia;
#NOTES:
0000
0000
0000
0000
,
0000
0000
0000
0000
,
0000
0000
0000
0000
,
0000
0000
0000
0000
,
0000
0000
0000
0000
,
0000
0000
0000
0000
,
0000
0000
0000
0000
,
0000
0000
0000
0000
,
0001
0000
0000
1000
0000
0100
0010
0000
0000
0100
0000
0000
,
1000
0000
1000
0001
0000
0001
1000
0000
1000
0020
0000
0000
,
0230
0000
0000
0301
0000
0100
0010
0000
0000
0100
0000
0000
,
0001
0000
0001
1000
0000
1000
0001
0000
0001
0020
0000
0000
,
0031
0000
1000
0100
0000
0000
1000
0000
0001
0100
0000
0000
,
0001
0000
1000
0100
0000
0100
0010
0000
0010
0002
0000
0000
,
1000
1000
0100
0100
,
0013
0000
0010
0100
0000
0100
2000
0000
0000
3001
0000
0000
,
0001
0000
1000
0200
0000
0000
0310
0000
0001
0200
0000
0000
,
0310
0000
1000
0001
0000
0001
0100
0000
0100
0010
0000
0000
,
1000
0000
0001
0020
0000
0000
0130
0000
1000
0010
0000
0100
,
0001
0000
0100
0010
0000
0100
1000
0000
0100
0010
0000
0000
,
1010
0000
0000
1001
0000
0000
0022
0000
0033
0000
0000
0000
,
2000
0000
0000
3010
0000
0100
0000
0000
0100
0001
0000
0000
,
1000
0000
0100
0010
0000
0100
0001
0000
0100
0010
0000
0200
,
0000
0000
2300
0000
0000
3001
1000
0001
1000
0001
1000
0001
,
0010
0000
0010
0001
0000
0001
1000
0000
0020
0000
0000
0130
,
0001
0000
1000
0010
0000
1000
0002
0000
2000
0000
3003
1000
,
0100
0000
0100
1000
0000
0010
0100
0001
0100
0001
0000
0000
,
1000
0100
1000
0100
0000
0000
0010
0001
0010
0001
0000
0000
,
1000
0000
0100
0010
0000
0100
1000
0000
0100
0010
0000
0100
,
1000
0000
0100
0010
0000
0001
2000
0000
0000
3001
0000
0000
,
0001
0000
0100
0010
0000
0100
0001
0000
0100
0010
0000
0100
,
0001
0100
0001
0100
0010
1000
0002
0000
0000
1003
0000
0000
,
1000
0000
0010
0200
0000
0000
0001
0000
0301
0000
0000
1000
,
0001
0000
0010
0200
0000
0000
1000
0000
1300
0000
0000
0000
,
1000
0000
0001
0010
0000
0000
0010
0000
0001
0100
0000
0000
,
0100
0000
0010
0000
0000
2002
0000
0000
0000
3003
0000
0000
,
0002
0000
0000
0103
0000
0001
2000
0000
0000
3100
0000
1000
,
0002
0000
0000
0103
0000
0010
0000
0000
0010
1000
0000
1000
,
0001
0000
1000
0100
0000
1000
0100
0000
0010
0001
0000
1000
,
0010
0000
1000
0010
0000
0100
0002
0000
2000
0000
0000
0000
,
0000
0000
3003
0000
,
1001
0000
1000
0010
0000
0010
0100
0000
0100
0001
0000
0010
,
0000
0000
0110
0000
0000
2200
0000
3300
0000
1001
0000
0000
,
0001
0000
0001
0100
0000
0100
1000
0000
1000
0100
0000
0100
,
0001
0000
0001
0010
0000
0000
0100
0000
0000
1000
0000
0002
,
0100
0000
0000
0103
0000
0002
0010
0000
0000
0013
0000
0001
,
1000
0000
1000
0100
0000
0100
1000
0000
0000
1100
0000
0000
,
0001
0000
0001
0100
0000
0100
0010
0000
0010
1000
0000
0100
,
0000
0000
0010
0000
0000
0110
0000
0000
0001
1000
0000
0000
,
1001
0000
0001
0010
0000
0010
0100
0000
0100
1000
0000
0010
,
0000
0000
0110
0000
0000
0202
0000
0000
0303
1001
0000
0000
,
0001
0000
0001
0010
0000
0010
1000
0000
1000
0010
0000
0010
,
0001
0000
0001
2000
0000
0000
3001
0000
0010
0200
0000
0000
,
1300
0000
0100
2000
0000
0000
3001
0000
0100
0001
0000
0100
,
0001
0000
0100
0010
0000
1000
0001
0000
0000
0001
0000
0010
,
0000
0000
0100
0000
0000
1000
0000
0000
0010
0000
0000
0100
,
0000
0000
0100
0001
0000
1000
0001
1000
0001
1000
0001
0010
,
0200
0000
1300
0000
0000
0010
0100
0000
0001
0000
0000
1010
,
0000
0000
0010
0100
0000
0001
0000
0000
0000
0000
0000
0000
,
0000
0000
0011
0000
0000
0010
0100
0000
1000
0000
0000
0011
,
0000
0000
0010
0100
0000
1000
0000
0000
0000
0000
0000
0000
,
0000
0000
1001
0000
0000
1000
0001
0000
1000
0000
0000
1001
,
0000
0000
1000
0001
0000
2000
0000
0000
3100
0010
0000
0010
,
0001
0000
1001
0000
0000
0001
1000
0000
0001
0000
0000
1001
,
0000
0000
0001
1000
0000
0001
0000
0000
0000
2000
0000
0000
,
3100
0000
0010
0001
0000
2000
0010
0000
0000
3010
0000
0000
,
0010
0000
1000
0001
0000
0200
0010
0000
0000
0010
0000
0000
,
0301
0000
1000
0100
0000
0100
0020
0000
0000
0032
0000
0000
,
1003
0000
1000
0010
0000
0010
0200
0000
0000
0002
0000
0000
,
0000
0303
2000
0100
,
3002
0100
2003
3010
,
1010
0110
0101
1001
,
1000
0000
1000
0100
0000
0100
0010
0000
0010
0002
0000
0200
,
0000
0000
0000
0303
,
1001
0000
0001
0010
0000
0010
0100
0000
0100
1000
0000
0010
,
0000
0000
0110
0000
0000
2002
0000
3003
0000
0011
0000
0000
,
1000
0000
1000
0010
0000
0010
0001
0000
0001
0010
0000
0010
,
1000
0000
1000
0100
0000
0000
0010
0000
0000
0001
0000
0200
,
1000
0000
0000
1300
0000
0200
0010
0000
0000
0310
0000
0100
,
0001
0000
0001
1000
0000
1000
0001
0000
0000
1001
0000
0000
,
1000
0000
1000
0100
0000
0100
0010
0000
0010
0001
0000
1000
,
0000
0000
0010
0000
0000
0110
0000
0000
0100
0001
0000
0000
,
1001
0000
1000
0010
0000
0010
0100
0000
0100
0001
0000
0010
,
0000
0000
0110
0000
0000
2002
0000
0000
3003
1010
0000
0000
,
1000
0000
1000
0100
0000
0100
0001
0000
0001
0100
0000
0020
,
0000
0000
0032
0000
0000
1003
0000
0000
1000
0002
0000
0000
,
0103
0000
0010
0200
0000
0000
0310
0000
1000
0010
0000
1000
,
0001
0000
0010
0001
0000
0010
0002
0000
0000
1003
0000
0010
,
0000
0000
0100
0000
0000
0001
0000
0000
0010
0000
0000
0100
,
0000
0000
0100
1000
0000
0001
1000
0001
1000
0001
1000
0010
,
0200
0300
2001
3200
,
0000
0001
2300
3002
,
0203
0000
1000
0302
,
1003
0000
0100
0010
0000
0100
1000
0000
0001
0200
0000
0000
,
0310
0000
1010
0000
0000
0010
0100
0000
0001
0000
0000
1010
,
0000
0000
0010
0100
0000
0001
0000
0000
0000
0000
0000
0000
,
0000
0000
0011
0000
0000
0010
0100
0000
1000
0000
0000
0011
,
0000
0000
0010
0100
0000
1000
0002
0000
0000
0203
0000
0000
,
0020
0000
0330
0000
;
