#TITLE:Bloodsucker;
#SUBTITLE:;
#ARTIST:Valentino Khan;
#TITLETRANSLIT:;
#SUBTITLETRANSLIT:;
#ARTISTTRANSLIT:;
#GENRE:;
#CREDIT:darkanine;
#BANNER:Bloodsucker.png;
#BACKGROUND:Bloodsucker-bg.png;
#LYRICSPATH:;
#CDTITLE:;
#MUSIC:Bloodsucker.ogg;
#OFFSET:0.000000;
#SAMPLESTART:47.422001;
#SAMPLELENGTH:15.000000;
#SELECTABLE:YES;
#BPMS:0.000000=81.000000
,32.000000=162.000000
,224.000000=40.500000
;
#STOPS:
;
#BGCHANGES:;
#KEYSOUNDS:;
#ATTACKS:;

//---------------dance-single - darkanine----------------
#NOTES:
     dance-single:
     darkanine:
     Challenge:
     15:
     0.604167,0.855089,0.416439,0.018508,0.670930,457.000000,412.000000,45.000000,2.000000,111.000000,0.000000,0.604167,0.855089,0.416439,0.018508,0.670930,457.000000,412.000000,45.000000,2.000000,111.000000,0.000000:
M000
00M0
0M00
000M
M000
00M0
0M00
000M
M000
00M0
0M00
000M
M000
00M0
0M00
000M
,
M000
0M00
00M0
000M
M000
0M00
00M0
000M
M000
0M00
00M0
000M
M000
0M00
00M0
000M
,
0M00
00M0
M000
000M
0M00
00M0
M000
000M
0M00
00M0
M000
000M
0M00
00M0
M000
000M
,
00M0
0M00
M000
000M
00M0
0M00
M000
000M
00M0
0M00
M000
000M
00M0
0M00
M000
000M
,
1000
0010
0100
0001
1000
0010
0100
0001
1000
0010
0100
0001
1000
0010
0100
0001
,
1000
0100
0010
0001
1000
0100
0010
0001
1000
0100
0010
0001
1000
0100
0010
0001
,
0100
0010
1000
0001
0100
0010
1000
0001
0100
0010
1000
0001
0100
0010
1000
0001
,
0010
0100
1000
0001
0010
0001
1000
0100
0010
0100
1000
0001
0010
0001
1000
0100
,
0010
0001
1000
0001
0010
0001
0100
0001
,
0010
0001
1000
0001
0010
0001
0100
0001
,
1000
0010
0100
0010
0001
0010
0100
0010
,
1000
0010
0100
0010
0001
0010
0100
0010
,
1000
0100
0010
0100
1000
0100
0001
0100
,
1000
0100
0010
0100
1000
0100
0001
0100
,
0010
0001
0100
0001
0010
0001
1000
0001
,
0010
0001
0100
0001
0010
0001
1000
0001
,
0100
0001
1000
0000
0100
1000
0001
0000
,
0010
0001
1000
0000
0010
1000
0001
0000
,
1000
0100
0010
0000
0001
0100
0010
0000
,
1000
0100
0010
0000
0001
0010
0100
0000
,
1000
0010
1000
0010
0100
0001
0100
0001
,
1000
0100
1000
0100
0010
0001
0010
0001
,
1000
0001
0100
0010
1000
0001
0010
0100
1000
0001
0100
0010
1000
0001
0010
0100
,
2000
0000
3001
0001
,
M011
0000
0000
0000
110M
0000
0000
0000
M101
0000
0000
0000
1000
0000
0001
0100
,
1000
0000
0000
0000
0M11
0000
0000
0000
101M
0000
0000
0000
0001
1000
0001
1000
,
0100
0000
0000
0000
011M
0000
0000
0000
1M01
0000
0000
0000
0001
0000
0100
0001
,
0010
1000
0010
0001
0010
0400
0000
0300
,
11M0
0000
0000
0000
M011
0000
0000
0000
101M
0000
0000
0000
0001
0000
1000
0100
,
0001
0000
0000
0000
101M
0000
0000
0000
0M11
0000
0000
0000
1000
0001
1000
0001
,
0010
0000
0000
0000
M110
0000
0000
0000
10M1
0000
0000
0000
1000
0000
0010
1000
,
0100
0100
0010
0010
0100
0100
0MM0
1000
,
1M10
0000
0000
0000
0M11
0000
0000
0000
1M10
0000
0000
0000
0001
0000
1000
0010
,
0001
0000
0000
0000
11M0
0000
0000
0000
01M1
0000
0000
0000
1000
0100
1000
0100
,
0010
0000
0000
0000
10M1
0000
0000
0000
011M
0000
0000
0000
1000
0000
0100
1000
,
0010
0001
0010
1000
0010
0400
0000
0300
,
M101
0000
0000
0000
M011
0000
0000
0000
M101
0000
0000
0000
0001
0000
1000
0010
,
0001
0000
0000
0000
110M
0000
0000
0000
101M
0000
0000
0000
0001
1000
0001
1000
,
0100
0000
0000
0000
M110
0000
0000
0000
1M01
0000
0000
0000
0001
0000
0001
1000
,
0100
0000
1000
0001
0100
0000
0001
1000
0100
0000
0100
0000
1000
0000
1000
0000
,
0001
0000
0001
0100
0000
0100
0010
0000
0010
1000
0000
1000
,
0001
0000
0001
0010
0000
0010
0100
0000
0100
1000
0000
1000
,
0001
0000
0001
0100
0000
0100
0010
0000
0010
1000
0000
1000
,
0100
0000
0100
0010
0000
0010
0001
0000
0001
0100
0000
0100
,
0010
0000
0010
1000
0000
1000
0100
0000
0100
0001
0000
0001
,
0100
0000
0100
1000
0000
1000
0010
0000
0010
0001
0000
0001
,
0010
0000
0010
1000
0000
1000
0100
0000
0100
0001
0000
0001
,
0010
0000
0010
1000
0000
1000
0001
0000
0000
0001
0000
0000
,
1M10
0000
0000
01M1
0000
0000
110M
0000
0000
0001
0010
0100
,
011M
0000
0000
11M0
0000
0000
M101
0000
0000
1000
0010
0100
,
M110
0000
0000
10M1
0000
0000
011M
0000
0000
1000
0001
1000
,
0001
0010
1000
0001
0100
1000
0001
0100
1000
0001
0010
1000
,
0001
0000
0000
1M10
0000
0000
M011
0000
0000
1000
0100
0010
,
M110
0000
0000
0M11
0000
0000
101M
0000
0000
0001
0100
0010
,
0110
0000
0000
10M1
0000
0000
M110
0000
0000
0001
1000
0001
,
0010
0010
1000
0001
0100
0100
1000
0000
1000
0002
0000
0000
,
01M3
0000
0000
0000
;

//---------------dance-single - darkanine----------------
#NOTES:
     dance-single:
     darkanine:
     Medium:
     13:
     0.593591,0.855089,0.379422,0.018508,0.513608,449.000000,408.000000,41.000000,2.000000,33.000000,0.000000,0.593591,0.855089,0.379422,0.018508,0.513608,449.000000,408.000000,41.000000,2.000000,33.000000,0.000000:
// measure 0
M000
00M0
0M00
000M
M000
00M0
0M00
000M
,  // measure 1
M000
0M00
00M0
000M
M000
0M00
00M0
000M
,  // measure 2
0M00
00M0
M000
000M
0M00
00M0
M000
000M
,  // measure 3
00M0
0M00
M000
000M
00M0
0M00
M000
000M
,  // measure 4
1000
0010
0100
0001
1000
0010
0100
0001
1000
0010
0100
0001
1000
0010
0100
0001
,  // measure 5
1000
0100
0010
0001
1000
0100
0010
0001
1000
0100
0010
0001
1000
0100
0010
0001
,  // measure 6
0100
0010
1000
0001
0100
0010
1000
0001
0100
0010
1000
0001
0100
0010
1000
0001
,  // measure 7
0010
0100
1000
0001
0010
0100
1000
0001
0010
0100
1000
0001
0010
0100
1000
0001
,  // measure 8
0010
0001
1000
0001
0010
0001
0100
0001
,  // measure 9
0010
0001
1000
0001
0010
0001
0100
0001
,  // measure 10
1000
0010
0100
0010
0001
0010
0100
0010
,  // measure 11
1000
0010
0100
0010
0001
0010
0100
0010
,  // measure 12
1000
0100
0010
0100
1000
0100
0001
0100
,  // measure 13
1000
0100
0010
0100
1000
0100
0001
0100
,  // measure 14
0010
0001
0100
0001
0010
0001
1000
0001
,  // measure 15
0010
0001
0100
0001
0010
0001
1000
0001
,  // measure 16
1000
0100
1000
0000
0001
0100
0001
0000
,  // measure 17
1000
0010
1000
0000
0001
0010
0001
0000
,  // measure 18
1000
0100
0010
0000
0001
0100
0010
0000
,  // measure 19
1000
0100
0010
0000
0001
0100
0010
0000
,  // measure 20
1000
0010
1000
0010
0100
0001
0100
0001
,  // measure 21
1000
0100
1000
0100
0010
0001
0010
0001
,  // measure 22
1000
0010
1000
0010
1000
0010
1000
0010
1000
0010
1000
0010
1000
0010
1000
0010
,  // measure 23
2000
0000
3001
0001
,  // measure 24
0011
0000
0000
0000
1100
0000
0000
0000
0101
0000
0000
0000
1000
0000
0001
0100
,  // measure 25
0010
0000
0000
0000
0011
0000
0000
0000
1010
0000
0000
0000
0001
1000
0001
1000
,  // measure 26
0100
0000
0000
0000
0110
0000
0000
0000
1001
0000
0000
0000
0001
0000
0100
0001
,  // measure 27
0010
1000
0010
0001
0010
0400
0000
0300
,  // measure 28
1100
0000
0000
0000
0011
0000
0000
0000
1010
0000
0000
0000
0001
0000
1000
0100
,  // measure 29
0010
0000
0000
0000
1010
0000
0000
0000
0011
0000
0000
0000
1000
0001
1000
0001
,  // measure 30
0010
0000
0000
0000
0110
0000
0000
0000
1001
0000
0000
0000
1000
0000
0010
1000
,  // measure 31
0100
0100
0010
0010
0100
0100
0000
0000
,  // measure 32
1010
0000
0000
0000
0011
0000
0000
0000
1010
0000
0000
0000
0001
0000
1000
0010
,  // measure 33
0100
0000
0000
0000
1100
0000
0000
0000
0101
0000
0000
0000
1000
0100
1000
0100
,  // measure 34
0010
0000
0000
0000
1001
0000
0000
0000
0110
0000
0000
0000
1000
0000
0100
1000
,  // measure 35
0010
0001
0010
1000
0010
0400
0000
0300
,  // measure 36
0101
0000
0000
0000
0011
0000
0000
0000
0101
0000
0000
0000
0001
0000
1000
0010
,  // measure 37
0100
0000
0000
0000
1100
0000
0000
0000
1010
0000
0000
0000
0001
1000
0001
1000
,  // measure 38
0100
0000
0000
0000
0110
0000
0000
0000
1001
0000
0000
0000
0001
0000
0001
1000
,  // measure 39
0100
0100
0010
0010
0100
0100
0010
0000
,  // measure 40
0001
0000
0001
0100
0000
0100
0010
0000
0010
1000
0000
1000
,  // measure 41
0001
0000
0001
0010
0000
0010
0100
0000
0100
1000
0000
1000
,  // measure 42
0001
0000
0001
0100
0000
0100
0010
0000
0010
1000
0000
1000
,  // measure 43
0100
0000
0100
0010
0000
0010
0001
0000
0001
0100
0000
0100
,  // measure 44
0010
0000
0010
1000
0000
1000
0100
0000
0100
0001
0000
0001
,  // measure 45
0100
0000
0100
1000
0000
1000
0010
0000
0010
0001
0000
0001
,  // measure 46
0010
0000
0010
1000
0000
1000
0100
0000
0100
0001
0000
0001
,  // measure 47
0010
0000
0010
1000
0000
1000
0001
0000
0000
0001
0000
0000
,  // measure 48
1010
0000
0000
0101
0000
0000
1100
0000
0000
0001
0010
0100
,  // measure 49
1000
0000
0000
1100
0000
0000
0101
0000
0000
1000
0010
0100
,  // measure 50
0001
0000
0000
1001
0000
0000
0110
0000
0000
1000
0001
1000
,  // measure 51
0010
0100
0001
0010
0100
1000
0010
0100
0001
0010
0100
1000
,  // measure 52
0001
0000
0000
1010
0000
0000
0011
0000
0000
1000
0100
0010
,  // measure 53
0001
0000
0000
0011
0000
0000
1010
0000
0000
0001
0100
0010
,  // measure 54
1000
0000
0000
1001
0000
0000
0110
0000
0000
0001
1000
0001
,  // measure 55
0010
0001
0010
0100
1000
0100
0010
0000
0010
0002
0000
0000
,  // measure 56
M103
0000
0000
0000
;
