#TITLE:Black Cat;
#SUBTITLE:;
#ARTIST:Turbo;
#TITLETRANSLIT:;
#SUBTITLETRANSLIT:;
#ARTISTTRANSLIT:;
#GENRE:;
#CREDIT:;
#MUSIC:Black Cat.ogg;
#BANNER:Black Cat-bn.png;
#BACKGROUND:Black Cat-bg.png;
#CDTITLE:;
#SAMPLESTART:66.785;
#SAMPLELENGTH:16.965;
#SELECTABLE:YES;
#OFFSET:-0.302;
#BPMS:0.000=130.860;
#STOPS:;
#BGCHANGES:-1.500=Black Cat.avi=1.000=0=0=0=StretchNoLoop====,
99999.000=-nosongbg-=1.000=0=0=0=StretchNoLoop====
;
#FGCHANGES:;

//--------------- dance-single - eataninja ----------------
#NOTES:
     dance-single:
     eataninja:
     Beginner:
     1:
     0,0,0,0,0:
0000
0000
0000
0000
,
0000
0000
0000
0000
,
0000
0000
0000
0000
,
0000
0000
0000
0000
,
0000
0000
0000
0000
,
2000
0000
3000
0000
,
0020
0000
0030
0000
,
0200
0000
0300
0000
,
0020
0000
0030
0000
,
1000
0000
0001
0000
,
0010
0000
0000
0000
,
0100
0000
0000
0000
,
0010
0000
0000
0000
,
0001
0000
0001
0000
,
0100
0000
0000
0000
,
0010
0000
0000
0000
,
0100
0000
0000
0000
,
0001
0000
0001
0000
,
1001
0000
0000
0000
,
0010
0010
0010
0000
,
0100
0000
0000
0000
,
1000
0000
0000
0000
,
0001
0000
0000
0000
,
0100
0000
0000
0000
,
0100
0000
0000
0000
,
0001
0000
0000
0000
,
1000
0000
0000
0000
,
0100
0000
0000
0000
,
0010
0000
0010
0000
,
0001
0000
0000
0000
,
0010
0000
0010
0000
,
0100
0000
0000
0000
,
1000
0000
1000
0000
,
0010
0000
0000
0000
,
0100
0000
0100
0000
,
0100
0000
0000
0000
,
1001
0000
0000
0000
,
1000
0000
0001
0000
,
1000
0000
1000
0000
,
0001
0000
0010
0000
,
0100
0000
0000
0000
,
1000
0000
0001
0000
,
1000
0000
1000
0000
,
0010
0000
0100
0000
,
0001
0000
0000
0000
,
0001
0000
1001
0000
,
1000
0000
0000
0000
,
0010
0000
0000
0000
,
0100
0000
0000
0000
,
0001
0000
0000
0000
,
0001
0000
0000
0000
,
0010
0000
0000
0000
,
0100
0000
0000
0000
,
1000
0000
0000
0000
,
1001
0000
0000
0000
,
0010
0010
0010
0000
,
0110
0000
0000
0000
,
1001
0000
0000
0000
,
0010
0000
0100
0000
;

//--------------- dance-single - eataninja ----------------
#NOTES:
     dance-single:
     eataninja:
     Easy:
     5:
     0,0,0,0,0:
0000
0000
0000
0000
,
0000
0000
0000
0000
,
0000
0000
0000
0000
,
0000
0000
0000
0000
,
0000
0000
0000
0000
,
2000
0000
3010
0000
,
0200
0000
0310
0000
,
0020
0000
1030
0000
,
0002
0000
0013
0100
,
1000
0000
1001
0000
,
1000
0010
1000
0010
,
0100
0001
0100
0001
,
0010
0001
0010
0001
,
1000
0100
1000
1000
,
0001
0100
0001
0100
,
0010
1000
0010
1000
,
0100
1000
0100
1000
,
0001
0010
0001
0001
,
1000
0000
1001
0000
,
0010
0010
0010
0100
,
0101
0000
0101
0000
,
1001
0000
1001
0000
,
1100
0000
1100
0000
,
0110
0000
0110
0000
,
1001
0000
1001
0000
,
1010
0000
1010
0000
,
0110
0000
0110
0000
,
0101
0000
0101
0000
,
0001
1000
0002
0003
,
0010
0100
2000
3000
,
1000
0010
0100
0010
,
1000
0001
0020
0030
,
0100
0100
0020
0030
,
0001
0100
2000
3000
,
0100
0010
0100
0001
,
1000
0100
0020
0030
,
1001
0000
0000
0000
,
2000
3100
0002
0103
,
2000
3010
0100
0001
,
0010
0100
1000
1000
,
0001
0000
0100
0100
,
0002
0103
2000
3100
,
0002
0013
0100
1000
,
0010
0100
0001
1000
,
0100
0000
0001
0100
,
1000
0001
1001
0000
,
0001
0010
0001
0010
,
0100
1000
0100
1000
,
0010
1000
0010
1000
,
0001
0100
0001
0001
,
1000
0100
1000
0100
,
0010
0001
0010
0001
,
0100
0001
0100
0001
,
1000
0010
1000
1000
,
0001
0000
1001
0000
,
0010
0010
0010
0100
,
1001
0000
0001
1000
,
1001
0000
1000
0010
,
0001
0100
1001
0000
;

//--------------- dance-single - eataninja ----------------
#NOTES:
     dance-single:
     eataninja:
     Medium:
     8:
     0,0,0,0,0:
0000
0000
0000
0000
,
0000
0000
0000
0000
,
0000
0000
0000
0000
,
0000
0000
0000
0000
,
0000
0000
0000
0000
,
2000
3100
0002
0103
,
0020
0000
0031
0000
1000
1000
1000
0000
,
0010
0000
0000
0000
0100
0010
0100
0000
,
0001
0000
0000
0000
0010
0100
1000
0000
,
0010
0110
1001
0000
,
1000
0100
1000
0000
0010
0000
1010
0000
,
0001
0010
0001
0000
0100
0000
0101
0000
,
1000
0001
1000
0000
0100
0000
0110
0000
,
0001
1000
0001
0000
0100
0100
0100
0000
,
0001
0100
0001
0000
0010
0000
0011
0000
,
1000
0010
1000
0000
0100
0000
1100
0000
,
0001
1000
0001
0000
0100
0000
0110
0000
,
1000
0001
1000
0000
0100
0100
0100
0000
,
0010
0001
0010
0001
1000
0000
0000
0000
,
0010
0000
0010
0000
0010
0100
0100
0000
,
1001
0000
1001
0000
0010
0100
0001
0000
,
1001
0000
1001
0000
0010
0100
1000
0000
,
1100
0000
1100
0000
0010
0001
1000
0000
,
0101
0000
0101
0000
1000
0001
0100
0000
,
0110
0000
1001
0000
0010
0100
1000
0000
,
1001
0000
0110
0000
0010
0100
0001
0000
,
0101
0000
1100
0000
0001
1000
0100
0000
,
1100
0000
0101
0000
0010
0010
0010
0000
,
1000
0001
0010
0100
2000
0000
3001
0000
,
0001
0100
1000
0100
0002
0000
1003
0000
,
1000
0100
0010
0001
0200
0000
0301
0000
,
0001
1000
0010
0100
0010
0000
0000
0000
,
1000
0001
1000
0100
0020
0000
0031
0000
,
1000
0010
0001
0010
1000
0000
0000
0000
,
0001
0100
0001
0000
1000
0100
1000
0000
,
0001
0011
1100
0000
,
2002
0000
0000
3003
,
1020
0130
0201
0310
,
1200
0000
0301
0000
0010
0100
1000
0000
,
0001
0000
0001
0000
1000
0010
0001
0010
,
1000
0000
0000
0000
0100
0010
0001
0000
,
0021
0130
1200
0310
,
0201
0000
1300
0000
0010
0100
0010
0000
,
1000
0000
0001
0010
0100
0000
0001
0100
,
1000
0000
0000
1000
0010
0100
0001
0010
,
0100
0110
1001
0000
,
1000
0100
0010
0000
0110
0000
1001
0000
,
0001
0100
0010
0000
0110
0000
1001
0000
,
1000
0010
0100
0000
0101
0000
1001
0000
,
0100
0010
0001
0000
1000
1000
1000
0000
,
0001
1000
0010
0000
0110
0000
1001
0000
,
1000
0001
0010
0000
0110
0000
1001
0000
,
0001
0010
0100
0000
1100
0000
1001
0000
,
0001
0100
0010
0000
1000
1000
1000
0000
,
0001
0100
0001
0100
0010
0000
0000
0000
,
0100
0000
0100
0000
0010
0100
0100
0000
,
1001
0000
0000
0001
0010
0100
1000
0010
,
0100
0000
0000
0001
0100
0010
1000
0100
,
0010
0110
1001
0000
;

//--------------- dance-single - eataninja ----------------
#NOTES:
     dance-single:
     eataninja:
     Hard:
     11:
     0,0,0,0,0:
0000
0000
0000
0000
,
0000
0000
0000
0000
,
0000
0000
0000
0000
,
0000
0000
0000
0000
,
0000
0000
0000
0000
,
2000
0010
3002
0100
,
0203
0000
0301
0010
0010
0010
0100
1000
,
0002
0000
0103
1000
0100
0001
0010
0001
,
2000
0000
0000
3100
0010
0001
1000
0010
,
0100
0110
1001
0000
,
1000
0000
0001
0000
0100
0010
0000
0000
0010
0000
0000
0100
0000
0000
0001
0000
,
1000
0000
0001
0000
0010
0100
0000
0000
0100
0000
0000
0010
0000
0000
0001
0000
,
1000
0000
0010
0000
1000
0001
0000
0000
0010
0000
0000
0100
0000
0000
1000
0000
,
0001
0000
0100
0000
0001
1000
0000
0000
0010
0000
0100
0000
0010
0000
0010
0000
,
1000
0000
0001
0000
0010
0100
0000
0000
0100
0000
0000
1000
0000
0000
0010
0000
,
1000
0000
0001
0000
0010
0100
0000
0000
0100
0000
0000
1000
0000
0000
0100
0000
,
0010
0000
0001
0000
1000
0001
0000
0000
1000
0000
0000
0010
0000
0000
0100
0000
,
0001
0000
1000
0000
0100
0010
0000
0000
0001
0000
1000
0000
0010
0000
0010
0000
,
0100
0000
0001
0000
1000
0000
0100
0010
0000
0001
0000
0000
0000
0000
0000
0000
,
1000
0001
1000
0001
1000
0001
1000
0000
0010
0100
0000
0100
0001
0000
0000
0000
,
1000
0000
0000
1000
0001
0000
0000
0001
0010
0000
0000
0010
0100
0000
1000
0000
,
0001
0000
0000
0001
1000
0000
0000
1000
0010
0000
0000
0010
0100
0000
0010
0000
,
1000
0000
0000
1000
0001
0000
0000
0001
0010
0000
0000
0010
0100
0000
1000
0000
,
0001
0000
0000
0001
0100
0000
0000
0100
0010
0000
0000
0010
1000
0000
0100
0000
,
0010
0000
0000
0010
0001
0000
0000
1000
0010
0000
0000
0010
0100
0000
0001
0000
,
1000
0000
0000
1000
0001
0000
0000
0010
0100
0000
0000
0100
1000
0000
0001
0000
,
1000
0000
0000
1000
0010
0000
0000
0100
0010
0000
0000
0010
1000
0000
0001
0000
,
0010
0000
0000
0010
0100
0000
0000
1000
0002
0000
0000
0000
1003
0000
0000
0000
,
1000
0010
0001
0010
0100
0001
1000
0000
,
0001
0010
0100
1000
0001
1000
0010
0000
,
0100
0010
0100
0001
0010
1000
0010
0100
,
1000
0001
0100
1000
0200
0000
0300
0000
,
0100
0010
1000
0001
0010
0100
1000
0002
,
1000
2003
0010
3010
0100
0000
0010
0001
,
0010
0010
0100
0100
0001
0010
0100
1000
,
0200
0320
0032
0003
,
1001
0000
1000
1000
0010
0100
0001
0000
,
0021
1030
1020
0031
,
0021
0000
0130
1000
0001
0001
1000
0010
,
0100
0000
0001
0010
1000
0010
0100
1000
,
0001
0000
1000
1020
0000
0100
0130
0000
,
0201
1300
1200
0301
,
0201
0000
0310
1000
0001
0001
0010
0100
,
1000
0000
0100
0010
1000
0010
0001
1000
,
0010
0000
0000
0010
0100
0001
0010
0100
,
1000
1001
0110
0000
,
0100
0000
0010
0000
1000
0001
0000
1000
0001
0000
0000
0010
0000
0000
0100
0000
,
1000
0000
0010
0000
0100
0010
0000
0100
0001
0000
0000
1000
0000
0000
0100
0000
,
0010
0000
1000
0000
0010
0100
0000
0010
0001
0000
0000
1000
0000
0000
0001
0000
,
0100
0000
0010
0000
0100
0001
0000
0001
0010
0000
0100
0000
1000
0000
1000
0000
,
0001
0000
0100
0000
0010
0100
0000
0010
1000
0000
0000
0001
0000
0000
0010
0000
,
0100
0000
0010
0000
0100
1000
0000
0001
1000
0000
0000
0010
0000
0000
0100
0000
,
1000
0000
0100
0000
0001
1000
0000
0010
1000
0000
0000
0001
0000
0000
0010
0000
,
0100
0000
1000
0000
0001
0100
0000
0100
0010
0000
1000
0000
0001
0000
0001
0000
,
1000
0000
0100
0000
0100
0000
0010
0001
0000
1000
0000
0000
0000
0000
0000
0000
,
0001
1000
0001
1000
0001
1000
0001
0000
0100
0010
0000
0010
1000
0000
0000
0000
,
2002
0000
3003
0001
0010
0100
1000
0001
,
2002
0000
3003
1000
0010
0100
0001
1000
,
1001
1100
0101
0000
;
