#TITLE:Basement Dwellers VIP;
#SUBTITLE:;
#ARTIST:Barely Alive and Virtual Riot;
#TITLETRANSLIT:;
#SUBTITLETRANSLIT:;
#ARTISTTRANSLIT:;
#GENRE:;
#CREDIT:NOWHERE Dance Club;
#MUSIC:Basement Dwellers VIP.ogg;
#BANNER:Basement Dwellers VIP-bn.png;
#BACKGROUND:Basement Dwellers VIP-bg.png;
#CDTITLE:;
#SAMPLESTART:10.802;
#SAMPLELENGTH:20.805;
#SELECTABLE:YES;
#OFFSET:0.004;
#BPMS:0.000=150.000
,306.833=74.983
,307.667=299.932
,309.000=599.864
,310.000=1199.728
,316.500=599.864
,319.000=299.932
,320.000=149.966
;
#STOPS:;
#DISPLAYBPM:150.000;
#BGCHANGES:;
#FGCHANGES:;

//--------------- dance-single - NOWHERE Dance Club ----------------
#NOTES:
     dance-single:
     NOWHERE Dance Club:
     Beginner:
     5:
     0,0,0,0,0:
0000
0000
0000
0000
,
0000
0000
0000
0000
,
0000
0000
0000
0000
,
0000
0000
0000
0000
,
0000
0000
0000
0000
,
0000
0000
0000
0000
,
0100
0000
0000
0000
,
0100
0000
0000
0000
,
0001
0000
1000
0000
,
0001
0000
0100
0000
,
0001
0000
1000
0000
,
0100
0000
1000
0000
,
0001
0000
0010
0000
,
0100
0000
1000
0000
,
0100
0000
0010
0000
,
0001
0000
0001
0000
,
1000
0000
0010
0000
,
0100
0000
0001
0000
,
0100
0000
0010
0000
,
0100
0000
0010
0000
,
0100
0000
0100
0000
,
0010
0000
0010
0000
,
1000
0001
1000
0001
,
2000
0000
0000
0000
,
3100
0000
0010
0000
,
0001
0000
0100
0000
,
0100
0010
1000
1000
,
0001
0000
0010
0010
,
0100
0000
0010
0001
,
1000
0000
0010
1000
,
0100
0000
1000
0000
,
1000
0001
1000
0000
,
0001
0000
0100
0000
,
0001
1000
0010
0000
,
0100
0000
0100
0000
,
0010
0000
0010
0000
,
0020
0000
0000
0000
,
0130
0000
0010
0000
,
1000
0000
0100
0000
,
1000
0000
0010
0000
,
0100
0000
0001
0000
,
0010
0001
0010
0000
,
0001
0100
0001
0000
,
1000
0100
1000
0000
,
0010
0100
0001
0000
,
2000
0000
3200
0000
,
2300
0000
3002
0000
,
0203
0000
0302
0000
,
2003
0000
3020
0000
,
0130
0010
0100
0000
,
0010
0100
0010
0000
,
0100
0010
1000
0001
,
0020
0000
0000
0000
,
0130
0000
0010
0000
,
0100
0000
0020
0000
,
0031
0000
1001
0000
,
0010
0000
1000
0010
,
1000
0000
1100
0000
,
1000
0001
1001
0000
,
1000
0000
1010
0000
,
0010
0000
0110
0000
,
0001
0000
0011
0000
,
0001
1000
1001
0000
,
0010
0000
1010
0000
,
1000
0000
1100
0000
,
0100
0000
0010
0000
,
0001
0100
0010
0000
,
1000
0000
0010
0000
,
0100
0000
0010
1000
,
0100
0000
0000
0200
,
0000
00M0
0000
00M0
,
0000
00M0
0000
00M0
,
0000
00M0
0000
00M0
,
0000
00M0
0000
00M0
,
0000
00M0
0000
00M0
,
0000
0000
0000
0000
,
03M0
0000
0000
0000
0000
0000
0000
0000
0000
0000
0000
0000
0000
0000
0000
0000
0000
0000
0000
0000
0000
0000
0000
0000
0000
0000
0000
0000
0000
0000
0000
0000
0000
0000
0000
0000
0000
0000
0000
0000
0000
0000
0000
0000
0000
0000
0000
0000
0000
0000
0000
00M0
0000
0000
0000
0000
0000
0000
0000
0000
0000
0000
0000
0000
0000
0000
0000
0000
0000
00M0
0000
0000
0000
0000
0000
0000
0000
0000
0000
0000
0000
0000
0000
0000
0000
0000
0000
0000
00M0
0000
0000
0000
0000
0000
0000
0000
,
00M0
00M0
00M0
00M0
00M0
00M0
00M0
00M0
,
00M0
00M0
00M0
00M0
00M0
00M0
00M0
00M0
,
00M0
00M0
00M0
00M0
00M0
00M0
00M0
00M0
,
00M0
0000
0000
0000
;

//--------------- dance-single - NOWHERE Dance Club ----------------
#NOTES:
     dance-single:
     NOWHERE Dance Club:
     Easy:
     7:
     0,0,0,0,0:
0000
0000
0000
0000
,
0000
0000
0000
0000
,
0000
0000
0000
0000
,
0000
0000
0000
0000
,
0000
0000
0000
0000
,
0000
0000
0000
0000
,
0001
0000
1000
0010
,
0100
0000
0010
0010
,
1000
0000
0100
0010
,
0100
0000
0010
0000
,
0001
0000
0100
0010
,
0100
0000
0010
0000
,
1000
0000
0100
0010
,
0100
0000
0010
0000
,
0001
0000
0010
0000
,
0200
0000
0010
0310
,
0001
0000
0101
0000
,
1000
0000
1010
0000
,
1100
0000
0010
0000
,
0011
0000
0000
0000
0001
1000
0001
0000
,
0101
0000
0101
0000
,
1010
0000
1010
0000
,
1000
0100
0010
0001
,
2000
0000
3010
0100
,
0100
0000
0110
0000
,
1001
0000
1100
0000
,
0002
0013
0010
0001
,
0100
0010
0010
1000
,
0001
0010
0001
1000
,
1000
0010
0200
0000
,
0310
0100
0010
1000
,
0010
0100
0010
0001
,
0010
1000
0100
0010
,
1001
0000
0001
0100
,
0202
0303
1010
1000
,
2200
3300
0011
0010
,
0120
0000
0000
0000
,
0031
1000
0001
0100
,
0010
0000
0010
0000
,
1000
0000
0010
0000
,
1000
0010
1000
0100
,
0010
0000
0010
0000
,
0010
0001
0100
0010
,
1000
0000
1000
0000
,
1000
0001
2002
3003
,
1100
0000
0011
0000
,
0101
0000
1010
0000
,
1100
0000
0011
0001
,
1001
0010
1020
0000
,
0130
0010
1000
0100
,
0010
0001
0100
0010
,
1000
1000
0100
0100
,
0020
0000
0031
0000
,
0002
0003
0200
0300
,
2000
3000
0200
0300
,
0001
1000
1010
0000
,
1000
0000
1100
0000
,
0001
0010
0011
0000
,
0001
0100
0001
1000
,
1100
0000
0011
0000
,
0202
0000
0303
0000
,
1000
0001
0100
0001
,
1000
0100
0010
0002
,
0013
0001
1000
0010
,
1000
0001
0100
0001
,
1000
0100
0010
0001
,
0010
0100
1000
0001
,
0100
0010
1000
0100
,
1000
0001
0100
0010
,
2000
3100
0000
01M0
,
0000
01M0
0000
01M0
,
0000
01M0
0000
01M0
,
0000
01M0
0000
01M0
,
0000
01M0
0000
01M0
,
0000
01M0
0000
02M0
,
0000
0000
0000
0000
,
03M0
0000
0000
0000
0000
0000
0000
0000
0000
0000
0000
0000
0000
0000
0000
0000
0000
0000
0000
0000
0000
0000
0000
0000
0000
0000
0000
0000
0000
0000
0000
0000
0000
0000
0000
0000
0000
0000
0000
0000
0000
0000
0000
0000
0000
0000
0000
0000
0000
0000
0000
00M0
0000
0000
0000
0000
0000
0000
0000
0000
0000
0000
0000
0000
0000
0000
0000
0000
0000
00M0
0000
0000
0000
0000
0000
0000
0000
0000
0000
0000
0000
0000
0000
0000
0000
0000
0000
0000
00M0
0000
0000
0000
0000
0000
0000
0000
,
00M0
00M0
00M0
00M0
00M0
00M0
00M0
00M0
,
00M0
00M0
00M0
00M0
00M0
00M0
00M0
00M0
,
00M0
00M0
00M0
00M0
00M0
00M0
00M0
00M0
,
00M0
0000
0000
0000
;

//--------------- dance-single - NOWHERE Dance Club ----------------
#NOTES:
     dance-single:
     NOWHERE Dance Club:
     Medium:
     11:
     0,0,0,0,0:
0000
0000
0000
0000
,
0000
0000
0000
0000
,
0000
0000
0000
0000
,
0000
0000
0000
0000
,
0000
0000
0000
0000
,
0000
0000
0000
0000
,
1000
0000
0001
0010
,
0100
0000
0000
0000
0010
0001
1000
1000
,
0010
0000
1000
0000
0100
0000
0010
0001
,
0001
0000
0010
0000
0100
0000
0010
0001
,
1000
0000
0010
0000
0100
0000
0010
0010
,
1000
0000
0100
0000
0010
0000
0001
0100
,
0001
0000
0100
0000
0010
0000
1000
1000
,
0010
1000
0100
0010
,
0001
0000
0010
0000
0001
0000
0010
0001
,
0200
0320
2030
3010
,
1001
0001
0101
1000
,
1100
0100
0110
0010
,
1001
0001
0101
0010
,
1010
0010
2000
0010
,
3010
0100
0010
1000
0100
0010
0002
0000
,
0013
0001
0100
0010
1000
0010
2000
0000
,
3001
0010
1000
0010
0001
1000
0010
0100
,
0002
0000
0023
0130
,
0110
0001
1001
0001
,
0101
1000
1010
1000
,
1100
0000
0000
0000
0100
0000
0000
0000
0010
0000
0001
0000
0000
0001
0000
0000
,
0100
0000
0010
0000
0000
0010
0000
0000
1000
0000
0001
0000
0000
0010
0000
0000
,
0001
0000
0000
0000
0020
0000
0000
0000
0031
0000
0100
0000
0000
0100
0000
0000
,
0010
0000
1000
0000
0000
1000
0000
0000
0100
0000
0000
0000
0020
0000
0000
0000
,
0031
0000
0000
0001
0100
0000
0010
1000
0000
0100
0000
0000
,
0010
0000
0000
0001
0010
0000
0001
0100
0000
0010
0000
0000
,
1000
0000
0000
0100
0010
0000
0001
1000
0000
0001
0000
0000
,
0102
0000
0010
1003
,
1000
0100
0001
0100
1000
0100
0010
0001
,
1000
0010
0001
0010
1000
0010
0100
0001
,
0020
0000
0000
0030
0200
0000
0310
0000
,
0001
0100
0010
1000
,
0001
0000
0010
0000
0001
0000
0100
0010
,
0200
0000
0000
0000
0320
0000
0000
1030
,
0002
0000
0023
0000
0032
0000
0013
0001
,
1000
0001
0100
0010
1000
1000
0002
0000
,
0103
0010
1000
0100
0010
0010
0002
0000
,
0103
0010
1000
0100
0010
0010
0002
0000
,
0013
0001
0100
0010
1000
1000
0020
0000
,
1030
0000
0001
0001
0100
0000
0010
0000
,
1010
0000
1000
1000
0100
0000
0010
0000
,
0110
0000
0010
0010
0001
0000
0100
0000
,
0101
0000
0010
0010
1000
0000
0100
0000
,
1100
0101
1010
1001
,
1100
0011
0101
0110
,
0001
0100
0010
1000
0100
0010
0001
0010
,
0200
0000
0000
0000
0000
0000
2300
0000
3000
0000
0000
0000
,
0002
0003
0000
0020
0030
0000
2000
3000
0000
0020
0030
0000
,
0002
0003
0000
0200
0300
0000
0020
0000
0000
0000
0000
0000
,
0130
0010
0100
0000
1010
0000
1000
0000
,
0100
0010
0100
0000
1100
0000
0002
0000
,
0013
0001
0100
0000
0101
0000
0010
0000
,
1000
0010
1000
0000
1020
0000
0001
0000
,
1030
0100
1000
0100
0010
0001
0010
0001
,
2000
3020
0230
0302
0203
0000
0310
0000
,
0010
0100
0010
1000
0100
0010
0001
0001
,
1000
0010
1000
0100
0010
0001
0020
0000
,
0031
0100
0010
1000
0001
0100
0010
0000
,
1000
0100
0010
0001
0020
0000
0000
0000
,
0031
0001
0100
0100
0010
0100
0010
0010
,
1000
0010
0100
0001
0010
0001
0020
0000
,
0031
0100
0010
1000
0001
0010
1000
0010
,
0002
0000
0203
0000
0000
1300
0100
0001
,
2000
0000
0000
3100
,
0000
0100
0000
0100
,
0000
0100
0000
0100
,
0000
0100
0000
0100
,
0000
0100
0000
0100
,
0000
0100
0000
0200
,
0000
0000
0000
0000
,
0000
0000
0000
0000
0000
0000
0000
0000
0000
0000
0000
0000
0000
0000
0000
0000
0000
0000
0000
0000
0000
0000
0000
0000
0000
0000
0000
0000
0000
0000
0000
0000
0000
0000
0000
0000
0000
0000
0000
0000
0000
0000
0000
0000
0000
0000
0000
0000
0000
0000
0000
03M0
0000
0000
0000
0000
0000
0000
0000
0000
0000
0000
0000
0000
0000
0000
0000
0000
0000
00M0
0000
0000
0000
0000
0000
0000
0000
0000
0000
0000
0000
0000
0000
0000
0000
0000
0000
0000
MMMM
0000
0000
0000
0000
0000
0000
0000
,
MMMM
MMMM
MMMM
MMMM
MMMM
MMMM
MMMM
MMMM
,
MMMM
MMMM
MMMM
MMMM
MMMM
MMMM
MMMM
MMMM
,
MMMM
MMMM
MMMM
MMMM
MMMM
MMMM
MMMM
MMMM
,
MMMM
0000
0000
0000
;

//--------------- dance-single - NOWHERE Dance Club ----------------
#NOTES:
     dance-single:
     NOWHERE Dance Club:
     Hard:
     13:
     0,0,0,0,0:
0000
0000
0000
0000
,
0000
0000
0000
0000
,
0000
0000
0000
0000
,
0000
0000
0000
0000
,
0000
0000
0000
0000
,
0000
0000
0000
0000
,
1001
0000
1000
0010
,
0200
0000
0000
0000
0301
0000
0000
0000
0100
0010
0100
0000
0010
0000
1000
0000
,
0002
0000
0013
0000
0002
0000
0103
0010
,
2000
0000
3100
0000
0200
0000
0310
0010
,
0002
0000
0103
0000
0020
0000
1030
0010
,
0200
0310
2000
3010
,
2000
0000
3100
0000
0020
0000
0130
0010
,
0002
0000
0013
0100
2000
0000
3010
0000
,
0002
0013
2000
3100
,
0020
0000
0032
0000
0013
0001
0010
0000
,
1001
0000
0002
0000
0103
0000
0010
1000
,
0200
0310
0011
0001
,
0101
0020
1030
0100
,
2100
3001
0010
0002
,
1003
0010
0100
0001
0100
0010
2000
0000
,
3100
0010
0001
0100
0010
1000
0020
0000
,
0031
0010
1000
0100
0001
0100
1000
0001
,
0020
0000
0130
0000
,
2001
310M
1002
M103
,
2001
310M
1002
M103
,
2001
0000
0000
0000
0000
0000
0000
0000
0000
0000
0000
0000
310M
0000
0000
0000
0000
0000
0000
0000
0000
0000
0000
0000
0001
0000
0000
0000
0000
0000
0010
0000
0000
0000
0000
000M
0000
0000
0000
0010
0000
0000
0000
0000
0000
0000
0000
0000
,
1000
0000
0000
0000
0000
0000
0100
0000
0000
0000
0000
M000
0000
0000
0000
0100
0000
0000
0000
0000
0000
0000
0000
0000
0001
0000
0000
0000
0000
0000
0010
0000
0000
0000
0000
000M
0000
0000
0000
0010
0000
0000
0000
0000
0000
0000
0000
0000
,
2000
0000
0000
0000
0000
0000
0000
0000
0000
0000
0000
0000
3010
0000
0000
0000
0000
0000
0000
0000
0100
0000
0000
0000
0001
0000
0000
0000
0000
0000
0010
0000
0000
0000
0000
000M
0000
0000
0000
0010
0000
0000
0000
0000
0000
0000
0000
0000
,
1000
0000
0000
0000
0000
0000
0100
0000
0000
0000
0000
M000
0000
0000
0000
0100
0000
0000
0000
0000
0000
0000
0000
0000
0002
0000
0000
0000
0000
0000
0000
0000
0000
0000
0000
0000
0013
0000
0000
0000
0000
0000
0000
0000
0000
0000
0000
0000
,
0001
0100
0000
0010
1000
0000
1000
0100
0010
0001
0010
0000
,
0001
0100
0000
0010
1000
0000
0100
0010
0001
0010
0001
0000
,
1000
0001
0000
0010
0001
0000
0010
0001
0100
0010
1000
0000
,
0020
0000
0100
0130
,
0010
1000
0100
0010
0001
0000
0010
0001
0100
0010
1000
0000
,
0100
0010
0001
1000
0001
0000
1000
0100
1000
0010
1000
0000
,
1020
0000
0001
1000
,
1030
0010
0100
0001
,
1000
0000
0100
0000
0010
0000
0001
0010
,
0200
0000
0000
0000
0320
0000
0000
1030
,
0020
0000
0031
0100
0010
1000
0100
1000
,
0001
0010
1000
0001
0100
1000
0002
0000
,
0103
0010
1000
0100
0010
0001
2000
0000
,
3010
0100
0001
0100
0010
1000
0020
0000
,
1030
0010
1000
0100
0010
0001
0001
0000
,
0011
0000
0000
0000
1000
0000
0100
0010
0001
0000
0000
0000
0100
0000
0000
0000
,
0110
0000
0000
0000
0010
0000
1000
0100
0010
0000
0000
0000
0001
0000
0000
0000
,
0011
0000
0000
0000
0001
0000
0100
0010
1000
0000
0000
0000
1000
0000
0000
0000
,
1010
0000
0000
0000
1000
0000
0100
0010
0002
0000
0000
0000
2003
0000
0000
0000
,
3001
0010
0001
1000
1010
1000
0002
0000
,
0013
0100
0010
0001
0011
0001
2000
0000
,
3001
0000
0000
0000
0000
0000
0000
0000
0000
0000
0000
0000
0000
0000
0000
0000
0100
0000
0000
0000
0000
0000
0000
0000
0000
0000
0000
0000
0000
0000
0000
0000
0010
0000
0000
0000
0000
0000
0000
0000
0000
0000
0000
0000
0000
0000
0000
0000
1000
0000
0000
0000
0000
0000
0000
0000
0000
0000
0000
0000
0000
0000
0000
0000
0100
0000
0000
0000
0000
0000
0000
0000
0000
0000
0000
0000
0000
0000
0000
0000
0010
0000
0000
0000
0000
0000
0000
0000
0000
0000
0000
0000
0000
0000
0000
0000
0004
0000
0000
0000
0000
0000
0000
0000
0000
0000
0000
0000
0000
0000
0000
0000
4000
0000
0000
0000
0000
0000
0000
0000
0000
0000
0000
0000
0000
0000
0000
0000
0000
0000
0000
0000
0000
0000
0000
0000
0000
0000
0000
0000
0000
0000
0000
0000
0000
0000
0000
0000
0000
0000
0000
0000
0000
0000
0000
0000
0000
0000
0000
0000
0000
0000
0000
0000
0000
0000
0000
0000
0000
0000
0000
0000
0000
0003
0000
0000
0000
0000
0000
0000
0000
0000
0000
0000
0000
0000
0000
0000
0000
0000
0000
0000
,
3010
0000
2000
0000
,
3002
0003
0000
0200
0300
0000
2000
3000
0000
0002
0003
0000
,
0020
0030
0000
2000
3000
0000
0002
0000
0000
0100
0000
0000
,
0103
0010
1000
0000
1010
1000
0100
0010
,
0001
0010
0001
0000
2001
0000
3200
0000
,
1300
0100
1000
1000
0010
1000
0100
0100
,
0010
0000
0001
0000
1000
0000
1000
0000
0001
0000
1000
0000
0010
M000
0010
0000
,
0001
0100
0010
1000
0100
1000
0100
0010
,
2000
3020
0032
0203
2300
3200
0302
0000
,
0013
0000
0001
0000
0100
0000
1000
0000
0100
0000
0001
0000
0010
000M
0010
0000
,
1000
0000
0100
0000
0001
0000
0100
0000
1000
0000
0010
M000
0020
0000
0000
0000
,
0031
0000
0100
0000
1000
0000
0100
0000
0001
0000
0010
000M
0010
0000
1000
0000
,
0100
0010
0001
0010
1000
0010
0002
0000
,
1003
0010
0100
0001
0001
0010
0010
0001
,
0100
1000
0100
0001
0100
0010
2000
0000
,
3100
0010
0001
0100
0001
0010
0100
1000
,
0001
0000
0100
0000
0010
0000
1000
0000
0100
0000
0010
000M
2000
0000
3020
0000
,
0032
0000
0000
0103
,
0000
0100
0000
0100
,
0000
0100
0000
0100
,
0000
0100
0000
0100
,
0000
0100
0000
0100
,
0000
0200
0000
0000
,
0000
0000
0000
0000
,
03M0
0000
0000
0000
0000
0000
0000
0000
0000
0000
0000
0000
0000
0000
0000
0000
0000
0000
0000
0000
0000
0000
0000
0000
0000
0000
0000
0000
0000
0000
0000
0000
0000
0000
0000
0000
0000
0000
0000
0000
0000
0000
0000
0000
0000
0000
0000
0000
0000
0000
0000
00M0
0000
0000
0000
0000
0000
0000
0000
0000
0000
0000
0000
0000
0000
0000
0000
0000
0000
00M0
0000
0000
0000
0000
0000
0000
0000
0000
0000
0000
0000
0000
0000
0000
0000
0000
0000
0000
MMMM
0000
0000
0000
0000
0000
0000
0000
,
MMMM
MMMM
MMMM
MMMM
MMMM
MMMM
MMMM
MMMM
,
MMMM
MMMM
MMMM
MMMM
MMMM
MMMM
MMMM
MMMM
,
MMMM
MMMM
MMMM
MMMM
MMMM
MMMM
MMMM
MMMM
,
MMMM
0000
0000
0000
;
