#VERSION:0.83;
#TITLE:Bad ∞ End ∞ Night;
#SUBTITLE:;
#ARTIST:ひとしずく×やま△;
#TITLETRANSLIT:;
#SUBTITLETRANSLIT:;
#ARTISTTRANSLIT:Hitoshizuku×Yama△;
#GENRE:;
#CREDIT:;
#MUSIC:Bad End Night.ogg;
#BANNER:Bad End Night.png;
#BACKGROUND:Bad End Night-bg.png;
#CDTITLE:;
#SAMPLESTART:60.834;
#SAMPLELENGTH:15.000;
#SELECTABLE:YES;
#OFFSET:1.176;
#BPMS:0.000=204.000;
#STOPS:;
#BGCHANGES:4.000=Bad End Night.avi=1.000=0=0=1===CrossFade_Faster==,
99999.000=-nosongbg-=1.000=0=0=0=StretchNoLoop====
;
#FGCHANGES:;

//--------------- dance-single - chrononical ----------------
#NOTEDATA:;
#STEPSTYPE:dance-single;
#DESCRIPTION:chrononical;
#DIFFICULTY:Beginner;
#METER:4;
#RADARVALUES:0,0,0,0,0;
#NOTES:
0000
0000
0000
0000
,
0000
0000
0000
0000
,
0000
0000
0000
0000
,
0000
0000
0000
0000
,
0000
0000
0000
0000
,
1000
0000
0010
0000
,
0100
0000
0100
0000
,
0001
0000
0010
0000
,
0200
0000
0300
0000
,
1000
0000
0010
0000
,
0100
0000
0001
0000
,
1000
1000
1000
0000
,
0001
0001
0001
0000
,
1000
0000
0100
0000
,
0010
0000
0001
0000
,
1000
1000
1000
0000
,
0002
0000
1003
0000
,
0001
0000
0010
0000
,
0100
0000
1000
0000
,
0001
0001
0001
0000
,
1000
1000
1000
0000
,
0001
0000
0100
0000
,
0010
0000
1000
0000
,
0001
0000
0100
0000
,
1000
0000
0100
0000
,
0001
0000
0010
0000
,
0100
1000
0100
0000
,
1000
0000
0010
0000
,
0100
0001
0100
0000
,
0001
0000
0010
0000
,
0100
1000
0100
0000
,
1000
0000
0010
0000
,
0100
0001
0100
0000
,
0001
0000
0010
0000
,
0100
0000
1000
0000
,
0001
0000
0100
0000
,
0010
0000
1000
0000
,
0001
0000
0100
0000
,
0010
1000
0010
0000
,
1000
0000
0100
0000
,
0010
0001
0010
0000
,
0001
0000
0100
0000
,
0010
0000
1000
0000
,
1002
0000
0013
0000
,
0100
0000
1000
0000
,
2001
0000
3100
0000
,
0010
0000
0001
0000
,
1002
0000
0103
0000
,
0010
0000
1000
0000
,
2001
0000
3010
0000
,
0100
0000
0001
0000
,
0010
0010
0010
0000
,
0200
0000
0000
0000
,
0000
0000
0000
0000
,
0000
0000
0300
0000
,
1001
0000
1001
0000
,
1000
0000
0010
0000
,
0100
0000
0100
0000
,
0001
0000
0010
0000
,
1001
0000
0110
0000
,
2002
0000
3000
0000
,
0103
0000
0100
0000
,
0001
0000
0010
0000
,
1001
0000
1001
0000
,
1000
0000
0100
0000
,
0010
0000
1000
0000
,
0010
0000
0001
0000
,
1000
0000
0010
0010
,
0020
0000
0030
0000
,
2000
0000
0000
0000
,
3200
0000
0000
0000
,
0320
0000
0000
0000
,
0032
0000
0000
0000
,
0003
0000
0000
0000
,
0000
0000
0000
0000
,
0200
0000
0000
0000
,
0300
0000
0000
0000
,
0002
1000
0000
1003
,
0002
0010
0000
0013
,
0001
0000
1000
0000
,
0020
1000
0000
1000
,
1030
0000
0100
0000
,
0001
0000
0100
0000
,
1000
0000
0010
0000
,
0001
0000
0010
0000
,
1001
0000
0010
0000
,
0100
0000
0010
0000
,
1001
0000
0100
0000
,
0010
0000
0100
0000
,
1001
0000
0010
0000
,
0100
0000
0010
0000
,
1001
0000
0110
0000
,
2002
0000
3000
0000
,
0013
0000
0100
0000
,
1000
0000
0010
0000
,
0110
0000
0110
0000
,
0010
0000
1000
0000
,
0100
0000
0100
0000
,
1000
0000
0010
0000
,
1001
0000
0110
0000
,
2002
0000
0003
0000
,
3100
0000
0100
0000
,
1000
0000
0010
0000
,
0110
0000
0110
0000
,
0100
0000
0001
0000
,
0100
0000
1000
0000
,
0100
0000
0001
0000
,
1000
0000
0100
0100
,
0200
0000
0300
2002
,
3003
0000
0000
0000
;

//--------------- dance-single - chrononical ----------------
#NOTEDATA:;
#STEPSTYPE:dance-single;
#DESCRIPTION:chrononical;
#DIFFICULTY:Easy;
#METER:7;
#RADARVALUES:0,0,0,0,0;
#NOTES:
0000
0000
0000
0000
,
0000
0000
0000
0000
,
0000
0000
0000
0000
,
0000
0000
0000
0000
,
0000
0000
0000
0000
,
1000
0010
0100
0000
,
0001
0010
0100
0100
,
1000
0010
0100
0000
,
0001
0001
0001
0000
,
1000
0100
0010
0000
,
0010
0100
1000
0000
,
0001
0100
0010
0000
,
0010
0100
0001
0000
,
1000
0100
0010
0000
,
0010
0100
1000
0000
,
0001
0100
0010
0000
,
0100
0100
0100
0000
,
0001
0010
0100
0000
,
0100
0010
0001
0000
,
1000
0010
0100
0000
,
0100
0010
1000
0000
,
0001
0010
0100
0000
,
0100
0010
0001
0000
,
1000
0010
0001
0000
,
0001
0010
1000
0000
,
2001
0000
3100
0000
,
0010
0001
0010
0000
,
1002
0000
0103
0000
,
0010
1000
0010
0000
,
2001
0000
3010
0000
,
0100
0001
0100
0000
,
1002
0000
0013
0000
,
0100
1000
0100
0000
,
2000
0100
0100
0000
,
3002
0100
0100
0000
,
2003
0010
0010
0000
,
3002
0010
0010
0003
,
2001
0000
3010
0000
,
0100
0001
1000
0000
,
1002
0000
0013
0000
,
0100
1000
0001
0000
,
0001
0100
0010
0000
,
1000
0100
0010
0000
,
0002
0103
0020
0130
,
0001
1000
0001
0010
,
0002
0013
0200
0310
,
0001
0100
0010
0000
,
2000
3010
0200
0310
,
1000
0100
0010
0000
,
0002
0103
2000
3100
,
0001
0010
0100
0000
,
1000
0010
0100
0000
,
0010
0010
0020
0000
,
0000
0000
0000
0000
,
0000
0000
0030
0000
,
1000
1000
0100
0000
,
0010
0010
0010
0000
,
0001
0100
0010
0000
,
0010
0100
0001
0000
,
1000
1000
0010
0000
,
0110
0000
1001
0000
,
0001
0010
0100
0000
,
0100
0010
0001
0000
,
1000
1000
0010
0000
,
0100
0100
0100
0000
,
0001
0010
1000
0000
,
1000
0010
0001
0000
,
1000
0010
0100
0000
,
0210
0000
0301
0000
,
1000
0000
0100
0000
,
0100
0000
0000
0000
,
0010
0000
0001
0000
,
0001
0000
0000
0000
,
1000
0000
0010
0000
,
1001
0000
0011
0000
,
0020
0000
0000
0000
,
0130
0000
1000
0000
,
0002
0000
1000
0000
0000
1000
0003
0000
,
2000
0001
0001
3001
,
1000
0000
0100
0000
,
0020
0001
0001
0031
,
1000
0000
0010
0000
,
0001
0000
0010
0000
,
1000
0000
0100
0000
,
0001
0000
0100
0000
,
1001
0000
0100
0000
,
1001
0000
0010
0000
,
1001
0000
0100
0000
,
1001
0000
0010
0000
,
1001
0000
0100
0000
,
1001
0000
0010
0000
,
0110
0000
1001
0000
,
0001
0001
0001
0000
,
1000
0010
0100
0000
,
0100
0010
1000
0000
,
0010
1000
0100
0000
,
0110
0000
1001
0000
,
0001
0100
0010
0000
,
0010
0100
0001
0000
,
0010
0001
0100
0000
,
0110
0000
1001
0000
,
1000
0100
0010
0000
,
0100
0010
0001
0000
,
1000
1000
0010
0000
,
1010
0000
1001
0000
,
0001
0100
1000
0000
,
1000
0100
0001
0000
,
1000
0100
0010
0000
,
0210
0000
1300
2002
,
3003
0000
0000
0000
;

//--------------- dance-single - chrononical ----------------
#NOTEDATA:;
#STEPSTYPE:dance-single;
#DESCRIPTION:chrononical;
#DIFFICULTY:Medium;
#METER:11;
#RADARVALUES:0,0,0,0,0;
#NOTES:
0000
0000
0000
0000
,
0000
0000
0000
0000
,
0000
0000
0000
0000
,
0000
0000
0000
0000
,
0000
0000
0000
0000
,
1000
0010
0100
0100
,
0001
0010
0200
2300
,
3001
0100
0010
0010
,
1000
0100
0010
0000
,
0002
0103
0200
1300
,
2000
3100
0200
0301
,
1001
1000
1100
0100
,
0110
1001
0120
1030
,
2000
3100
0200
0301
,
0002
0103
0200
1300
,
1000
0001
0101
0100
,
0010
0000
0000
1000
0000
0000
0100
0000
0000
1000
0000
1000
,
0001
0000
0000
0100
0000
0000
1001
0000
0000
0001
0000
0001
,
1000
0100
1001
0001
,
0101
0100
0110
0010
,
1001
0000
0000
0110
0000
0000
1001
0000
0000
0001
0000
0001
,
0010
0000
0000
0100
0000
0000
1001
0000
0000
1000
0000
1000
,
0010
0100
1002
0023
,
1030
0020
0130
0010
,
0110
0011
1001
1000
,
0001
0100
1000
0100
,
0001
0001
0001
1000
,
0001
0010
1000
0010
,
0100
1000
0001
0001
,
1000
0010
0001
0010
,
1000
1000
1000
0002
,
1003
0100
0001
0100
,
0010
0001
1000
1000
,
1002
0000
0000
0100
0000
0000
0010
0000
0000
0000
0000
2003
,
0000
0001
0010
0100
,
3002
0000
0000
0100
0000
0000
0010
0000
0000
0000
0000
2003
,
0000
0001
0100
0010
,
3001
0100
0010
1001
,
1000
0100
0010
1001
,
0001
0001
0100
1001
,
1000
1000
0100
1001
,
0001
0100
1000
0100
,
0001
0010
0100
1000
,
2001
3010
2001
3010
,
1000
0100
0010
0001
,
1002
0103
1002
0103
,
0001
0100
0010
1000
,
2001
3010
2001
3010
,
1000
0100
0010
0001
,
1002
0103
2001
3100
,
1000
1000
0010
0200
,
1300
0200
0310
0200
,
0301
0010
0200
0000
,
0000
0000
0000
0000
,
0000
0000
0300
1000
,
0010
0001
0010
1000
,
0100
0100
0100
0010
,
0001
1000
0010
0010
,
1001
0110
1001
0001
,
0010
0100
0110
1001
,
0201
0010
1000
0310
,
1000
0001
0100
0001
,
1001
0110
1001
1000
,
0100
0001
0100
1000
,
0010
0010
0010
0100
,
1001
0010
1002
0013
,
1000
0010
0001
1000
,
0001
0100
0110
1001
,
2100
0000
3001
0000
,
1000
0000
0010
0000
,
0100
0000
0100
0000
,
0001
0000
0010
0000
,
0100
0000
0100
0000
,
1000
0000
0010
0000
,
0110
0000
1001
0000
,
0001
0000
0010
0000
,
0100
0000
1000
0000
,
0020
0000
1000
0000
0000
0100
0000
0000
,
0230
0001
0001
0001
,
0301
0010
0100
0000
,
2000
0001
0010
0100
,
3001
0100
1000
0100
,
0001
0010
0100
0000
,
1000
0100
0001
0100
,
1000
0010
0100
0000
,
1001
0010
0100
0000
,
1001
0100
0010
0010
,
1001
0100
0010
0000
,
1001
0010
0100
0100
,
1001
1000
0100
0000
,
1001
0001
0100
0000
,
0010
1000
0001
0010
,
0100
1000
0010
0100
,
0001
0010
0100
0100
,
1000
0010
0100
0001
,
0010
1000
0001
0100
,
1100
1001
0102
0013
,
0001
0100
0010
0010
,
1001
0110
1001
1000
,
0010
0100
0110
1001
,
1200
0001
1300
0010
,
0100
1000
0001
0010
,
0110
0110
0110
1002
,
0013
1000
0010
0001
,
0011
1001
1020
0031
,
0010
0100
0001
0010
,
1000
0010
0100
0010
,
1001
0100
1001
0010
,
0210
0000
0310
2002
,
3003
0000
0000
0000
;

//--------------- dance-single - chrononical ----------------
#NOTEDATA:;
#STEPSTYPE:dance-single;
#DESCRIPTION:chrononical;
#DIFFICULTY:Hard;
#METER:14;
#RADARVALUES:0,0,0,0,0;
#NOTES:
0000
0000
0000
0000
,
0000
0000
0000
0000
,
0000
0000
0000
0000
,
0000
0000
0000
0000
,
0000
0000
0000
0000
,
1000
0000
0100
0010
0000
0000
1001
0000
0000
0001
0000
0100
,
0010
0000
0000
1001
0000
0000
1000
0100
0010
0001
1000
0001
,
1000
0000
0010
0100
0000
0000
1001
0000
0000
0001
0000
0010
,
0100
1000
0001
0100
0001
1000
0100
0000
0000
0000
0000
0000
,
2001
0000
0000
3100
0000
0000
1002
0000
0000
0103
0000
0001
,
1000
0000
0010
1000
0000
0100
1000
0000
0100
0001
0000
0100
,
1000
0000
0010
0001
0000
0010
1000
0000
0100
0010
0000
0000
,
1001
0100
1001
0010
,
1002
0000
0000
0013
0000
0000
2001
0000
0000
3010
0000
1000
,
0001
0000
0100
0001
0000
0010
0001
0000
0010
1000
0000
0010
,
0001
0000
0100
1000
0000
0100
0001
0000
0010
0100
0000
1000
,
0100
0010
0001
1000
0100
0010
0001
0000
0000
1001
0000
1000
,
0010
0000
0000
1001
0000
0001
0010
0000
0000
0110
0000
0100
,
1000
0000
0000
0110
0000
0100
0001
0000
0000
1001
0000
1000
,
0100
0000
0000
1001
0000
0001
0100
0000
0000
0110
0000
0010
,
1000
0000
0000
1100
0000
0000
0110
0000
0000
1001
0000
0001
,
0010
0000
0000
1001
0000
1000
0010
0000
0000
0110
0000
0100
,
0001
0000
0000
0110
0000
0100
1000
0000
0000
1020
0000
0000
,
0031
0000
0000
1200
0000
0000
0301
0000
0100
1000
0000
0001
,
0010
0110
1002
0103
,
0001
0000
0000
0100
0000
0000
0110
0000
0000
0010
0000
1000
,
0100
0000
1000
0010
0000
1000
0100
0000
0000
0010
0000
0100
,
1000
0000
0000
0010
0000
0000
0110
0000
0000
0100
0000
0001
,
0010
0000
0001
0100
0000
0001
0010
0000
0010
0100
0000
0000
,
1000
0000
0000
0001
0000
0000
0101
0000
0000
0100
0000
0010
,
0100
0000
0001
0100
0000
1000
0100
0000
0000
0010
0000
0000
,
1000
0000
0000
0001
0000
0000
0011
0000
0000
0010
0000
0100
,
0010
0000
0001
0010
0000
1000
0010
0000
0000
0110
0000
0000
,
2001
0000
0000
0010
0000
0000
0100
0000
0000
3100
0000
1002
,
0000
0100
0010
0013
,
2001
0000
0000
0100
0000
0000
0010
0000
0000
3010
0000
1002
,
0000
0010
0100
0103
,
0102
0000
0000
0013
0000
0000
2100
0000
0000
3010
0000
0010
,
0100
0000
0100
0001
0000
0001
1000
0000
0000
0001
0000
0000
,
0102
0000
0000
0013
0000
0000
2100
0000
0000
3010
0000
0010
,
0100
0000
0100
0001
0000
0001
1000
0000
1000
0001
0000
0010
,
0100
0000
0000
0001
0000
0100
0010
0000
0000
1000
0000
0010
,
0100
0000
1000
0001
0000
0100
0010
0000
0000
1000
0000
0000
,
1002
0103
1002
0103
,
0010
0000
0100
0001
0000
0010
0100
0000
1000
0001
0000
0000
,
2001
3010
2001
3010
,
1000
0000
1000
0100
0000
0100
0010
0000
0010
0001
0000
0000
,
1002
0013
1002
0013
,
0001
0000
0001
0100
0000
0100
0010
0000
0010
1000
0000
0000
,
1002
0103
2001
3100
,
1000
0000
0100
0010
0000
0100
1000
0000
0000
1010
0000
0010
,
0100
1001
0010
1002
,
0103
0001
1000
0100
1000
0001
0200
0000
0000
0000
0000
0000
,
0000
0000
0000
0000
,
0000
0000
0000
0000
0000
0000
0300
0000
0000
0100
0000
0100
,
0001
0000
0000
0010
0000
0010
0001
0000
1000
0010
0000
0000
,
0110
0000
0000
1001
0000
0000
0120
0000
0000
0130
0000
0100
,
1000
0000
0000
1002
0000
0000
0103
0000
0100
0010
0000
0010
,
1000
0000
0000
2001
0000
0000
3100
0000
0000
0010
0000
0010
,
0001
0000
0000
0100
0000
0100
0001
0000
0000
0101
0000
0000
,
1010
0000
0000
1100
0000
0000
0120
0000
0000
0031
0000
0001
,
1000
0000
0000
1020
0000
0000
0130
0000
0000
1010
0000
0010
,
1000
0000
0000
1200
0000
0000
0310
0000
0000
0100
0000
0100
,
1000
0000
0000
0010
0000
0010
1000
0000
0001
0010
0000
0000
,
0110
0000
0000
1001
0000
0000
0210
0000
0000
0310
0000
0010
,
1000
0000
0000
1200
0000
0000
0301
0000
0000
0100
0000
0100
,
1000
0000
0000
1020
0000
0000
0031
0000
0000
0010
0000
0010
,
1000
0100
0110
1001
,
0110
0000
0100
0000
0001
0000
2001
0000
0000
0000
0000
0000
,
3M01
0M00
0M00
0M01
0M00
0M00
1M00
0M00
0M00
0M00
0M00
0M00
,
001M
000M
000M
001M
000M
000M
100M
000M
000M
000M
000M
000M
,
01M0
00M0
00M0
01M0
00M0
00M0
10M0
00M0
00M0
00M0
0000
0000
,
100M
0000
0000
100M
000M
000M
100M
000M
000M
000M
000M
000M
,
100M
1000
0001
0000
,
0101
0000
1002
0000
,
0M13
0M00
0M00
0M10
0M00
0M00
0M01
0M00
0M00
0M00
0000
0000
,
0001
0001
0001
0000
,
0201
0000
1000
0000
0000
1000
0300
0000
,
2010
0001
0001
0001
,
3100
0010
0001
1000
,
0010
0200
1000
1000
,
0301
0000
0000
0010
0000
0000
1000
0000
0000
0010
0000
0001
,
1000
1010
1001
1000
,
0001
0000
0000
0100
0000
0000
1000
0000
0000
0100
0000
0001
,
1000
1100
1001
1000
,
1010
0000
0000
0010
0000
0000
0110
0000
0000
0100
0000
0100
,
0001
0000
0000
0011
0000
0000
1001
0000
1000
0100
0000
0000
,
1100
0000
0000
0100
0000
0000
0110
0000
0000
0010
0000
0010
,
0001
0000
0000
1000
0000
1000
0001
0000
0100
0001
0000
0000
,
0101
0000
0000
0100
0000
0000
0110
0000
0000
0010
0000
0010
,
1000
1001
0011
0110
,
1100
0101
0011
1010
,
1001
0000
0000
1001
0000
0000
1002
0000
0000
0103
0000
0100
,
0010
0000
0000
0102
0000
0000
0013
0000
0000
0010
0000
0010
,
0100
0000
0000
0012
0000
0000
0103
0000
0000
0010
0000
0010
,
1000
0000
0000
0100
0000
0100
1000
0000
0001
0100
0000
0000
,
0110
0000
0000
1001
0000
0000
0120
0000
0000
0130
0000
0100
,
0010
0000
0000
2100
0000
0000
3010
0000
0000
0010
0000
0010
,
0100
0000
0000
2010
0000
0000
3100
0000
0000
0010
0000
0010
,
0001
0100
0110
1001
,
0210
0000
0000
0001
0000
0000
0010
0000
0000
1300
0001
0100
,
0010
0000
0000
0102
0000
0000
0013
0000
0000
0100
0000
0100
,
0010
0000
0000
2100
0000
0000
3010
0000
0000
0100
0000
0100
,
0001
0000
0000
0010
0000
0010
0001
0000
1000
0010
0000
0000
,
0110
0000
0000
1001
0000
0000
0120
0000
0000
0130
0000
0100
,
0010
0000
0000
1200
0000
0000
0301
0000
0000
0100
0000
0100
,
0010
0000
0000
0201
0000
0000
1300
0000
0000
0100
0000
0100
,
0001
0010
0110
1001
,
0110
0000
0010
0000
1000
0000
1010
0000
0000
2002
0000
0000
,
3003
0000
0000
0000
;
