#VERSION:0.83;
#TITLE:BITE OF '87;
#SUBTITLE:;
#ARTIST:CG5 (feat. Abdul Cisse);
#TITLETRANSLIT:;
#SUBTITLETRANSLIT:;
#ARTISTTRANSLIT:;
#GENRE:Pop;
#ORIGIN:;
#TAGS:;
#CREDIT:;
#BANNER:BITE OF 87.png;
#BACKGROUND:BITE OF 87-bg.png;
#PREVIEWVID:;
#JACKET:BITE OF 87-jacket.png;
#CDIMAGE:;
#DISCIMAGE:;
#LYRICSPATH:BITE OF 87.lrc;
#CDTITLE:;
#MUSIC:BITE OF 87.ogg;
#OFFSET:-0.065000;
#SAMPLESTART:17.830999;
#SAMPLELENGTH:17.615999;
#SELECTABLE:YES;
#BPMS:0.000000=108.000000
;
#STOPS:;
#DELAYS:;
#WARPS:;
#TIMESIGNATURES:0.000000=4=4
;
#TICKCOUNTS:0.000000=4
;
#COMBOS:0.000000=1
;
#SPEEDS:0.000000=1.000000=0.000000=0
;
#SCROLLS:0.000000=1.000000
;
#LABELS:0.000000=Song Start
;
#BGCHANGES:;
#KEYSOUNDS:;
#ATTACKS:
;

//---------------dance-single - Pruz----------------
#NOTEDATA:;
#CHARTNAME:Pruz;
#CHARTHASH:1203250611;
#STEPSTYPE:dance-single;
#BANNER:;
#DESCRIPTION:Pruz;
#CHARTSTYLE:;
#DIFFICULTY:Beginner;
#METER:4;
#METERF:0.000000;
#LASTSECONDHINT:106.176117;
#RADARVALUES:0.169464,0.192654,0.000000,0.240818,0.000000,133.000000,133.000000,0.000000,27.000000,0.000000,0.000000,0.000000,0.000000,0.000000,0.169464,0.192654,0.000000,0.240818,0.000000,133.000000,133.000000,0.000000,27.000000,0.000000,0.000000,0.000000,0.000000,0.000000;
#CREDIT:Pruz;
#NOTES:
0000
0000
0000
0000
,
0000
0000
0000
0000
,
0000
0000
0000
0000
,
0000
0000
0000
0000
,
1000
1000
0010
1000
,
0001
0001
0010
0001
,
1000
0000
1000
1000
,
0010
0100
0001
1000
,
0002
0003
0002
0003
,
0010
0000
0001
0001
,
0100
0000
0001
0001
,
0010
0010
0100
0020
,
0032
0003
0002
0003
,
0100
0000
0001
0001
,
0010
0000
0100
0010
,
0001
0001
0010
0100
,
1000
1000
0200
0300
,
1000
1000
0020
0030
,
1000
0001
0100
0000
,
0001
1000
0100
0000
,
0010
0010
0100
1000
,
0010
0010
0100
0001
,
1000
2000
0000
3000
,
0001
0002
0000
0003
,
0010
0100
2000
3000
,
0010
0100
0002
0003
,
2000
3000
0200
0300
,
0002
0003
0020
0030
,
1000
0010
0200
0300
,
0001
0010
0200
0300
,
2000
0000
0000
3000
,
0020
0000
0000
0030
,
2000
3000
2000
3000
,
0100
0000
1000
0001
,
0100
0000
0001
1000
,
0010
0010
0100
0020
,
2030
3000
2000
3000
,
0001
0000
0010
0100
,
1000
0000
0010
0100
,
0001
0001
1000
0010
,
1000
1000
1000
0002
,
0013
0010
0010
0002
,
1003
0000
0010
0010
,
1000
0001
0000
0010
,
0100
0100
0100
0010
,
0100
0100
0100
1000
,
0001
0000
0100
0010
,
1000
1000
0000
0002
,
0003
0000
0000
0000
;

//---------------dance-single - Pruz----------------
#NOTEDATA:;
#CHARTNAME:Pruz;
#CHARTHASH:4183818240;
#STEPSTYPE:dance-single;
#BANNER:;
#DESCRIPTION:Pruz;
#CHARTSTYLE:;
#DIFFICULTY:Easy;
#METER:5;
#METERF:0.000000;
#LASTSECONDHINT:106.176117;
#RADARVALUES:0.200044,0.192654,0.000000,0.071353,0.004460,157.000000,157.000000,0.000000,8.000000,0.000000,0.000000,0.000000,0.000000,0.000000,0.200044,0.192654,0.000000,0.071353,0.004460,157.000000,157.000000,0.000000,8.000000,0.000000,0.000000,0.000000,0.000000,0.000000;
#CREDIT:Pruz;
#NOTES:
0000
0000
0000
0000
,
0000
0000
0000
0000
,
0000
0000
0000
0000
,
0000
0000
0000
0000
,
1000
0000
0000
0000
1000
0000
0000
0000
1000
0000
0000
0000
0002
0000
0000
0003
,
0010
0010
0010
0002
,
1003
0000
0010
0010
,
1000
0001
1000
0100
,
0010
0010
0010
0100
,
0010
0000
0001
1000
,
0010
0000
1000
1000
,
0001
0001
0010
0200
,
1300
0001
0010
0010
,
0001
0000
1000
1000
,
0010
0000
0100
0100
,
0001
0010
0100
2000
,
3001
1000
0100
0010
,
0001
1000
0010
0100
,
0001
0001
0001
1000
,
0010
0010
0010
1000
,
0100
0001
0100
1000
,
0010
0001
0010
1000
,
0001
0002
0000
0003
,
1000
2000
0000
3000
,
0010
0100
0001
0001
,
0010
0010
0100
0100
,
1000
0100
0001
0100
,
1000
0010
0001
0010
,
1000
0100
0010
0010
,
0001
0001
0100
0100
,
0010
1000
0001
1000
,
0200
0000
0000
0300
,
1000
0010
0100
0100
,
0001
0000
0010
0100
,
1000
0000
0010
0100
,
0001
0001
0001
1000
,
0100
0100
0010
0010
,
0001
0000
1000
0010
,
0100
0000
0001
0010
,
0100
0100
1000
1000
,
0001
0100
0000
0001
,
1000
0100
0000
1000
,
0010
0010
0100
0001
,
0010
0010
0100
1000
,
0010
0100
0000
0001
,
0010
0100
1000
1000
,
0010
0100
0001
0001
,
1000
0100
0010
0002
,
0003
0000
0000
0000
;

//---------------dance-single - Pruz----------------
#NOTEDATA:;
#CHARTNAME:Pruz;
#CHARTHASH:1072903580;
#STEPSTYPE:dance-single;
#BANNER:;
#DESCRIPTION:Pruz;
#CHARTSTYLE:;
#DIFFICULTY:Medium;
#METER:7;
#METERF:0.000000;
#LASTSECONDHINT:106.731674;
#RADARVALUES:0.294333,0.299684,0.000000,0.392444,0.008919,231.000000,231.000000,0.000000,44.000000,0.000000,0.000000,0.000000,0.000000,0.000000,0.294333,0.299684,0.000000,0.392444,0.008919,231.000000,231.000000,0.000000,44.000000,0.000000,0.000000,0.000000,0.000000,0.000000;
#CREDIT:Pruz;
#NOTES:
0000
0000
0000
0000
,
0000
0000
0000
0000
,
0000
0000
0000
0000
,
0000
0000
0000
0000
,
1000
0010
1000
0000
0001
0000
0020
0000
,
0130
1000
0100
0000
0010
0000
0002
0000
,
1003
0010
0100
0000
0001
0000
0002
0000
,
1003
0100
1000
0000
0010
0000
0200
0000
,
0301
1000
0001
0000
1000
0100
1000
0000
,
0001
0000
0010
0000
0100
1000
0001
0000
,
1000
0000
0010
0000
0100
0001
1000
0000
,
0001
0000
0001
0000
0001
0001
0002
0000
,
1003
0000
0010
0000
0100
0001
1000
0000
,
0100
0000
0010
0000
0001
1000
0010
0000
,
0100
0000
0001
0000
1000
0001
0010
0000
,
0100
0000
1000
0000
0001
0100
0020
0000
,
1030
0001
0010
0001
2000
0000
3010
0000
,
1000
0001
0010
0001
2000
0000
3010
0000
,
0100
0001
1000
0001
0100
0200
0000
0310
,
1000
0000
0001
0001
0010
0200
0000
1300
,
0001
0000
0001
0000
0001
1000
0010
0000
,
1000
0000
1000
0000
1000
0001
0010
0000
,
0100
0000
1000
1000
1000
2000
3000
0000
,
0010
0000
0100
0100
0100
0200
0300
0000
,
0002
0000
0023
0000
0230
2300
3002
0000
,
0023
0230
2300
3000
0002
0023
0230
0000
,
1300
0000
0001
0000
0010
0001
1000
0000
,
0010
0000
1000
0000
0001
1000
0100
0000
,
2000
0000
3020
0000
0230
0302
2003
3000
,
0020
0230
0302
0003
2000
3020
0230
0000
,
0301
0000
1000
0000
0010
1000
0001
0000
,
0010
0000
0010
0000
0010
0010
0010
0000
,
0001
1000
0100
0000
1000
0001
0100
0000
,
0010
0000
1000
0000
0001
0010
0100
0000
,
1000
0000
0001
0000
0100
0010
1000
0000
,
0001
0000
0001
0000
0001
0001
0002
0000
,
1003
0000
0001
0000
0010
0001
1000
0000
,
0001
0000
1000
0000
0010
1000
0001
0000
,
0100
0000
0010
0000
1000
0100
0010
0000
,
0001
0000
0001
0000
0001
0001
0002
0000
,
1003
0001
0010
0000
0100
0000
2000
0000
,
3001
1000
0010
0000
0100
0000
0002
0000
,
1003
0000
0001
0000
0010
0000
0000
0000
0100
0000
0100
0000
0200
0000
0000
0300
,
1000
0001
0010
0000
0001
0000
2000
0000
,
3001
1000
0010
0000
0100
0000
0002
0000
,
1003
0001
0010
0000
0100
0000
2000
0000
,
3001
0000
1000
0000
0010
0000
0000
0000
0100
0000
0100
0000
0200
0000
0000
0300
,
0001
1000
0010
0000
1000
0000
0002
0000
,
0003
0000
0000
0000
;

//---------------dance-single - Pruz----------------
#NOTEDATA:;
#CHARTNAME:Pruz;
#CHARTHASH:4127195136;
#STEPSTYPE:dance-single;
#BANNER:;
#DESCRIPTION:Pruz;
#CHARTSTYLE:;
#DIFFICULTY:Hard;
#METER:8;
#METERF:0.000000;
#LASTSECONDHINT:106.731674;
#RADARVALUES:0.361864,0.342496,0.017838,0.267575,0.008919,284.000000,282.000000,2.000000,30.000000,0.000000,0.000000,0.000000,0.000000,0.000000,0.361864,0.342496,0.017838,0.267575,0.008919,284.000000,282.000000,2.000000,30.000000,0.000000,0.000000,0.000000,0.000000,0.000000;
#CREDIT:Pruz;
#NOTES:
0000
0000
0000
0000
,
0000
0000
0000
0000
,
0000
0000
0000
0000
,
0000
0000
0000
0000
,
1000
0001
0010
0010
0001
0000
2000
0000
,
3010
0001
0010
0010
1000
1000
0001
0000
,
0010
0100
1000
1000
0010
0000
0210
0000
,
0301
0010
1000
1000
0100
0000
0001
0001
,
1000
0001
0100
0000
0001
1000
0100
0000
,
0010
0001
0100
0000
1000
0010
0001
0001
,
1000
0010
0100
0000
0001
0010
0100
0100
,
1000
0001
0100
0001
1000
1000
2000
0000
,
3010
1000
0001
0000
0010
0001
1000
0000
,
0010
0100
0001
0001
1000
0100
1000
0000
,
0001
0001
0010
0000
0100
1000
0001
0001
,
0100
0001
1000
0001
0100
0100
0200
0000
,
0310
1000
0001
1000
0200
0000
1300
1000
,
0001
0010
0100
0010
0002
0000
0103
1000
,
0100
0010
1000
0001
1000
0001
0000
0010
,
0010
0001
1000
0100
1000
0200
0000
1300
,
0001
0000
0010
0000
0100
1000
0002
0003
,
1000
0000
0010
0000
0100
0001
2000
3000
,
0001
1000
0100
0100
0100
0100
0000
0000
,
1000
0001
0100
0010
1000
0001
0000
0000
,
0020
0000
0000
2030
0000
0000
3020
0000
0032
0000
2003
0000
3002
0000
0000
0000
,
0103
0100
0200
0300
0010
0010
0020
0000
,
1030
0001
0010
0001
1000
1000
1000
0000
,
0001
1000
0010
1000
0001
0001
0001
0000
,
0020
0000
0000
2030
0000
0000
3020
0000
0031
0000
0001
0000
0002
0000
0000
0000
,
0103
0100
0200
0300
0010
0010
0020
0000
,
1030
0001
0010
0100
1000
1000
1000
0000
,
0001
0000
0000
0000
,
0010
0001
0100
0000
0010
1000
0100
0000
,
0010
0001
1000
0000
0010
1000
0001
0001
,
0010
0100
1000
0000
0010
0100
0001
0001
,
1000
0001
0100
0001
1000
1000
2000
0000
,
3010
1000
0001
0000
0010
0001
1000
0000
,
0010
0100
0001
0001
1000
0100
1000
0000
,
0001
0001
0010
0000
0100
1000
0001
0001
,
0100
0001
1000
0001
0100
0100
0200
0000
,
0310
0001
0010
1000
0001
0000
0020
0000
,
1030
0010
0001
0001
1000
1000
0010
0000
,
1000
0001
0100
0100
0001
0000
2000
0000
,
3100
0010
0001
0001
1000
0000
0010
0100
,
0001
1000
0010
0010
1000
0000
0002
0000
,
0013
1000
0010
0010
0001
0001
1000
0000
,
0010
0100
0001
0001
0010
0000
0210
0000
,
1300
0010
0001
0001
0100
0000
1000
2000
,
3000
0000
0000
0000
;

//---------------dance-single - Pruz----------------
#NOTEDATA:;
#CHARTNAME:Pruz;
#CHARTHASH:116;
#STEPSTYPE:dance-single;
#BANNER:;
#DESCRIPTION:Pruz;
#CHARTSTYLE:;
#DIFFICULTY:Challenge;
#METER:14;
#METERF:0.000000;
#LASTSECONDHINT:106.731674;
#RADARVALUES:0.612875,0.556557,0.410282,0.205141,0.512853,481.000000,435.000000,46.000000,23.000000,0.000000,0.000000,0.000000,0.000000,0.000000,0.612875,0.556557,0.410282,0.205141,0.512853,481.000000,435.000000,46.000000,23.000000,0.000000,0.000000,0.000000,0.000000,0.000000;
#CREDIT:Pruz;
#NOTES:
0000
0000
0000
0000
,
0000
0000
0000
0000
,
0000
0000
0000
0000
,
0000
0000
0000
0000
,
1000
0000
0010
0000
1001
0000
0010
0001
1000
0000
0100
0000
1001
0000
0100
0000
,
0001
0000
0010
0000
1001
0000
0100
1000
0001
0000
0100
0001
2000
0001
0001
0001
,
3001
0000
0100
0000
1001
0000
0010
1000
0001
0000
0100
0000
1001
0000
0010
0000
,
1000
0000
0100
0000
0010
0000
0001
1000
0001
0000
0010
0100
0020
0100
0100
0100
,
0130
0000
1000
0000
1001
0000
0010
0001
1000
0000
1000
0000
1010
0000
0000
0000
,
1000
0001
0010
0000
0110
0000
0100
1000
0001
0000
1000
0000
1010
0000
1000
0000
,
0001
0100
0010
0000
1010
0000
1000
0100
0010
0000
0001
0000
0101
0000
0001
0000
,
1000
0000
0100
1000
0100
0000
0010
0001
0010
0000
0001
0000
2000
0001
3000
0001
,
1000
0000
1000
0000
1010
0000
0010
1000
0001
0000
0001
0000
0101
0000
0000
0000
,
1000
0001
1000
0000
1100
0000
0100
0010
0001
0000
1000
0000
1010
0000
0010
0000
,
0100
0001
0100
0000
0110
0000
0010
1000
0001
0000
1000
0000
1100
0000
0100
0000
,
0010
0000
0001
0100
0001
0000
1000
0100
1000
0000
0001
0000
0200
0010
0300
0010
,
0100
0000
0001
0010
0100
0000
1000
0010
0100
0000
0100
0000
0101
0000
0001
0000
,
0010
0100
1000
0000
1100
0000
0100
0010
0001
0000
0001
0000
0101
0000
0100
0010
,
1000
0000
1000
0000
0001
0000
0010
0000
0100
0000
0200
0000
1300
0000
0001
1000
,
0100
0100
0010
0001
1000
0020
0130
0100
,
0001
0000
1000
0000
0010
0000
0100
0000
0100
0000
0010
0000
1000
0000
0001
0000
0010
0000
0010
0000
0000
0002
0000
0000
,
1003
0000
0001
0000
0100
0000
0010
0000
0010
0000
1000
0000
0001
0000
0010
0000
0100
0000
0100
0000
0000
2000
0000
0000
,
3001
0000
0100
0000
0110
0000
0110
0000
0010
1000
0002
0000
1003
0000
0001
0010
,
0100
0000
0100
0000
1000
0000
0001
0000
0100
0001
1000
0000
0020
0000
0230
0000
,
0301
0000
0000
0010
0000
0000
0100
0000
0010
0001
1000
0000
0002
0000
0000
1003
,
0010
0000
0000
0000
0010
0000
0000
0000
0010
0000
0000
0000
1000
0000
0001
0000
0010
0001
0000
0000
1000
0000
0000
0000
0002
0000
0000
0000
0003
0000
0000
0000
,
1000
0000
0010
0000
0100
0000
0010
1000
0001
1000
0000
1010
0000
0000
0010
1000
,
0001
0000
0001
0000
0001
0000
0010
0001
1000
0001
0000
0101
0200
0000
0320
0000
,
1030
0000
0000
0100
0000
0000
0010
0000
0100
1000
0001
0000
2000
0000
0000
3001
,
0010
0000
0000
0000
0010
0000
0000
0000
0010
0000
0000
0000
0001
0000
1000
0000
0010
1000
0000
0000
0001
0000
0000
0000
2000
0000
0000
0000
3000
0000
0000
0000
,
0001
0100
0010
1000
0100
0010
0001
0001
1000
0100
0000
0000
,
0010
0000
0010
0000
0010
0000
0010
0000
0010
0000
0010
0000
0010
0000
0010
0000
0010
0000
0010
0000
0000
0001
0000
0000
,
0100
0000
0001
0000
1001
0000
0010
1000
0001
0000
0001
0000
0011
0000
0000
0000
,
0001
1000
0010
0000
0110
0000
0100
0001
1000
0000
0001
0000
0011
0000
0001
0000
,
1000
0100
0010
0000
0011
0000
0001
0100
0010
0000
1000
0000
1100
0000
1000
0000
,
0001
0000
0100
0001
0100
0000
0010
1000
0010
0000
1000
0000
0002
1000
0003
1000
,
0001
0000
0001
0000
0011
0000
0010
0001
1000
0000
1000
0000
1100
0000
0000
0000
,
0001
1000
0001
0000
0101
0000
0100
0010
1000
0000
0001
0000
0011
0000
0010
0000
,
0100
1000
0100
0000
0110
0000
0010
0001
1000
0000
0001
0000
0101
0000
0100
0000
,
0010
0000
1000
0100
1000
0000
0001
0100
0001
0000
1000
0000
0200
0010
0300
0010
,
0100
0000
1000
0000
0011
0000
0001
0100
0010
0000
1000
0000
0101
0000
0100
0000
,
0010
0000
1000
0000
0101
0000
0001
1000
0010
0000
0100
0001
2000
0000
0001
0001
,
3001
0000
0100
0000
1010
0000
1000
0001
0100
0000
0001
0000
1010
0000
1000
0000
,
0100
0000
0010
0000
0001
0000
0100
0010
0100
0000
0001
1000
0002
1000
1000
1000
,
1003
0000
0010
0000
1001
0000
0010
0001
1000
0000
0100
0000
1001
0000
0100
0000
,
0001
0000
0010
0000
1001
0000
0100
1000
0001
0000
0100
0001
2000
0001
0001
0001
,
3001
0000
0100
0000
1001
0000
0010
1000
0001
0000
0100
0000
1001
0000
0010
0000
,
1000
0000
0100
0000
0010
0000
0001
1000
0001
0000
0010
0100
0020
0100
0100
0100
,
0030
0000
0000
0000
;

//---------------dance-double - Pruz----------------
#NOTEDATA:;
#CHARTNAME:Pruz;
#CHARTHASH:4167041024;
#STEPSTYPE:dance-double;
#BANNER:;
#DESCRIPTION:Pruz;
#CHARTSTYLE:;
#DIFFICULTY:Easy;
#METER:5;
#METERF:0.000000;
#LASTSECONDHINT:106.731674;
#RADARVALUES:0.201319,0.214060,0.008919,0.249737,0.008919,158.000000,157.000000,1.000000,28.000000,0.000000,0.000000,0.000000,0.000000,0.000000,0.201319,0.214060,0.008919,0.249737,0.008919,158.000000,157.000000,1.000000,28.000000,0.000000,0.000000,0.000000,0.000000,0.000000;
#CREDIT:Pruz;
#NOTES:
00000000
00000000
00000000
00000000
,
00000000
00000000
00000000
00000000
,
00000000
00000000
00000000
00000000
,
00000000
00000000
00000000
00000000
,
00001000
00001000
00010000
01000000
,
00100000
00100000
00001000
00010000
,
00000010
00000010
00000100
00001000
,
00010000
00010000
01000000
00100000
,
00010000
00010000
10000000
00100000
,
02000000
00000000
00000000
03000000
00001000
00000000
00001000
00000000
,
00020000
00000000
00000000
00030000
00000100
00000000
00000100
00000000
,
00000010
00000010
00000001
00002000
,
00003010
00000100
00000001
00000001
,
00000010
00000100
00010000
00010000
,
00000010
00001000
00000100
00000100
,
00010000
00001000
01000000
00200000
,
10300000
10000000
02000000
03100000
,
00001000
00001000
00000200
00000310
,
00001000
00000000
00001000
00000000
00000002
00000000
00000000
00000003
,
00000010
00000000
00000010
00000000
00000200
00000000
00000000
00000300
,
00010000
00001000
00100000
00010000
,
10000000
00100000
01000000
00001000
,
00010000
00000100
00000100
00000000
,
00000010
00000001
00000001
00000000
,
00000200
00000310
00010000
00010000
,
00002000
00103000
01000000
01000000
,
20000000
30100000
02000000
03001000
,
00020000
00030100
00000020
00000031
,
00000200
00000310
00010000
00010000
,
00002000
00103000
01000000
01000000
,
10000000
10000000
00100000
01000000
,
00011000
00000000
00000000
00000000
,
00010000
00010000
00000010
00000100
,
00000002
00000000
00000000
00000003
00001000
00000000
00001000
00000000
,
00000200
00000000
00000000
00000300
00010000
00000000
00010000
00000000
,
00100000
00100000
10000000
00020000
,
00130000
01000000
10000000
10000000
,
00100000
01000000
00001000
00001000
,
00100000
00010000
01000000
01000000
,
00001000
00010000
00000100
00000020
,
00000031
00000001
00000000
00000200
,
00000310
00010000
00000000
00002000
,
01003000
00000000
00000000
00000000
00000000
00000000
00000000
00000000
00100000
00000000
00000000
00000000
20000000
00000000
00000000
30000000
,
01000000
01000000
00000000
00200000
,
00310000
00010000
00000000
02000000
,
03100000
00100000
00000000
20000000
,
31000000
00000000
00000000
00000000
00000000
00000000
00000000
00000000
00100000
00000000
00000000
00000000
00200000
00000000
00000000
00300000
,
00001000
00010000
00000000
00000020
,
00000030
00000000
00000000
00000000
;

//---------------dance-double - Pruz----------------
#NOTEDATA:;
#CHARTNAME:Pruz;
#CHARTHASH:3769892864;
#STEPSTYPE:dance-double;
#BANNER:;
#DESCRIPTION:Pruz;
#CHARTSTYLE:;
#DIFFICULTY:Medium;
#METER:6;
#METERF:0.000000;
#LASTSECONDHINT:106.453896;
#RADARVALUES:0.254834,0.278278,0.008919,0.080273,0.017838,200.000000,199.000000,1.000000,9.000000,0.000000,0.000000,0.000000,0.000000,0.000000,0.254834,0.278278,0.008919,0.080273,0.017838,200.000000,199.000000,1.000000,9.000000,0.000000,0.000000,0.000000,0.000000,0.000000;
#CREDIT:Pruz;
#NOTES:
00000000
00000000
00000000
00000000
,
00000000
00000000
00000000
00000000
,
00000000
00000000
00000000
00000000
,
00000000
00000000
00000000
00000000
,
00010000
00010000
00000100
00001000
,
00000010
00000000
00000010
00000000
00000100
00000000
00000001
00001000
,
00000001
00000010
00000100
00000100
,
00010000
00000000
00001000
00000000
00001000
00000000
00100000
00010000
,
10000000
00000000
00100000
00000000
01000000
01000000
00010000
00000000
,
00100000
00000000
00000000
00001000
00010000
00000000
00001000
00000000
,
00000010
00000100
00000000
00000000
00000010
00000000
00000010
00000000
,
00000001
00000000
00000000
00000000
00000001
00000000
00000000
00000000
00001000
00000000
00000001
00000000
00002000
00000000
00000000
00003000
,
00000010
00000100
00000001
00000001
,
00001000
00000200
00000000
00000300
00010000
00000000
00010000
00000000
,
00100000
02000000
00000000
03000000
00001000
00000000
00001000
00000000
,
00100000
00000000
00000000
00000000
01000000
00000000
00000000
00000000
10000000
00000000
00000000
00000000
20000000
00000000
00000000
30000000
,
00010000
10000000
00100000
00000000
01000000
00000000
01000000
00000000
,
00001000
00010000
00000100
00000000
00000010
00000000
00000010
00000000
,
00000001
00000100
00000010
00000000
00010000
00000000
00001000
00000000
,
00100000
00010000
10000000
00000000
00100000
00000000
00100000
00000000
,
01000000
00001000
00010000
00000010
,
00010000
00001000
00100000
01000000
,
10000000
00000000
00010000
00010000
00010000
00010000
00010000
00000000
,
00100000
00000000
00100000
00100000
00100000
00100000
00100000
00000000
,
00001000
00010000
00000010
00000010
,
00000100
00000001
00001000
00000000
00000100
00001000
00000001
00000000
,
00000100
00000010
00010000
00001000
,
00100000
01000000
10000000
00100000
,
00010000
00001000
00100000
00100000
,
01000000
10000000
00010000
00000000
01000000
00010000
10000000
00000000
,
01000000
00100000
00001000
00010000
,
00001001
00000000
00000000
00000000
,
00000001
00000000
00000010
00000000
00000100
00000100
00001000
00000000
,
00000010
00000000
00000000
00010000
00001000
00000000
00010000
00000000
,
00100000
01000000
00000000
00000000
00100000
00000000
00100000
00000000
,
10000000
00000000
00000000
00000000
10000000
00000000
00000000
00000000
00010000
00000000
10000000
00000000
00020000
00000000
00000000
00030000
,
00100000
01000000
10000000
10000000
,
00010000
02000000
00000000
03000000
00001000
00000000
00001000
00000000
,
00000010
00000200
00000000
00000300
00010000
00000000
00010000
00000000
,
00000010
00000000
00000000
00000000
00000100
00000000
00000000
00000000
00000001
00000000
00000000
00000000
00000002
00000000
00000000
00000003
,
00001000
00000100
00010000
00000000
00001000
00000000
00001000
00000000
,
00100000
01000000
10000000
00000000
10000000
00000000
00100000
01000000
,
00001000
00010000
00000100
00000010
,
00000001
00001000
00000010
00000000
00000100
00000000
00000100
00000000
,
00000001
00001000
00000010
00000000
00000100
00000000
00000100
00000000
,
00000001
00000010
00000100
00000000
00010000
00000000
00010000
00000000
,
00001000
00000000
00000000
01000000
00100000
00000000
10000000
00000000
,
00010000
00100000
01000000
00000000
10000000
00000000
00010000
00020000
,
00030000
00000000
00000000
00000000
;

//---------------dance-double - Pruz----------------
#NOTEDATA:;
#CHARTNAME:Pruz;
#CHARTHASH:116;
#STEPSTYPE:dance-double;
#BANNER:;
#DESCRIPTION:Pruz;
#CHARTSTYLE:;
#DIFFICULTY:Hard;
#METER:8;
#METERF:0.000000;
#LASTSECONDHINT:106.731674;
#RADARVALUES:0.361864,0.342496,0.008919,0.222979,0.022298,284.000000,283.000000,1.000000,25.000000,0.000000,0.000000,0.000000,0.000000,0.000000,0.361864,0.342496,0.008919,0.222979,0.022298,284.000000,283.000000,1.000000,25.000000,0.000000,0.000000,0.000000,0.000000,0.000000;
#CREDIT:Pruz;
#NOTES:
// measure 0
00000000
00000000
00000000
00000000
,  // measure 1
00000000
00000000
00000000
00000000
,  // measure 2
00000000
00000000
00000000
00000000
,  // measure 3
00000000
00000000
00000000
00000000
,  // measure 4
00001000
00010000
01000000
01000000
00100000
00010000
20000000
00000000
,  // measure 5
30100000
01000000
00010000
00010000
00100000
00001000
00010000
00000000
,  // measure 6
00000100
00000010
00000001
00000001
00001000
00000000
00000010
00000000
,  // measure 7
00000100
00000001
00001000
00001000
00000100
00000000
00010000
00010000
,  // measure 8
00001000
01000000
10000000
00000000
01000000
00010000
00100000
00000000
,  // measure 9
01000000
10000000
00010000
00000000
00100000
00001000
00010000
00000010
,  // measure 10
00000100
00000100
00001000
00000000
01000000
00010000
00001000
00000100
,  // measure 11
00000010
00000010
00000001
00000001
00001000
00000100
00000020
00000000
,  // measure 12
00000031
00001000
00000010
00000000
00001000
00000001
00000010
00000000
,  // measure 13
00000100
00010000
00001000
01000000
00100000
10000000
00010000
00000000
,  // measure 14
10000000
10000000
01000000
00000000
00100000
00100000
00001000
00010000
,  // measure 15
00000010
00000100
00000001
00001000
00000100
00000010
00000002
00000000
,  // measure 16
00000103
00000010
00001000
00000010
00000200
00000000
00000301
00000001
,  // measure 17
00000010
00000100
00010000
00000100
00000020
00000000
00000031
00000001
,  // measure 18
00000100
00000010
00010000
00010000
00001000
00002000
00000000
01003000
,  // measure 19
00100000
10000000
00010000
00100000
00001000
00002000
00000000
00013000
,  // measure 20
00000010
00000000
00000100
00000000
00000001
00000010
00000100
00000000
,  // measure 21
00010000
00000000
00100000
00000000
10000000
01000000
00100000
00000000
,  // measure 22
00001000
00010000
00000100
00000100
00000100
00000200
00000300
00000000
,  // measure 23
00010000
00001000
00100000
00100000
00100000
00200000
00300000
00000000
,  // measure 24
01000000
00000000
00000000
10000000
00000000
00000000
10000000
00000000
02000000
00000000
03200000
00000000
00302000
00000000
00000000
00003000
,  // measure 25
00010000
00010000
00020000
00030000
00001000
00001000
00002000
00000000
,  // measure 26
00013000
00000100
00000010
00000100
00001000
00001000
00001000
00000000
,  // measure 27
00000001
00000100
00010000
00000100
00000010
00000010
00000010
00000000
,  // measure 28
00000100
00000000
00000000
00000001
00000000
00000000
00000001
00000000
00000200
00000000
00000320
00000000
00020030
00000000
00000000
00030000
,  // measure 29
00001000
00001000
00002000
00003000
00010000
00010000
00020000
00000000
,  // measure 30
00031000
01000000
10000000
01000000
00010000
00010000
00010000
00000000
,  // measure 31
10010000
00000000
00000000
00000000
,  // measure 32
00001000
01000000
10000000
00000000
01000000
00010000
00100000
00000000
,  // measure 33
01000000
10000000
00010000
00000000
00100000
00001000
00010000
00000010
,  // measure 34
00000100
00000100
00001000
00000000
01000000
00010000
00001000
00000100
,  // measure 35
00000010
00000010
00000001
00000001
00001000
00000100
00000020
00000000
,  // measure 36
00000031
00001000
00000010
00000000
00001000
00000001
00000010
00000000
,  // measure 37
00000100
00010000
00001000
01000000
00100000
10000000
00010000
00000000
,  // measure 38
10000000
10000000
01000000
00000000
00100000
00100000
00001000
00010000
,  // measure 39
00000010
00000100
00000001
00001000
00000100
00000010
00000002
00000000
,  // measure 40
00001003
00000100
00010000
00010000
00001000
00000000
02000000
00000000
,  // measure 41
03010000
10000000
00100000
00100000
01000000
00010000
10000000
00000000
,  // measure 42
01000000
00000000
00100000
00000000
00010000
00000000
00010000
00000000
00001000
00000000
00000000
00000000
00020000
00000000
00000000
00030000
,  // measure 43
00000010
00000100
00000001
00000001
00001000
00000000
00000100
00001000
,  // measure 44
00010000
01000000
10000000
10000000
00100000
00000000
02000000
00000000
,  // measure 45
03001000
00010000
01000000
01000000
10000000
00010000
00100000
00000000
,  // measure 46
00001000
00010000
00000010
00010000
00001000
00000000
00100000
00000000
,  // measure 47
00010000
00001000
00000010
00001000
00010000
00000000
01000000
02000000
,  // measure 48
03000000
00000000
00000000
00000000
;

//---------------dance-double - Pruz----------------
#NOTEDATA:;
#CHARTNAME:Pruz;
#CHARTHASH:2064199780;
#STEPSTYPE:dance-double;
#BANNER:;
#DESCRIPTION:Pruz;
#CHARTSTYLE:;
#DIFFICULTY:Challenge;
#METER:14;
#METERF:0.000000;
#LASTSECONDHINT:106.731674;
#RADARVALUES:0.617971,0.556557,0.428120,0.205141,0.508393,485.000000,437.000000,48.000000,23.000000,0.000000,0.000000,0.000000,0.000000,0.000000,0.617971,0.556557,0.428120,0.205141,0.508393,485.000000,437.000000,48.000000,23.000000,0.000000,0.000000,0.000000,0.000000,0.000000;
#CREDIT:Pruz;
#NOTES:
00000000
00000000
00000000
00000000
,
00000000
00000000
00000000
00000000
,
00000000
00000000
00000000
00000000
,
00000000
00000000
00000000
00000000
,
00001000
00000000
00100000
00000000
00110000
00000000
00100000
00010000
10000000
00000000
01000000
00000000
10010000
00000000
01000000
00000000
,
00010000
00000000
00100000
00000000
00101000
00000000
00001000
00010000
00000010
00000000
00000100
00000001
00002000
00000001
00000001
00000001
,
00003001
00000000
00000010
00000000
00000011
00000000
00000010
00000100
00010000
00000000
00001000
00000000
01001000
00000000
01000000
00000000
,
00100000
00000000
10000000
00000000
01000000
00000000
00100000
00001000
00100000
00000000
00010000
01000000
00020000
10000000
10000000
10000000
,
10030000
00000000
00100000
00000000
10100000
00000000
10000000
00010000
00100000
00000000
01000000
00000000
10010000
00000000
00000000
00000000
,
10000000
00010000
00100000
00000000
00101000
00000000
00001000
00010000
00000100
00000000
00000010
00000000
00001001
00000000
00000001
00000000
,
00000100
00000010
00001000
00000000
00001001
00000000
00000001
00000010
00000100
00000000
00010000
00000000
00101000
00000000
00100000
00000000
,
00010000
00000000
10000000
00100000
01000000
00000000
00001000
00010000
00001000
00000000
00001000
00000000
00200000
00010000
00300000
00010000
,
10000000
00000000
10000000
00000000
10100000
00000000
00100000
10000000
00010000
00000000
00010000
00000000
00101000
00000000
00001000
00000000
,
00000010
00000001
00001000
00000000
00001010
00000000
00000010
00000100
00000001
00000000
00001000
00000000
00010100
00000000
00010000
00000000
,
00001000
01000000
00001000
00000000
00011000
00000000
00010000
01000000
10000000
00000000
01000000
00000000
10010000
00000000
00010000
00000000
,
00100000
00000000
00001000
00010000
00000010
00000000
00000100
00000001
00001000
00000000
00000010
00000000
00000200
00000010
00000300
00000010
,
00001000
00000000
00000100
00010000
01000000
00000000
10000000
00100000
01000000
00000000
00001000
00000000
00010100
00000000
00000100
00000000
,
00000010
00000001
00001000
00000000
00001010
00000000
00000010
00000100
00000001
00000000
00000001
00000000
00001100
00000000
00001000
00000100
,
00010000
00000000
00001000
00000000
01000000
00000000
01000000
00000000
00100000
00000000
20000000
00000000
30010000
00000000
10000000
01000000
,
00100000
00100000
00001000
00010000
00000010
00000020
00000130
00000001
,
00001000
00000000
00000100
00000000
00010000
00000000
01000000
00000000
01000000
00000000
00100000
00000000
00001000
00000000
00000010
00000000
00010000
00000000
00001000
00000000
00000000
00021000
00000000
00000000
,
00031000
00000000
00000010
00000000
00010000
00000000
00100000
00000000
00100000
00000000
01000000
00000000
00001000
00000000
00000100
00000000
00010000
00000000
00001000
00000000
00000000
00021000
00000000
00000000
,
00030100
00000000
00000010
00000000
00000110
00000000
00000110
00000000
00000100
00000001
00002000
00000000
00003001
00000000
00001000
00000100
,
00010000
00000000
00010000
00000000
00001000
00000000
01000000
00000000
00100000
10000000
00010000
00000000
00200000
00000000
02300000
00000000
,
13000000
00000000
00000000
00100000
00000000
00000000
01000000
00000000
00100000
00010000
00001000
00000000
00020000
00000000
00000000
00030100
,
00000010
00000000
00000000
00000000
00000010
00000000
00000000
00000000
00000010
00000000
00000000
00000000
00000001
00000000
00001000
00000000
00000010
00001000
00000000
00000000
00000001
00000000
00000000
00000000
00002000
00000000
00000000
00000000
00003000
00000000
00000000
00000000
,
00000100
00000000
00000010
00000000
00001000
00000000
00000010
00000001
00001000
00000001
00000000
00000101
00000000
00000000
00000100
00000010
,
00001000
00000000
00010000
00000000
00001000
00000000
00000100
00010000
01000000
00100000
00000000
00110000
00200000
00000000
02300000
00000000
,
13000000
00000000
00000000
00100000
00000000
00000000
01000000
00000000
00100000
00010000
00001000
00000000
00020000
00000000
00000000
00030100
,
00000010
00000000
00000000
00000000
00000010
00000000
00000000
00000000
00000010
00000000
00000000
00000000
00000001
00000000
00001000
00000000
00000010
00001000
00000000
00000000
00000001
00000000
00000000
00000000
00002000
00000000
00000000
00000000
00003000
00000000
00000000
00000000
,
00000100
00000010
00000100
00001000
00000001
00000100
00000010
00000100
00000001
00001000
00000000
00000000
,
00000010
00000000
00000010
00000000
00000010
00000000
00000010
00000000
00000010
00000000
00000010
00000000
00000010
00000000
00000010
00000000
00000010
00000000
00000010
00000000
00000000
00000100
00000000
00000000
,
00000001
00000000
00000010
00000000
00000011
00000000
00000001
00001000
00000010
00000000
00000100
00000000
00001001
00000000
00000000
00000000
,
00000001
00001000
00000010
00000000
00010010
00000000
00010000
00001000
01000000
00000000
00100000
00000000
10010000
00000000
10000000
00000000
,
01000000
00100000
00010000
00000000
10010000
00000000
10000000
00100000
01000000
00000000
00001000
00000000
00010010
00000000
00000010
00000000
,
00001000
00000000
00000001
00000010
00000100
00000000
00010000
00001000
00010000
00000000
00010000
00000000
00000020
00001000
00000030
00001000
,
00000001
00000000
00000001
00000000
00000011
00000000
00000010
00000001
00001000
00000000
00001000
00000000
00010010
00000000
00010000
00000000
,
00100000
10000000
00010000
00000000
00110000
00000000
00100000
01000000
10000000
00000000
00010000
00000000
01001000
00000000
00001000
00000000
,
00010000
00000100
00010000
00000000
00011000
00000000
00001000
00000100
00000001
00000000
00000100
00000000
00001001
00000000
00001000
00000000
,
00000010
00000000
00010000
00001000
00100000
00000000
01000000
10000000
00010000
00000000
00100000
00000000
02000000
00100000
03000000
00100000
,
00010000
00000000
10000000
00000000
00110000
00000000
00010000
01000000
00100000
00000000
10000000
00000000
01010000
00000000
01000000
00000000
,
00001000
00000000
00010000
00000000
00001010
00000000
00000010
00001000
00000001
00000000
00000010
00000001
00002000
00000000
00000001
00000001
,
00003001
00000000
00000100
00000000
00001010
00000000
00001000
00000100
00010000
00000000
00010000
00000000
01001000
00000000
01000000
00000000
,
00100000
00000000
10000000
00000000
00010000
00000000
00100000
01000000
10000000
00000000
00010000
01000000
00020000
10000000
10030000
10000000
,
10000000
00000000
00010000
00000000
00101000
00000000
00100000
00001000
00010000
00000000
00010000
00000000
00001010
00000000
00000010
00000000
,
00000100
00000000
00000001
00000000
00001010
00000000
00000010
00001000
00000100
00000000
00010000
00001000
00200000
00000000
01000000
01000000
,
01300000
00000000
10000000
00000000
00110000
00000000
00100000
00001000
00010000
00000000
00010000
00000000
00001010
00000000
00000010
00000000
,
00000100
00000000
00000001
00000000
00001000
00000000
00000100
00010000
01000000
00000000
10000000
01000000
20000000
00010000
00010000
00010000
,
30010000
00000000
00000000
00000000
;
