#TITLE:Addict;
#SUBTITLE:;
#ARTIST:Silva Hound ft. Michael Kovach and Chi-Chi;
#TITLETRANSLIT:;
#SUBTITLETRANSLIT:;
#ARTISTTRANSLIT:;
#GENRE:House;
#CREDIT:;
#BANNER:Addict-bn.png;
#BACKGROUND:Addict-bg.png;
#LYRICSPATH:Addict.lrc;
#CDTITLE:;
#MUSIC:Addict.ogg;
#OFFSET:0.000000;
#SAMPLESTART:113.754990;
#SAMPLELENGTH:15.000000;
#LASTBEATHINT:280.000000;
#SELECTABLE:YES;
#BPMS:0.000000=128.000000
;
#STOPS:
;
#BGCHANGES:0.000=Addict.avi=1.000=1=0=0=StretchNoLoop==CrossFade==,
99999=-nosongbg-=1.000=0=0=0 // don't automatically add -songbackground-
;
#KEYSOUNDS:;
#ATTACKS:;

//---------------dance-single - ----------------
#NOTES:
     dance-single:
     :
     Hard:
     13:
     0.426879,0.664845,0.073060,0.160732,0.040183,409.000000,399.000000,10.000000,22.000000,0.000000,0.000000,0.426879,0.664845,0.073060,0.160732,0.040183,409.000000,399.000000,10.000000,22.000000,0.000000,0.000000:
// measure 0
0000
0000
0000
0000
,  // measure 1
0000
0000
0000
0000
,  // measure 2
0000
0000
0000
0000
,  // measure 3
0000
0000
0000
0000
,  // measure 4
0000
0000
0000
0000
,  // measure 5
0001
0000
0100
0000
1000
0000
0100
0002
,  // measure 6
0000
0000
0000
0000
0003
0000
1000
0100
,  // measure 7
1000
0010
0100
0001
0000
1000
0000
0100
,  // measure 8
1000
0000
0100
0010
0000
0100
0000
1000
,  // measure 9
1000
0100
0010
0001
0010
0100
0000
1000
,  // measure 10
0001
0000
0001
0100
0000
0100
0001
0100
,  // measure 11
0001
1000
0100
1000
0000
1000
0000
0100
,  // measure 12
0000
0000
0100
0010
0001
0010
0100
1000
,  // measure 13
2000
0100
3200
0010
,  // measure 14
0320
0000
0001
0000
0031
0100
0001
1000
,  // measure 15
0010
1000
0000
0000
1000
0100
1000
0001
,  // measure 16
0010
0001
0000
0001
0100
0010
1000
0010
,  // measure 17
0020
0100
0230
0001
,  // measure 18
0302
0000
0100
0003
0100
0010
1000
0010
,  // measure 19
0100
0001
0000
1000
0100
1000
0001
0100
,  // measure 20
0001
0010
0000
0000
0001
0100
0001
0010
,  // measure 21
0000
0100
0000
0000
1000
0100
1000
0010
,  // measure 22
0020
0000
0030
0010
0100
0001
0100
0020
,  // measure 23
0000
0030
0100
0100
0001
0010
0001
2000
,  // measure 24
0000
3100
0000
1000
0100
1000
0010
0200
,  // measure 25
0000
0001
0300
0001
0100
0100
0001
0020
,  // measure 26
0200
0000
0330
1000
0010
1000
0010
0010
,  // measure 27
0100
0100
0001
0001
1000
0100
0010
0002
,  // measure 28
2000
0000
0000
3003
0000
1000
0001
1000
,  // measure 29
0000
0000
0100
0000
1000
0001
1000
0001
,  // measure 30
0000
0000
0100
0000
0001
1000
0001
1000
,  // measure 31
0000
0000
0010
0000
1000
0001
1000
0001
,  // measure 32
0000
0000
0010
0000
0001
0001
0100
1000
,  // measure 33
0000
1000
0100
0100
0001
0001
1000
0100
,  // measure 34
0001
0100
1000
1000
0000
0001
0100
0001
,  // measure 35
0000
0001
0010
0010
1000
1000
0010
0001
,  // measure 36
1000
0010
0001
0010
0000
1000
0100
1000
,  // measure 37
0100
0000
0000
1100
0000
0000
0001
0000
,  // measure 38
0101
0000
0000
0101
0000
0000
1000
0010
,  // measure 39
1010
0000
0000
1010
0000
0000
0001
0000
,  // measure 40
0010
0000
0000
0011
0000
0001
0010
0001
,  // measure 41
1000
0000
1000
0100
0000
0100
0010
0000
,  // measure 42
0001
0000
0001
0100
0000
0100
0010
0010
,  // measure 43
1000
0000
1000
0001
0000
0001
0010
0000
,  // measure 44
0100
0000
0100
1000
0000
1000
0001
0100
,  // measure 45
0001
0100
0001
0100
0001
0100
0001
0100
,  // measure 46
1000
0100
1000
0100
1000
0100
1000
0100
,  // measure 47
0010
1000
0010
1000
0010
1000
0010
1000
,  // measure 48
0100
0001
0100
0001
0100
0001
0100
0001
,  // measure 49
0100
1000
0100
1000
0001
0010
0001
0010
,  // measure 50
0001
0100
0001
0100
0010
0100
0010
0100
,  // measure 51
0010
0100
0010
0100
0010
0100
0010
0100
0010
0100
0010
0100
0010
0100
0010
0100
,  // measure 52
0010
1000
0100
1001
0000
1000
1000
0000
,  // measure 53
0001
0000
0100
0010
0000
0000
1010
0000
,  // measure 54
0010
0000
1000
0000
0010
0000
1000
0000
0010
0000
0000
0000
1000
0010
1000
0010
,  // measure 55
1000
0000
0100
1000
0000
0000
1100
0000
,  // measure 56
0100
0010
0001
0010
0100
0001
0100
0100
,  // measure 57
1000
0000
0001
1000
0000
0000
0010
0000
,  // measure 58
0100
0001
0100
0001
0020
0000
0130
1000
,  // measure 59
0010
0000
0100
0001
0000
0000
0101
0000
,  // measure 60
0001
0010
0001
1000
0100
1000
0100
0020
,  // measure 61
0000
0031
0100
0001
0010
0001
0100
0020
,  // measure 62
0000
0130
0001
1000
0100
0010
0100
2000
,  // measure 63
0000
3001
0100
0010
0100
1000
0100
0002
,  // measure 64
0000
0013
0100
0001
0100
1000
0001
0100
,  // measure 65
0010
0010
0100
0100
0001
0001
0010
0010
,  // measure 66
0001
1000
0100
1000
0000
1000
0100
0010
,  // measure 67
0001
0010
0001
0001
1000
1000
0010
0010
,  // measure 68
0100
0000
0001
0000
1000
0000
0100
0000
0010
0000
0000
0010
0100
0000
2000
0000
,  // measure 69
0002
0000
0000
0000
,  // measure 70
3003
0000
0000
0000
;

//---------------dance-single - ----------------
#NOTES:
     dance-single:
     :
     Medium:
     9:
     0.331901,0.357994,0.153426,0.233792,0.000000,318.000000,297.000000,21.000000,32.000000,0.000000,0.000000,0.331901,0.357994,0.153426,0.233792,0.000000,318.000000,297.000000,21.000000,32.000000,0.000000,0.000000:
0000
0000
0000
0000
,
0000
0000
0000
0000
,
0000
0000
0000
0000
,
0000
0000
0000
0000
,
0000
0000
0000
0000
,
0001
0000
0001
0000
0001
0000
0100
0010
,
1000
0000
0100
1000
0000
1000
0000
0100
,
0010
0001
0000
0010
0000
0100
0000
1000
,
1000
0000
0010
1000
0000
0002
0000
0000
,
1003
0000
1000
0000
1000
0000
0100
0010
,
0001
0000
0100
0010
0000
0010
0000
0100
,
0001
1000
0000
0100
0000
1000
0000
0100
,
0100
0000
1000
0100
1000
0000
0001
0100
,
0002
0000
0000
0003
2000
0000
0000
3000
,
0020
0000
0000
0030
0100
0001
0100
0000
,
0010
1000
0010
0000
1000
0100
1000
0000
,
0001
0010
0001
0000
1000
0001
1000
0010
,
2000
0000
0000
3000
0002
0000
0000
0003
,
0200
0000
0000
0300
0010
1000
0010
0000
,
1000
0100
1000
0000
0100
0010
0100
0000
,
0010
0001
0010
0000
0100
1000
0001
0000
,
0001
0101
0001
1000
,
1000
0000
1100
0000
1000
0100
0010
0000
,
0001
0011
0001
1000
,
0010
0000
1010
0000
1000
0001
0010
0000
,
0100
0000
0110
0000
0100
0010
0001
0000
,
0010
0000
0011
0000
0001
1000
0010
0000
,
0100
0001
1000
0000
0100
0010
0001
0020
,
0000
0000
0000
0030
0000
1000
0000
0100
,
0000
0000
1100
0000
0000
0001
0000
0100
,
0000
0000
0101
0000
0000
0001
0000
0010
,
0000
0000
0011
0000
0000
1000
0000
0010
,
0000
1010
0000
0010
,
1000
0100
1000
0001
,
0100
0001
0100
0001
0000
0000
0001
0000
,
0100
0001
1000
0001
,
0010
0100
1000
0100
0000
1000
0000
1000
,
0100
0000
0000
1100
0000
0000
0001
0000
,
0100
0000
0000
0101
0000
0000
0001
1000
,
0010
0000
0000
1010
0000
0000
1000
0000
,
0001
0000
0000
1001
0000
0000
0001
0010
,
0100
0000
1000
0000
0100
0100
0010
0000
,
0001
0100
0001
0100
0000
0000
0001
0100
,
0010
0000
1000
0000
0010
0010
0100
0000
,
0001
0100
0001
0100
0000
0000
0001
0000
,
0002
0000
0003
0200
0000
0300
0010
0000
,
1000
0010
1000
0010
1000
0000
0100
0000
,
2000
0000
3000
0200
0000
0300
1000
0000
,
0001
1000
0001
1000
0001
0000
0100
0000
,
0002
0000
0003
2000
0000
3000
0010
0000
,
2000
0000
3000
0002
0000
0003
0010
0000
,
0100
0010
0100
0010
0100
0010
0100
0000
,
1000
0001
1000
1001
0000
0000
0000
0000
,
0220
0000
0330
2002
0000
0000
3003
0000
,
0001
1000
0001
0010
0100
0000
1000
1000
,
0200
0000
0300
2002
0000
0000
3003
0000
,
1000
0100
1000
0001
0010
0000
0100
0100
,
0220
0000
0330
2002
0000
0000
3003
0000
,
0001
0100
0010
0100
0001
0000
1000
0100
,
0020
0000
0030
2002
0000
0000
3003
0000
,
0001
0010
0001
1000
0100
0000
0100
0000
,
0010
0001
0100
0000
0100
0001
0010
0000
,
0010
0001
1000
0100
1000
0000
1000
0000
,
0010
1000
0100
0000
0100
1000
0010
0000
,
0010
1000
0001
1000
0100
0000
0010
0000
,
0010
0001
0010
0000
0001
0100
0001
0000
,
1000
0010
1000
0100
0000
1000
0100
0000
,
1000
0100
1000
0000
0010
1000
0010
0000
,
1000
0010
1000
0100
0000
0000
2000
0000
,
0002
0000
0000
0000
,
3003
0000
0000
0000
;

//---------------dance-single - ----------------
#NOTES:
     dance-single:
     :
     Easy:
     6:
     0.219180,0.255710,0.021918,0.153426,0.000000,210.000000,207.000000,3.000000,21.000000,0.000000,0.000000,0.219180,0.255710,0.021918,0.153426,0.000000,210.000000,207.000000,3.000000,21.000000,0.000000,0.000000:
0000
0000
0000
0000
,
0000
0000
0000
0000
,
0000
0000
0000
0000
,
0000
0000
0000
0000
,
0000
0000
0000
0000
,
1000
1000
0001
0000
,
1000
0000
0100
0000
,
0010
0010
0001
0000
,
1000
0000
0001
0000
,
1000
1000
0010
0000
,
0100
0000
0001
0000
,
0001
0001
1000
0000
,
0010
0000
0100
0000
,
0001
0000
0010
0000
,
0100
0000
1000
1000
,
0001
0010
0001
0001
,
1000
0010
1000
1000
,
0100
0000
0010
0000
,
0001
0000
0001
0001
,
0010
0100
1000
1000
,
0010
0100
0001
1000
,
0001
0100
0001
1000
,
0020
0030
1000
0100
,
1000
0010
1000
0001
,
0020
0030
0001
0010
,
0100
0010
0001
1000
,
0020
0030
1000
0001
,
0010
0010
0010
0010
,
0010
0000
0000
1000
,
0001
1000
0000
0001
,
0100
0001
0000
0010
,
0100
0010
0000
0001
,
0100
0001
0000
0001
,
0010
0001
0100
0000
,
0100
0001
0010
0000
,
0001
1000
0010
0000
,
0010
1000
0100
0000
,
0100
0100
1000
0001
,
0100
0010
0000
0010
,
0100
0100
0001
0010
,
0100
1000
0000
0001
,
0010
0010
0001
1000
,
0001
0000
0100
0001
0000
0000
0001
0000
,
1000
1000
0100
1000
,
0010
0000
1000
0001
0000
0000
0001
0000
,
0002
0003
0200
0300
,
0020
0030
2000
3000
,
0002
0003
0020
0030
,
0200
0300
2000
3000
,
0001
0100
0010
1000
,
0001
0010
0100
0010
,
0001
0100
0100
0010
,
0110
0000
0000
1001
0000
0000
0000
0000
,
2000
3000
0002
0003
,
1000
0001
1000
0000
0010
0000
0000
0000
,
2000
3000
0020
0030
,
1000
0010
1000
0000
0100
0000
0010
0000
,
0002
0003
0200
0300
,
0001
0100
0001
0000
1000
0000
0010
0000
,
0200
0300
0002
0003
,
0001
1000
0001
0000
0001
0000
0001
0000
,
0010
0001
0100
0001
,
1000
0100
1000
0010
,
1000
0010
1000
0100
,
0010
0001
0100
0010
,
1000
1000
0001
0001
,
1000
0000
0100
1000
0000
0000
0000
0000
,
0001
0001
1000
1000
,
0010
0000
1000
0100
0000
0000
0000
0000
,
2002
0000
0000
0000
,
3003
0000
0000
0000
;

//---------------dance-double - ----------------
#NOTES:
     dance-double:
     :
     Hard:
     12:
     0.376780,0.453702,0.138814,0.131508,0.000000,361.000000,342.000000,19.000000,18.000000,0.000000,0.000000,0.376780,0.453702,0.138814,0.131508,0.000000,361.000000,342.000000,19.000000,18.000000,0.000000,0.000000:
00000000
00000000
00000000
00000000
,
00000000
00000000
00000000
00000000
,
00000000
00000000
00000000
00000000
,
00000000
00000000
00000000
00000000
,
00000000
00000000
00000000
00000000
,
00001000
00000000
00001000
00000000
00010000
00000000
00001000
00200000
,
00000000
00000000
00000000
00000000
00300000
00000000
00010000
00100000
,
01000000
10000000
01000000
00010000
00000000
00001000
00000000
00022000
,
00000000
00033000
00000000
00000000
,
00010000
00000000
00010000
00000000
00001000
00010000
00000000
00000020
,
00000000
00000000
00000000
00000000
00000030
00000000
00001000
00000010
,
00000100
00000001
00000100
00001000
00000000
00010000
00000000
00011000
,
00000000
00000000
00010000
00001000
00100000
00010000
01000000
00200000
,
00000000
00000000
00300000
10000000
02000000
00000000
03000000
10000000
,
00200000
00000000
00300000
01000000
00010000
01000000
00010000
10000000
,
00100000
10000000
00010000
00100000
,
01000000
10000000
01000000
00010000
,
00002000
00000000
00003000
00010000
00000020
00000000
00000030
00000100
,
00000002
00000000
00000003
00000100
00000001
00001000
00000100
00000010
,
00000001
00000100
00000001
00001000
,
00000100
00000000
00010000
00000000
00001000
00000000
00100000
00010000
,
00000000
01000000
00000000
00000000
00100000
10000000
01000000
20000000
,
00000000
00000000
30000000
00000000
00010000
01000000
00010000
20000000
,
00000000
30000000
01000000
01000000
00100000
01000000
10000000
00010000
,
00000000
00100000
00000000
00001000
00100000
00001000
00010000
00002000
,
00000000
01003000
00000000
00000000
00001000
00010000
00001000
00200000
,
00000000
00000000
00300000
00001000
00010000
00000100
00001000
00000010
,
00000100
00000100
00000001
00000001
00001000
00000100
00000010
00000002
,
00000000
00000000
00000000
00000003
00000000
00000001
00000100
00001000
,
00000000
00000000
00001000
00000000
00000000
00010000
01000000
10000000
,
00000000
00000000
10000000
00000000
00000000
10000000
00100000
00010000
,
00000000
00000000
00010000
00000000
00000000
00001000
00000010
00000001
,
00000000
00000000
00000001
00000000
00000000
00000001
00000100
00000010
,
00000000
00000010
00000100
00000100
00001000
00000100
00000001
00001000
,
00000100
00010000
00001000
00010000
00000000
00001000
01000000
00100000
,
00000000
00100000
10000000
10000000
00010000
10000000
01000000
10000000
,
01000000
00100000
00001000
00010000
00000000
00000000
00001000
00010000
,
00000010
00000000
00000010
00010000
00000000
00000000
00010000
00001000
,
00100000
00000000
00100000
00001000
00000000
00000000
00001000
00010000
,
00000100
00000000
00000100
00010000
00000000
00000000
00010000
00001000
,
01000000
00000000
01000000
00001000
00000000
00001000
00001000
00001000
,
00010000
00000000
00000000
00001100
00000000
00000000
00010000
00000000
,
00001000
00000000
00000000
01010000
00000000
00000000
00001000
00010000
,
00001000
00000000
00000000
00110000
00000000
00000000
00001000
00000000
,
00010000
00000000
00000000
00001010
00000000
00001000
00000010
00001000
,
00000001
00000010
00000001
00001000
00000001
00000010
00000001
00001000
,
00000010
00001000
00000001
00001000
00000010
00001000
00000001
00001000
,
00000100
00010000
00001000
00010000
00000100
00010000
00001000
00010000
,
00001000
01000000
00010000
01000000
00001000
01000000
00010000
01000000
,
00100000
10000000
01000000
10000000
00100000
10000000
01000000
10000000
,
01000000
00010000
01000000
10000000
01000000
00010000
01000000
10000000
,
01000000
00010000
00001000
00000010
00000001
00000100
00001000
00000100
,
00000010
00010000
00001000
00022000
00000000
00000000
00033000
00000000
,
00001000
00000000
00100000
02000000
00000000
03000000
10000000
00000000
,
01000000
10000000
01000000
10000000
01000000
00000000
40000000
00000000
,
31000000
00000000
00100000
00010000
00000000
00000000
01010000
00000000
,
00010000
01000000
00001000
01000000
00010000
01000000
00100000
00100000
,
10000000
00000000
01000000
00010000
00000000
00000000
01000000
00000000
,
00100000
00010000
01000000
00001000
00010000
00000000
00000100
00001000
,
00000010
00000000
00000100
00000001
00000000
00000000
00001000
00000000
,
00000001
00000010
00000100
00001000
00000100
00010000
00001000
00100000
,
00000000
00000000
00110000
00000000
00011000
00001000
00010000
00000010
,
00000000
00000000
00001010
00000000
00011000
00010000
00001000
01000000
,
00000000
00000000
01010000
00000000
00011000
00001000
00010000
00000100
,
00000000
00000000
00001100
00000000
00001001
00000000
00000101
00000001
,
00000010
00000001
00001000
00000010
00000100
00001000
00010000
01000000
,
00100000
00010000
01000000
00010000
00000000
10000000
00010000
00100000
,
01000000
10000000
00010000
01000000
00100000
10000000
01000000
00100000
,
00010000
01000000
00001000
00010000
00000000
00000000
00011000
00000000
,
01000100
00000000
00000000
00000000
;
