#TITLE:Addict;
#SUBTITLE:(Cherri Bomb ver.);
#ARTIST:Silva Hound ft. Michael Kovach and Chi-Chi;
#TITLETRANSLIT:;
#SUBTITLETRANSLIT:;
#ARTISTTRANSLIT:;
#GENRE:House;
#CREDIT:;
#MUSIC:Addict (Cherri Bomb ver).ogg;
#BANNER:Addict (Cherri Bomb ver).png;
#BACKGROUND:Addict (Cherri Bomb ver)-bg.png;
#CDTITLE:;
#SAMPLESTART:78.033;
#SAMPLELENGTH:15.000;
#SELECTABLE:YES;
#OFFSET:0.000;
#BPMS:0.000=128.000;
#STOPS:41.500=0.937
,129.000=0.937
;
#LASTBEATHINT:300.000000;
#BGCHANGES:0.000=Addict (Cherri Bomb ver).avi=1.000=1=0=0=StretchNoLoop==CrossFade==,
99999.000=-nosongbg-=1.000=0=0=0=StretchNoLoop====
;
#FGCHANGES:;

//--------------- dance-single - ----------------
#NOTES:
     dance-single:
     :
     Challenge:
     12:
     0.379652,0.424266,0.128157,0.229333,0.010118,394,375,19,34,4,0,0.379652,0.424266,0.128157,0.229333,0.010118,394,375,19,34,4,0:
0000
0000
0000
0000
,
0000
0000
0000
0000
,
0000
0000
0000
0000
,
0000
0000
0000
0000
,
0000
0000
0000
0000
,
0002
0103
0002
0013
,
0100
1000
0100
1000
0001
0000
1000
0010
,
0200
0301
0200
0310
,
1000
0010
0100
0001
0200
0000
0300
0000
,
0010
0000
1000
0000
0100
0000
1000
0100
,
0000
0010
0000
MM00
0001
0000
0010
0000
,
0100
0000
1000
0100
1000
0000
0001
0100
,
0000
0001
0000
0001
0010
0000
0001
0000
,
0001
0000
1000
0010
1000
0000
0010
0100
,
0000
0100
0000
0001
0100
0000
0001
0000
,
0010
0000
0100
1000
0100
0000
1000
1000
,
1000
0100
0010
0002
1000
0000
0000
0203
,
0000
0000
0320
0000
1000
0030
0000
0100
,
0000
0000
0010
0010
0002
0000
0000
2003
,
0000
0000
3100
0000
0020
0000
0000
0001
,
0030
0000
0010
0100
2000
0000
0000
0100
,
3000
0000
1000
0000
0002
0000
0000
0100
,
0003
0000
0001
0001
2000
0000
0000
0002
,
3000
1003
0001
1000
,
0010
0100
0010
1000
,
0100
1100
1000
0100
,
0010
0110
0010
0001
,
0100
0101
0001
0010
,
0100
0010
0100
0010
0100
0000
1000
0000
,
1000
0001
1000
0001
1000
0000
0100
1000
,
0100
0010
0001
0010
0010
0001
0010
0100
,
1000
0010
0100
0002
2000
0000
0000
0000
,
0000
0000
0MM0
3003
0000
1000
0100
0010
,
0000
0001
0001
0000
0000
0001
0100
0010
,
0000
1000
1000
0000
0000
1000
0010
0100
,
0000
0001
0001
0000
0000
0001
0010
0100
,
0000
1000
1000
0000
0000
0001
0100
0002
,
0000
0003
2000
0000
3200
0000
0302
0000
,
0203
0000
1300
1000
0000
1000
0100
2000
,
0000
3000
0002
0000
0023
0000
2030
0000
,
3020
0000
0031
0001
0000
1000
1000
0100
,
1100
0000
0100
1000
0100
0000
1100
0000
,
0011
0000
0010
0001
0010
0000
0010
0001
,
0101
0000
0001
0100
0001
0000
0101
0000
,
1010
0000
1000
0010
1000
0010
0010
0010
,
1010
0000
0100
0001
0100
0000
0101
0000
,
0011
0000
0100
1000
0100
0000
1000
0100
,
1100
0000
1000
0100
0010
0000
0011
0000
,
1001
0000
0001
0100
0010
0010
1000
1000
,
0100
0100
0010
0010
0001
0001
1000
1000
,
0010
0010
0100
0100
0001
0001
1000
1000
,
0100
0100
0010
0001
0100
0100
0001
0001
,
1000
1000
0010
0100
0001
0001
1000
1000
,
0001
0100
0010
1000
0001
0100
0010
1000
,
1000
0100
0010
0001
1000
0100
0010
0001
,
4000
0004
0000
0000
0000
0000
3003
0000
,
0001
1000
0001
1001
0000
0000
0000
0000
,
1000
0000
0010
0100
0000
0000
0101
0000
,
0100
0000
0001
0000
0100
0000
0001
0000
0100
0000
0000
0000
0001
0100
0001
0100
,
0001
0000
0010
0001
0000
0000
0011
0000
,
0010
0100
1000
0100
0010
1000
0010
0010
,
0001
0000
1000
0001
0000
0000
0100
0000
,
0010
1000
0010
1000
0200
0000
0310
0001
,
0100
0000
0010
1000
0000
0000
1010
0000
,
1000
0100
1000
0001
0010
0001
0010
0200
,
0000
1300
0010
1000
0100
1000
0010
0200
,
0000
0310
1000
0001
0010
0100
0010
0002
,
0000
1003
0010
0100
0010
0001
0010
2000
,
0000
3100
0010
1000
0010
0001
1000
0010
,
0100
0100
0010
0010
1000
1000
0100
0100
,
1000
0001
0010
0001
0000
0001
0010
0100
,
1000
0100
1000
1000
0001
0001
0100
0100
,
0010
0000
1000
0000
0001
0000
0010
0000
0100
0000
0000
0100
0010
0000
0002
0000
,
2000
0000
0000
0000
,
3003
0000
0000
0000
;
