#TITLE:ABSOLUTE EVIL;
#SUBTITLE:;
#ARTIST:Yuta Imai;
#TITLETRANSLIT:;
#SUBTITLETRANSLIT:;
#ARTISTTRANSLIT:;
#GENRE:EUPHORIC FRENCHCORE;
#CREDIT:;
#MUSIC:ABSOLUTE EVIL.ogg;
#BANNER:ABSOLUTE EVIL.png;
#BACKGROUND:ABSOLUTE EVIL-bg.png;
#CDTITLE:;
#SAMPLESTART:82.788;
#SAMPLELENGTH:15.000;
#SELECTABLE:YES;
#OFFSET:0.000;
#BPMS:0.000=200.000;
#STOPS:;
#BGCHANGES:0.000=ABSOLUTE EVIL.mp4=1.000=0=0=1,
417.500=ABSOLUTE EVIL-bg.png=1.000=0=0=1,
99999.000=-nosongbg-=1.000=0=0=0=StretchNoLoop====
;
#FGCHANGES:;

//--------------- dance-single - forcednature ----------------
#NOTES:
     dance-single:
     forcednature:
     Beginner:
     5:
     0,0,0,0,0:
0000
0000
0000
0000
,
0000
0000
0000
0000
,
0000
0000
0000
0000
,
0000
0000
0000
0000
,
0000
0000
0000
0000
,
0001
0000
0001
0000
,
1000
0000
1000
0000
,
0100
0000
0100
0000
,
0010
0000
0000
0000
,
1001
0000
0000
0000
,
0001
0000
0000
0000
,
1000
0000
0000
0000
,
0010
0000
0010
0000
,
0100
0000
0000
0000
,
0001
0000
0000
0000
,
1000
0000
1000
0000
,
1000
0000
0100
0000
,
0010
0000
0001
0000
,
0010
0000
0000
0000
,
0001
0000
0100
0000
,
0001
0000
0000
0000
,
1000
0000
0010
0000
,
1000
0000
0000
0000
,
0100
0000
1000
0000
,
0100
0000
0000
0000
,
0110
0000
0000
0000
,
0010
0000
0010
0000
,
0010
0000
0000
0000
,
0001
0000
0000
0000
,
2002
0000
0000
0000
,
0000
0000
0000
0000
,
0000
0000
0000
0000
,
3003
0000
0000
0000
,
1000
0000
0000
0000
,
0010
0000
0000
0000
,
0100
0000
0000
0000
,
0000
0000
0000
0000
,
0001
0000
0000
0000
,
0010
0000
0000
0000
,
0100
0000
0000
0000
,
0000
0000
0000
0000
,
1000
0000
0000
0000
,
0001
0000
0000
0000
,
0100
0000
0000
0000
,
0000
0000
0000
0000
,
0020
0000
0000
0000
,
0030
0000
0000
0000
,
2002
0000
0000
0000
,
0000
0000
3003
0000
,
0001
0000
0100
0000
,
0000
0000
0001
0000
,
1000
0000
0100
0000
,
0000
0000
1000
0000
,
0001
0000
0010
0000
,
0000
0000
0001
0000
,
1000
0000
0010
0000
,
0000
0000
1000
0000
,
0100
0000
0000
0000
,
0010
0000
0000
0000
,
0001
0000
0000
0000
,
1000
0000
0000
0000
,
0010
0000
0000
0000
,
0100
0000
0000
0000
,
0001
0000
0000
0000
,
1000
0000
0000
0000
,
0100
0000
0100
0000
,
0010
0000
0010
0000
,
0001
1000
0001
1000
,
0000
0000
0000
0000
,
1001
0000
1000
0000
,
0100
0000
0010
0000
,
0001
0000
0100
0000
,
0001
0000
1000
0000
,
0010
0000
1000
0000
,
0001
0000
0010
0000
,
0100
0000
1000
0000
,
0100
0100
0100
0000
,
0110
0000
0010
0000
,
0001
0000
1000
1000
,
1000
0000
0001
0000
,
0100
0000
0010
0000
,
1000
0000
0001
0000
,
0010
0000
0100
0000
,
1001
0000
1001
0000
,
0200
0000
0300
0000
,
0110
0000
0001
0000
,
1000
0000
0010
0000
,
1000
0000
0001
0000
,
0010
0000
0100
0000
,
1000
0000
0001
0000
,
0100
0000
0010
0000
,
1000
0000
1000
0000
,
0001
0000
0010
0000
,
0100
0000
1000
0000
,
0001
0000
0100
0000
,
0010
0000
1000
0000
,
0001
0000
0000
0000
,
0010
0010
0010
0000
,
0100
0100
0100
0000
,
1000
0001
1000
0001
,
0100
0100
0010
0000
,
2002
0000
0000
0000
,
0000
0000
3003
0000
;

//--------------- dance-single - t7r ----------------
#NOTES:
     dance-single:
     t7r:
     Easy:
     11:
     0,0,0,0,0:
0000
0000
0000
0000
,
0000
0000
0000
0000
,
0000
0000
0000
0000
,
0000
0000
0000
0000
,
0000
0000
0000
0000
,
1000
1000
0100
0100
,
0010
0010
0001
0001
,
0100
0000
0100
0000
0010
0100
0010
0000
,
2000
0001
0010
3001
,
1000
0100
1000
0001
,
1000
0000
0100
1000
0000
1000
0001
1000
,
0001
0100
0001
1000
,
0001
0000
0010
0100
1000
0000
1000
0000
,
0001
0000
0010
0000
0001
0000
1000
0001
,
1000
0010
1000
0002
,
0103
1000
0100
0010
,
1000
0000
0100
0000
0001
0000
0100
0010
,
0100
1100
0100
1100
,
0100
0000
1000
0001
1000
0010
1000
0000
,
0010
0000
1010
0000
0010
0000
1000
0001
,
1000
0000
0100
0010
0001
0000
0110
0000
,
0001
1000
0001
0000
0010
0000
0001
1000
,
0001
0000
0100
0001
1000
0100
1000
0000
,
0001
0000
0000
0001
0000
0000
0000
0000
1000
0000
0000
0000
1000
0000
0000
0000
,
0010
0001
0010
0100
,
0001
0000
0011
0000
,
1000
0000
1010
0000
,
0100
0000
0100
0000
0010
0100
0010
0000
,
0120
0001
0100
1030
,
0220
0000
0000
0000
,
0000
0000
0000
0000
,
0000
0000
0000
0000
,
0330
0000
0000
0000
,
2000
0000
0000
0000
,
0000
0000
0000
3000
,
0020
0000
0000
0000
,
0000
0000
0000
0030
,
0200
0000
0000
0000
,
0000
0000
0000
0300
,
0002
0000
0000
0000
,
0000
0000
0000
0003
,
2000
0000
3100
0000
,
0010
0000
0000
0000
,
0002
0000
0103
0000
,
0010
0000
0000
0000
,
2000
0000
0100
0000
,
3001
0000
0000
0000
,
0002
0000
0100
0000
,
1003
0000
0000
0000
0000
0100
0010
0000
,
1001
0000
0000
1000
0100
0000
0000
0010
,
0000
0010
0000
0010
0100
0000
0000
0000
,
1001
0000
0000
0001
0100
0000
0000
0010
,
0000
0010
0000
0010
0200
0000
0300
0000
,
0110
0000
0000
1000
0001
0000
0000
0010
,
0000
0010
0000
0010
0100
0000
0000
0000
,
0110
0000
0000
0000
0000
0000
0001
0000
1000
0000
0001
0000
0100
0000
0000
0100
,
0000
0100
0000
0000
0110
0000
0000
0000
,
2000
0000
3000
0100
,
0020
0000
0030
0002
0000
0003
0100
0000
,
0020
0001
0130
0000
,
0020
0000
0030
2000
0000
3000
0100
0000
,
0020
1000
0130
0000
,
2000
0000
3000
0020
0000
0030
0200
0000
,
0302
0000
0010
0000
1003
0000
0010
0100
,
0020
0000
2030
0000
,
3002
0010
0010
1000
,
2003
0010
0010
0001
,
3001
0100
0001
0000
1000
0100
1000
0000
,
0001
0100
0010
0010
,
1001
0000
1100
0000
1100
0000
1000
0001
,
0100
0000
0001
1000
0000
0001
0010
0000
,
0011
1001
1001
0001
,
0101
0000
0101
0000
0100
0010
0100
0000
,
1001
0000
0101
0000
0101
0000
0001
1000
,
0100
0000
1000
0001
0000
1000
0010
0000
,
1010
1001
1001
1000
,
0001
0100
0001
0100
0001
0000
1000
0000
,
0100
0010
0100
0000
1100
0000
1100
0000
,
1000
0000
0001
0010
0000
0001
1000
0000
,
1010
0000
1010
0000
1010
0000
0010
0100
,
0001
1000
0001
0000
0100
0000
0100
0000
,
0001
0000
0011
0000
0011
0000
0001
1000
,
0001
0000
1001
0000
1001
0000
1000
0100
,
2000
0100
3002
0010
,
1003
0020
0031
0110
,
1000
0000
0100
1000
0100
1000
0100
0000
,
1000
0000
0001
0100
0001
0100
0001
0000
,
1000
0000
0010
1000
0010
1000
0010
0000
,
0100
0000
0001
1000
0001
1000
0001
0000
,
0010
0000
0100
0010
0001
0010
0100
0000
,
0010
0000
0100
1000
0001
1000
0100
0000
,
1000
0000
0010
0100
0001
0100
0010
0000
,
0100
0010
0100
0000
0010
0000
1001
0000
,
0001
0010
0001
0010
0001
1000
0001
1000
,
0001
0010
0001
0010
0001
1000
0001
0000
,
1000
0010
1000
0010
1000
0001
1000
0001
,
1000
0100
0001
0100
,
1000
0010
1000
0010
0100
0010
0200
0000
,
0301
0010
0001
0010
0100
0010
0200
0000
,
1300
0100
0020
0000
0031
0100
0020
0000
,
1030
0010
0100
0001
0010
0100
1000
0001
,
2002
0000
0000
0000
,
0000
0000
3003
0000
;

//--------------- dance-single - forcednature ----------------
#NOTES:
     dance-single:
     forcednature:
     Medium:
     13:
     0,0,0,0,0:
0000
0000
0000
0000
,
0000
0000
0000
0000
,
0000
0000
0000
0000
,
0000
0000
0000
0000
,
0000
0000
0000
0000
,
0001
0100
0001
0100
,
0010
1000
0010
1000
,
0001
0010
0100
1000
0100
0010
0001
1000
,
0000
0020
0100
0130
,
0001
0101
1000
1010
,
0001
0000
0010
0100
1000
0100
0010
0000
,
0001
0000
1100
0000
1000
0000
0001
0100
,
0010
1000
0001
1000
0100
0010
0002
0000
,
0103
0100
0001
0000
1010
0000
1000
0100
,
0010
0000
0001
1000
0010
1000
0001
0000
,
0110
0000
0000
0110
0000
0000
0001
0000
1000
0100
0000
0010
,
0001
0000
1001
0000
0101
0000
1000
0010
,
1000
0000
0100
0010
0001
0000
0100
0010
,
1000
0000
0001
0001
0100
0010
1000
0010
,
0100
0000
0001
1000
0100
0000
0010
0001
,
1000
1000
1000
0000
0010
0100
0001
0000
,
0010
0100
1000
0000
0001
0000
1000
0010
,
0100
0000
0001
0010
0100
0010
0001
1000
,
0010
0000
0000
0010
0000
0000
0010
0000
1000
0000
0000
0000
0001
0000
0000
0000
,
0220
0300
0100
0130
,
0001
0000
0000
1000
0000
0000
0001
0000
0101
0000
0000
0000
1000
0000
0010
0000
,
1000
0000
0000
0001
0000
0000
1000
0000
0100
0000
0010
0000
0001
0000
0000
0000
,
0100
0100
0100
0010
2000
0000
3001
0010
,
0100
2000
0010
3010
,
2002
0000
0000
0000
,
0000
0000
0000
0000
,
0000
0000
0000
0000
,
3003
0000
0000
0000
,
0102
0000
0000
0000
0000
0003
0000
2000
,
0000
0000
3000
0000
0020
0000
0000
2030
,
0000
3200
0000
0000
0300
0000
0000
0000
,
0000
0000
0000
0010
,
0001
0000
0000
1000
0000
0000
0001
0000
0100
0000
0000
0010
0000
0000
2000
0000
,
0000
0000
3001
0000
1000
0000
0100
0020
,
0000
0032
0000
0000
0000
0003
0000
0000
,
0000
0000
0000
0000
,
0200
0000
0302
0000
0000
0000
1003
0020
,
0000
0000
0030
1000
0100
0000
0010
0002
,
0000
2003
0000
0000
0000
0000
3000
0000
,
0000
0000
0000
0010
,
0100
0000
0001
0000
0000
1000
0000
0000
0001
0000
0000
0010
0000
0000
0200
0000
,
0000
0000
0300
1000
,
0020
0000
0001
0000
0100
0000
1000
0000
0100
0000
0001
0000
,
0000
0000
0130
0000
0001
1000
1001
0000
,
1200
0000
0000
0010
0001
0000
0000
1000
,
0000
1000
0000
0010
0301
0100
0010
0001
,
0200
0000
0000
0010
1000
0010
0000
0001
,
0000
0001
0000
0010
1300
0100
0001
0010
,
0200
0000
0000
0001
1000
0000
0000
0010
,
0000
0010
0000
0001
1300
0100
0010
0001
,
0200
0000
0000
0000
0000
0000
0010
0000
1000
0000
0010
0000
0001
0000
0000
0001
,
0000
0000
0001
0000
0000
0001
0000
0000
0320
0000
0000
0000
2030
0000
0000
0000
,
3002
0000
0000
0000
0003
0010
0100
1000
,
0200
0000
0300
0020
0000
0030
0002
0000
,
2003
0000
0000
3000
,
0020
0000
0030
0200
0000
0300
0002
0000
,
2003
0000
0000
3000
,
0200
0000
0300
0020
0000
0030
0002
0000
,
0203
0000
0010
0000
0010
0000
0310
1000
,
0002
0010
0200
0303
,
0011
1001
0101
1001
,
1010
1001
1100
1001
,
1000
0100
0010
0001
1000
0010
0100
0001
,
0010
0200
0310
0110
,
1002
0000
0100
0000
1003
0010
0100
0001
,
0020
0000
1030
0020
0000
0031
2000
0000
,
3020
0001
0100
1030
,
0002
0000
0100
0000
1003
0001
0010
0010
,
0200
0000
0001
0000
0310
0100
1000
0001
,
2000
0000
3010
0002
0000
0013
1000
1000
,
0200
0001
0010
1300
,
0100
0010
0001
1000
0001
0100
1000
0000
,
0100
0001
2000
0000
3010
1000
0100
0010
,
0002
0000
0103
0010
1000
0100
0001
0100
,
0020
0000
1000
0000
0100
0000
0031
0010
,
0100
0000
0000
0100
0000
0000
1000
0000
0000
0000
0000
0000
0001
0000
0100
0000
0001
0000
0100
0000
0001
0000
0100
0000
,
0020
0000
0100
0000
1000
0000
0130
0010
,
2000
0000
3100
0010
0001
1000
0001
1000
,
2100
3010
0102
0013
,
0210
1000
0301
0110
,
0001
0100
0001
0010
0100
1000
0010
0000
,
0100
0001
1000
0100
1000
0001
0100
0100
,
0010
1000
0001
1000
0100
0010
0001
0000
,
0100
0010
1000
0001
0100
1000
0100
0001
,
0100
0000
0010
1000
0001
1000
0100
0000
,
0110
0000
0010
0001
1000
0001
0100
0000
,
0010
0010
0001
0010
2000
0000
3100
0010
,
0001
1000
0001
0100
1000
0100
0010
0000
,
1000
0100
0010
0001
1000
0100
0010
0001
,
1000
0010
0100
0001
1000
0010
0100
0001
,
0010
0100
1000
0001
0010
0100
1000
0001
,
0200
0010
0010
0310
,
0100
0001
1000
0010
0100
0001
1000
1000
,
0100
1000
0001
0010
0100
0001
0100
1000
,
0001
0100
2000
0000
3001
0010
2000
0000
,
3100
0100
0010
0010
0001
0100
1000
0100
,
0020
0000
0000
0000
,
0000
0000
0030
0000
;

//--------------- dance-single - 47R ----------------
#NOTES:
     dance-single:
     47R:
     Hard:
     16:
     0,0,0,0,0:
0000
0000
0000
0000
,
0000
0000
0000
0000
,
0000
0000
0000
0000
,
0000
0000
0000
0000
,
0000
0000
0000
0000
,
1100
0100
0010
0010
,
0001
0001
1000
1000
,
0001
0100
0001
0010
0100
1000
0010
1000
,
0000
0200
0320
0032
,
0103
0001
1000
0001
0010
0001
1000
0001
,
0100
0000
0010
0000
1000
0100
1000
0000
0001
0010
0001
0000
0100
0000
0100
0000
,
0001
0000
1000
0000
0010
0000
1000
0000
0001
0000
1000
0000
0100
0000
1000
0001
,
0010
0100
0001
0100
1000
0001
0010
0000
,
0001
0100
0010
1000
0001
0000
0010
0000
0100
0000
0010
0000
1000
0000
1000
0000
,
0010
0000
0001
0000
1000
0000
0001
0100
0000
0010
1000
0000
0001
0000
0000
0000
,
1000
0000
1000
0100
0000
0100
0010
0001
1000
0010
1000
0001
,
0100
0000
0101
0000
1010
0000
0001
0010
,
0100
0001
0100
0010
0100
1000
0001
1000
,
0010
0000
0001
0000
0010
0000
0100
0001
1000
0000
0100
0000
1000
0000
0010
0000
,
0001
0010
0100
0010
1000
0001
1000
1000
,
0001
0010
0001
0010
0100
0000
1000
0000
0001
0000
0001
0000
0000
0000
1000
0010
,
0100
0000
0001
0000
0101
0000
0000
0000
1000
0000
0010
0000
1000
0000
0100
0010
,
0001
0000
0000
0000
0100
0000
0010
1000
0001
0000
0010
0000
0100
0000
0010
0000
,
0001
0000
0000
0101
0000
0000
1010
0000
1000
0100
1000
0000
0001
0100
0001
0000
,
2002
0003
0010
3010
,
1000
0000
0100
1000
0100
0000
0010
0000
0011
0000
0000
0000
0100
0000
0001
1000
,
0001
0000
0000
0101
0000
0000
1010
0000
1000
0000
0001
0010
0100
0000
0000
0000
,
1000
0100
0010
0001
1000
0000
0001
1000
0020
0000
0000
0000
0130
0001
1000
0001
,
0010
0200
2300
3010
,
2002
0000
0000
0000
,
0000
0000
0000
0000
,
0000
0000
0000
0000
,
3003
0000
0000
0000
,
2000
0000
0100
0000
0001
0000
3010
0100
,
0000
0100
0000
0001
0010
0000
0001
1000
,
0000
0020
0000
0000
0031
0000
0010
0100
,
0000
0100
0000
0001
1000
0100
0010
0000
,
0002
0000
0000
0010
0000
0000
1000
0000
1000
0000
0000
0100
0000
0000
0013
0000
,
0000
0100
1000
0000
0001
0010
1000
0010
,
0000
0100
0010
0000
0100
0000
1000
0010
,
0000
0010
0000
0100
1000
0100
0010
0000
,
2000
0000
0010
0000
3002
0000
1003
0100
,
0000
0100
0000
0010
0100
0001
0100
0010
,
0000
0010
0000
0001
1000
0000
0010
1000
,
0000
1000
0000
0001
0100
0010
1000
0000
,
0100
0000
0010
0000
0000
1000
0000
0000
0010
0000
0100
0000
0000
0010
0000
0000
,
0000
0001
0100
0010
1000
0001
0010
0001
,
0100
0000
0010
0000
0000
0001
0000
0000
0010
0000
0100
0000
0000
0000
0002
0000
,
0000
0000
1000
0000
0103
0010
1001
0000
,
2100
0000
0000
0100
3001
0000
0000
0100
,
0000
0000
0100
0000
0000
0000
0100
0010
1000
0000
0000
0000
0000
0000
0000
0000
,
0102
0000
0000
0000
0000
0000
0103
0001
1000
0000
0100
0000
0000
0000
0100
0000
,
0000
0000
0100
0000
0000
0000
0100
0010
0002
0000
0203
0000
0320
0000
0230
0000
,
0302
0000
0000
0010
1003
0000
0000
0100
,
0000
0000
0100
0000
0000
0000
0100
0010
0001
0000
0000
0000
0000
0000
0000
0000
,
0202
0000
0000
0000
0303
0000
0010
1000
0010
0000
0010
0000
0100
0000
0000
0100
,
0000
0000
0001
0000
0000
0001
1000
0100
0020
0000
0000
0000
0032
0000
0000
0000
,
0203
0000
0001
0000
,
0001
0000
0001
0000
,
0320
0000
0100
0030
,
2000
0000
3000
0002
0000
0003
0020
0000
,
0230
1000
1000
1000
,
0320
0000
0030
0002
0000
0003
2000
0000
,
3020
0000
0100
0000
0100
0000
1030
0001
,
0020
0100
0002
0033
,
0011
1100
1010
1001
,
0101
0011
0110
1001
,
1000
0100
1000
0010
0100
0001
0010
0001
,
0100
0020
2030
3002
,
0013
0100
1000
0000
0001
0000
0100
0000
0010
0000
1000
0000
0100
0000
0001
0000
,
0100
0010
0001
0000
0100
0000
0001
0010
0100
0000
0010
0000
0001
1000
0010
0000
,
0100
0001
1000
0000
0100
0000
0010
0000
0100
0000
1000
0000
0010
0000
0100
0000
,
0001
1000
0100
0000
0010
0000
0001
0000
1000
0000
1000
0000
1000
0010
0100
0001
,
1000
0001
0010
0000
0100
0000
1000
0000
0001
0000
0100
0000
1000
0000
0100
0000
,
0010
1000
0001
0000
0100
0000
0001
1000
0010
0000
1000
0000
0100
0010
0001
0010
,
0100
1000
0001
0000
0100
0000
1000
0000
0100
0000
0001
0000
0010
0000
0000
0000
,
0100
1000
0100
0000
0010
0000
0010
0000
0001
0000
0100
0000
1000
0000
0100
0010
,
1000
0100
0001
0000
0100
0010
0001
1000
,
0010
0100
1000
0000
0100
0000
0010
1000
0001
0000
0010
0000
1000
0000
0010
0000
,
0001
1000
0100
0000
0010
0000
0001
0000
1000
0000
0001
0000
0100
0000
0100
0000
,
0010
0000
0000
0100
0000
0000
0010
0000
0000
0100
0000
0000
0010
0000
0000
0000
0000
0000
0000
0000
0000
0000
0000
0000
1000
0000
0000
0000
0100
0000
0000
0000
1000
0000
0000
0000
0001
0000
0000
0000
1000
0000
0000
0000
0001
0000
0000
0000
,
0200
0000
0001
1000
0000
0000
0000
0000
0001
0000
0000
0000
0310
0000
0100
0000
,
0110
0100
1000
0010
0100
0100
0010
0010
,
2001
0100
0002
3003
1002
0100
2000
3003
,
1001
0000
0010
0000
0210
0000
0000
0000
0301
1000
0100
0010
0001
0000
0000
0000
,
0100
1000
0100
0010
0100
0001
1000
0001
,
0010
1000
0010
0100
0010
0001
1000
1000
,
0100
0001
0100
0010
0100
1000
0001
1000
,
0010
0000
0001
0000
0010
0000
0100
0010
0100
0000
0100
0000
0001
0000
0001
0000
,
0010
1000
0010
0100
0010
0001
1000
0001
,
0100
1000
0100
0010
0100
0001
1000
1000
,
0100
0100
0100
0100
2001
0000
3010
0100
,
0001
1000
0100
0000
1000
0000
1000
0000
0001
0000
0100
0000
2010
0000
0000
0000
,
3001
0001
0001
0001
0010
0010
0100
0100
,
0001
0000
0001
0000
0001
0000
0001
0000
0100
0000
0100
0000
0010
0001
1000
0001
,
1000
1000
1000
1000
0010
0010
0100
0100
,
1000
0000
0100
0010
1000
0000
0100
0010
0002
0000
0203
0000
0320
0000
2030
0000
,
3001
0000
0001
0000
0001
0000
0001
0000
0010
0000
0010
0000
0100
0010
0001
1000
,
0001
0000
0001
0000
0001
0000
0001
0000
0100
0010
0100
0010
2000
0010
0000
3001
,
1000
0000
1000
0000
0100
0010
0100
0010
0100
0000
0100
0000
1000
0010
1000
0010
,
1000
0001
1000
0001
1000
0001
1000
0001
0100
0010
0100
0010
2000
0100
0000
3001
,
0020
0000
0000
0000
,
0000
0000
0030
0000
;

//--------------- dance-double - forcednature ----------------
#NOTES:
     dance-double:
     forcednature:
     Easy:
     11:
     0,0,0,0,0:
00000000
00000000
00000000
00000000
,
00000000
00000000
00000000
00000000
,
00000000
00000000
00000000
00000000
,
00000000
00000000
00000000
00000000
,
00000000
00000000
00000000
00000000
,
00001000
00001000
00010000
00010000
,
00000100
00000100
00001000
00001000
,
00000001
00000000
00000001
00000000
00000100
00000010
00000100
00000000
,
00002000
00010000
00010000
00103000
,
00001000
00010000
00001000
01000000
,
00010000
00000000
10000000
01000000
00000000
01000000
00100000
01000000
,
00100000
00010000
00100000
00001000
,
00010000
00000000
00000010
00001000
00000010
00000000
00000010
00000000
,
00000100
00000000
00000001
00000000
00001000
00000000
00000100
00010000
,
00000100
00001000
00000010
00020000
,
00031000
01001000
00001000
00101000
,
00200000
00000000
02300000
00000000
23000000
00000000
30010000
01000000
,
00010000
01010000
00010000
00110000
,
00010000
00000000
01000000
00010000
01000000
00000000
00001000
00000000
,
00010000
00000000
00010100
00000000
00010000
00000000
00000010
00001000
,
00000020
00000000
00000130
00000001
00000100
00000000
00001000
00000000
,
00010000
00001000
00010000
00000000
00100000
00000000
01000000
00010000
,
01000000
00000000
00100000
10000000
00010000
10000000
01000000
00000000
,
00100000
00000000
00000000
00100000
00000000
00000000
00100000
00000000
00010000
00000000
00000000
00000000
01000000
00000000
00000000
00000000
,
00002000
00000000
00100000
00103000
,
00001000
00000000
00000000
00001000
00000000
00000000
00010000
00000000
00000010
00000000
00000000
00000000
00000000
00000000
00000000
00000000
,
00010000
00000000
00000000
00010000
00000000
00000000
00001000
00000000
00100000
00000000
00000000
00000000
00000000
00000000
00000000
00000000
,
00001000
00010000
00000200
00001000
,
00000310
00000002
00002003
00003010
,
00002002
00000000
00000000
00000000
,
00000000
00000000
00000000
00000000
,
00000000
00000000
00000000
00000000
,
00003003
00000000
00000000
00000000
,
00002000
00000000
00000000
00000000
,
00000000
00000000
00003000
00000000
,
00000200
00000000
00000000
00000000
,
00000000
00000000
00000300
00000000
,
00020000
00000000
00000000
00000000
,
00000000
00000000
00030000
00000000
,
00002000
00000000
00000000
00000000
,
00000000
00000000
00003000
00000000
,
02000000
00000000
03010000
00000000
,
01000000
00000000
00000000
00000000
,
00200000
00000000
10300000
00000000
,
00100000
00000000
00000000
00000000
,
02000000
00000000
00010000
00000000
,
03001000
00000000
00000000
00000000
,
00022000
00000000
00000000
00000000
,
00000000
00000000
00000000
00033000
,
00011000
00000000
00000000
01000000
00010000
00000000
00000000
01000000
,
00000000
01000000
00000000
01000000
00001000
00000000
00000000
00000000
,
00011000
00000000
00000000
00000100
00001000
00000000
00000000
00000100
,
00000000
00000100
00000000
00000100
00000020
00000000
00000030
00000000
,
00011000
00000000
00000000
00100000
00010000
00000000
00000000
00100000
,
00000000
00100000
00000000
00100000
00001000
00000000
00000000
00000000
,
00011000
00000000
00000000
00000000
00000000
00000000
00000010
00000000
00001000
00000000
00000010
00000000
00010000
00000000
00000000
00010000
,
00000000
00010000
00000000
00000000
00011000
00000000
00000000
00000000
,
02000000
00000000
03000000
01000000
,
00020000
00000000
00030000
00200000
00000000
00300000
00001000
00000000
,
00020000
00000100
00031000
00000000
,
00002000
00000000
00003000
00000020
00000000
00000030
00000100
00000000
,
00000200
00001000
00010300
00000000
,
00020000
00000000
00030000
00002000
00000000
00003000
02000000
00000000
,
03020000
00100000
10030000
00010000
,
02000000
00000000
03002000
00000000
,
00023000
00000100
00000100
00001000
,
00001000
00000010
00000010
00031000
,
00010000
00000010
00010000
00000000
00001000
00100000
00001000
00000000
,
00010000
00200000
02300000
03100000
,
01100000
00000000
01000000
00000000
00010000
10000000
00010000
00000000
,
00100000
00000000
00001000
00010000
00000000
00000010
00001000
00000000
,
00002001
00000100
00000001
00003010
,
00010200
00000000
00001000
00000000
00010300
00001000
00010000
00000000
,
00011000
00000000
00001000
00000000
01000000
00010000
01000000
00000000
,
00100000
00000000
10000000
01000000
00000000
00100000
00010000
00100000
,
00002000
01000000
00010000
00103000
,
00001000
00010000
00001000
00010000
00001000
00000000
00000010
00000000
,
00000100
00001000
00000010
00000000
00000100
00000000
00000001
00001000
,
00000001
00000000
00000010
00000100
00000000
00001000
00000100
00000000
,
00020000
00000000
00000100
00000000
00001000
00000000
00030010
00010000
,
00001000
00001000
00001000
00000000
01000000
00000000
01000000
00000000
,
00020000
00000000
00100000
00000000
10000000
00000000
01030000
00010000
,
00100000
00000000
00001000
00010000
00000000
00010000
00000010
00010000
,
00002000
00003000
00020000
00030000
,
00022000
00000000
00000000
00033000
,
00010000
00000000
00000100
00001000
00000100
00001000
00000100
00000000
,
00000010
00000000
00000001
00000100
00000001
00000100
00000001
00000000
,
00000010
00000000
00001000
00010000
00001000
00010000
00001000
00000000
,
01000000
00000000
00100000
10000000
00100000
10000000
00100000
00000000
,
01000000
00000000
00001000
00010000
00000100
00010000
00001000
00000000
,
00100000
00000000
01000000
10000000
01000000
00100000
00010000
00000000
,
02000000
00000000
03200000
00000000
00320000
00000000
00031000
00010000
,
00002000
00003020
00000130
00001001
,
00000001
00000100
00000001
00000100
00000010
00001000
00000010
00001000
,
00000100
00010000
00000100
00010000
00001000
00100000
00010000
00000000
,
10000000
01000000
10000000
01000000
00100000
00010000
00100000
00010000
,
02000000
00010000
03001000
00010000
,
00000100
00001000
00000100
00001000
00000010
00010000
00002000
00000000
,
01003000
00010000
01000000
00010000
00200000
00000000
00302000
00000000
,
00013000
00000100
00020000
00000000
00031000
01000000
00002000
00000000
,
00103000
00001000
00010000
00001000
01000000
00010000
10000000
00100000
,
02000000
00000000
00000000
00000000
,
00000000
00000000
03000000
00000000
;

//--------------- dance-double - t7r ----------------
#NOTES:
     dance-double:
     t7r:
     Medium:
     13:
     0,0,0,0,0:
00000000
00000000
00000000
00000000
,
00000000
00000000
00000000
00000000
,
00000000
00000000
00000000
00000000
,
00000000
00000000
00000000
00000000
,
00000000
00000000
00000000
00000000
,
10000000
01000000
10000000
01000000
,
00100000
00001000
00010000
00010000
,
00001000
00000000
00000010
00000001
00000100
00000000
00001000
00010000
,
00000000
00002000
00010000
00013000
,
01000000
11000000
01000000
11000000
,
10000000
00100000
01000000
00010000
10000000
00000000
00020000
00000000
,
10030000
00000000
01000000
00000000
00010000
00000000
00001000
00010000
,
00001000
00000000
00000100
00000001
00001000
00000010
00002000
00000000
,
00003001
00000011
00000001
00001001
,
00000001
00000000
00000100
00000010
00001000
00000000
00000200
00000000
,
00010300
00011000
00001000
00011000
,
00010000
00000000
01000000
10000000
00010000
01000000
00100000
10000000
,
00010000
00100000
00001000
00000000
00010000
00000010
00001000
00000000
,
00000010
00000000
00000110
00000000
00000001
00000010
00000100
00000000
,
00001000
00000100
00010000
00000000
00001000
01000000
00010000
00000000
,
00100000
00100000
00100000
00000000
00010000
10000000
00100000
01000000
,
00100000
10000000
00100000
10000000
00010000
01000000
00010000
01000000
,
00001000
00000000
00101000
00000000
00001000
00010000
00001000
00000010
,
00000100
00000000
00000000
00000100
00000000
00000000
00000100
00000000
00010000
00000000
00000000
00000000
00001000
00000000
00000000
00000000
,
00022000
00030000
00010000
00013000
,
00001000
00000000
00000100
00000001
00001000
00000000
00000100
00010000
,
00001000
00000000
00010000
01000000
10000000
00000000
10010000
00000000
,
10000000
00100000
00010000
00000000
00001000
00000010
00000001
00000000
,
00000100
00002000
00010000
00013000
,
00022000
00000000
00000000
00000000
,
00000000
00000000
00000000
00000000
,
00000000
00000000
00000000
00000000
,
00033000
00000000
00000000
00000000
,
00200000
00000000
00000000
00000000
00000000
00000000
00000000
00310000
,
00000000
00010000
00000000
00000000
10000000
00000000
00100000
00010000
,
00000000
00002000
00000000
00000000
00000000
00000000
00000000
00000000
,
00003000
00000000
00000000
00000010
,
00000100
00000000
00001000
00000000
00000020
00000000
00000130
00000001
,
00000000
00000000
00000010
00000000
00000100
00000000
00010000
00001000
,
00000000
00020000
00000000
00000000
00000000
00000000
00000000
00000000
,
00030000
00000000
00000000
00000000
,
00001000
00000000
00010000
00000000
01000000
00000000
00100000
00001000
,
00000000
00010000
00000000
00001000
00000100
00000000
00000010
00000100
,
00000000
00000002
00000000
00000000
00000000
00000000
00000000
00000000
,
00000003
00000000
00000000
00000010
,
00000100
00000000
00010000
00000000
00001000
00000000
01000000
00020000
,
00000000
00000000
00000000
00130000
,
00002000
01000000
00010000
00000000
,
00103000
00000000
00001000
00000000
00010000
00001000
00010000
00000000
,
00021000
00000000
00000000
00031000
00000100
00000000
00000000
00000010
,
00000000
00000010
00000000
00000100
00000001
00000000
00000010
00000000
,
00002000
00000000
00000000
00013000
01000000
00010000
00000000
01000000
,
00000000
01000000
00000000
10000000
00100000
00010000
00002000
00000000
,
00023000
00000000
00000000
00031000
00000010
00000000
00000000
00000100
,
00000000
00000100
00000000
00000010
00000001
00000000
00000100
00000000
,
00002000
00000000
00000000
00000000
00000000
00000000
00013000
00000000
00100000
00000000
01000000
00000000
01000000
00000000
00000000
01000000
,
00000000
01000000
00010000
10000000
02000000
00000000
03200000
00000000
,
00320000
00000000
10000000
00000000
00100000
00000000
10030000
01000000
,
00200000
00000000
01300000
20000000
00000000
30100000
01000000
00000000
,
00200000
00010000
01000000
10300000
,
02000000
00000000
03010000
00002000
00000000
00003100
00000010
00000000
,
00000200
00001000
00000010
00000301
,
00000020
00000000
00000130
00000002
00000000
00000103
00000010
00000000
,
00000002
00000000
00000100
00000000
00001000
00000000
00000013
00000100
,
00020000
00000100
00032000
01000000
,
00013000
00011000
00011000
00011000
,
00000100
00011000
00011000
00011000
,
01000000
00010000
10000000
01000000
00100000
00010000
00100000
00001000
,
00010000
00001000
00000100
00000000
00000010
00000000
00001000
00000000
,
00001002
00000000
00000010
00000000
00001003
00000100
00000010
00000001
,
00000200
00000000
00001300
00000200
00000000
00000310
00001000
00000000
,
00000200
00000001
00000010
00001300
,
00000010
00000000
00000110
00000000
00000001
00000010
00001000
00010000
,
00002000
00000000
01000000
00000000
00013000
00001000
00010000
00100000
,
02000000
00000000
03010000
20000000
00000000
31000000
00100000
01000000
,
20000000
00100000
00010000
31000000
,
00100000
00001000
00100000
00001000
00010000
00001000
00010000
00001000
,
00000010
00000001
00001000
00000000
00001010
00000000
00000010
00000100
,
00000002
00000000
00000013
00000200
00000000
00001300
00000010
00001000
,
00000002
00000000
00000100
00000000
00001000
00000000
00000013
00000100
,
00010000
00000000
00000000
00001000
00000000
00000000
00010000
00000000
00000000
00001000
00000000
00000000
00010000
00000000
00000000
00000000
01000000
00000000
10000000
00000000
00000000
00000000
00100000
00000000
,
02000000
00000000
10000000
00000000
00100000
00000000
03010000
00100000
,
00002000
00000000
00013000
00000010
00000100
00000100
00000010
00001000
,
00000002
00000000
00000023
00000000
00002030
00000000
00013000
00100000
,
01000000
00010000
00200000
00000000
00301000
00010000
00001000
00000010
,
00000100
00001000
00000010
00000100
00000001
00001000
00000010
00000000
,
00000100
00000001
00000010
00000100
00001000
00000100
00010000
00010000
,
00001000
01000000
00010000
00100000
01000000
10000000
00100000
00000000
,
01000000
00010000
10000000
01000000
00100000
00001000
00010000
00010000
,
00001000
00000100
00000010
00001000
00000100
00000010
00001000
00000000
,
00010000
01000000
00100000
00010000
01000000
00100000
00010000
00010000
,
00001000
00000010
00000100
00000100
00020000
00000000
00031000
00010000
,
00100000
10000000
01000000
00100000
00010000
00010000
10000000
00000000
,
00100000
01000000
00100000
01000000
00010000
00010000
10000000
10000000
,
01000000
00100000
01000000
00010000
00001000
00001000
00010000
00010000
,
00001000
00000100
00001000
00000100
00000010
00000100
00000001
00000100
,
00000002
00000000
00000023
00000000
00000230
00000000
00001300
00000001
,
00001000
00001000
00000100
00000100
00010000
00010000
00002000
00000000
,
01003000
01000000
00010000
00010000
10000000
10000000
02000000
00000000
,
03100000
00001000
00020000
00000000
00031000
00000010
00000002
00000000
,
00000103
00001000
00010000
01000000
10000000
00010000
00100000
00001000
,
00020000
00000000
00000000
00000000
,
00000000
00000000
00030000
00000000
;

//--------------- dance-double - 47R ----------------
#NOTES:
     dance-double:
     47R:
     Hard:
     16:
     0,0,0,0,0:
00000000
00000000
00000000
00000000
,
00000000
00000000
00000000
00000000
,
00000000
00000000
00000000
00000000
,
00000000
00000000
00000000
00000000
,
00000000
00000000
00000000
00000000
,
00110000
00010000
10000000
10000000
,
01000000
01000000
00100000
00100000
,
00001000
00010000
00001000
00010000
00001000
00010000
00001000
00010000
,
00001000
00000200
00000302
00000023
,
00000031
00000100
00000001
00000100
00000010
00001000
00000010
00001000
,
00000100
00000000
00010000
00000000
00001000
00010000
00001000
00000000
00010000
00001000
00010000
00000000
00001000
00000000
00001000
00000000
,
01000000
00000000
00010000
00000000
01000000
00000000
00010000
00000000
01000000
00000000
00100000
00000000
01000000
00000000
00010000
00100000
,
00010000
10000000
01000000
00010000
01000000
00100000
00002000
00000000
,
00013000
00001000
00010000
00001000
00010000
00000000
00000000
00000000
00010100
00000000
00000000
00000000
00011000
00000000
00001000
00000000
,
00001000
00000000
00010000
00000000
01000000
00000000
00100000
01000000
00000000
01000000
10000000
00000000
00200000
00000000
00000000
00000000
,
10300000
00000000
10000000
00010000
00000000
00010000
10000000
01000000
10000000
00010000
01000000
00010000
,
00100000
00001000
00010000
00001000
00000010
00000100
00001000
00001000
,
00000001
00000100
00001000
00000100
00000001
00000100
00001000
00010000
,
01000000
00000000
10000000
00000000
01000000
00000000
00100000
01000000
00100000
00000000
00100000
00000000
01000000
00000000
01000000
00000000
,
10000000
00100000
00010000
00100000
10000000
00100000
00010000
00001000
,
00000010
00000100
00000010
00000100
00000010
00000000
00000001
00000000
00000100
00000000
00000100
00000000
00001000
00000000
00010000
00001000
,
00010000
00000000
01000000
00000000
10000000
00000000
01000000
00000000
00010000
00000000
01000000
00000000
00100000
00000000
00001000
00010000
,
00001000
00000000
00000100
00000000
00000001
00000000
00000100
00000010
00000100
00000000
00000100
00000000
00000001
00000000
00000001
00000000
,
00000010
00000000
00000000
00000011
00000000
00000000
00000001
00000000
00001000
00000100
00001000
00000000
00000100
00010000
00000100
00000000
,
00020000
00000010
00001000
00030100
,
00010100
00000000
00000000
00000100
00000000
00000000
00010000
00000000
00011000
00000000
00000000
00000000
00001000
00000000
01000000
00010000
,
01000000
00000000
00000000
01010000
00000000
00000000
00010000
00000000
10000000
00000000
01000000
00100000
00010000
00000000
00000000
00000000
,
10000000
00100000
10000000
00010000
10000000
00000000
01000000
00100000
00002000
00000000
00023000
00000000
00030100
00001000
00000100
00001000
,
00000001
00000100
00001000
00010000
,
00022000
00000000
00000000
00000000
,
00000000
00000000
00000000
00000000
,
00000000
00000000
00000000
00000000
,
00033000
00000000
00000000
00000000
,
00000200
00000000
00001000
00000000
00000010
00000000
00000301
00000100
,
00000000
00000100
00000000
00001000
00000010
00000000
00010000
00001000
,
00000000
00200000
00000000
00000000
00310000
00000000
00100000
01000000
,
00000000
01000000
00000000
10000000
00010000
01000000
00010000
00000000
,
02000000
00000000
00000000
00100000
00000000
00000000
00010000
00000000
00010000
00000000
00000000
00001000
00000000
00000000
03010000
00000000
,
00000000
01000000
00001000
00000000
00010000
00000100
00001000
00000100
,
00000000
00000010
00000001
00000000
00000100
00000000
00001000
00010000
,
00000000
00010000
00000000
00100000
01000000
00100000
10000000
00000000
,
00020000
00000000
00100000
00000000
02030000
00000000
03001000
01000000
,
00000000
01000000
00000000
00010000
00100000
01000000
00100000
00001000
,
00000000
00001000
00000000
00010000
00000010
00000000
00001000
00000100
,
00000000
00000100
00000000
00000010
00000001
00001000
00000010
00000000
,
00000100
00000000
00001000
00000000
00000000
00010000
00000000
00000000
00100000
00000000
00010000
00000000
00000000
00001000
00000000
00000000
,
00000000
00010000
00000100
00001000
00000010
00010000
00001000
00100000
,
01000000
00000000
00010000
00000000
00000000
00001000
00000000
00000000
00000010
00000000
00001000
00000000
00000000
00000000
00020000
00000000
,
00000000
00000000
00100000
00000000
00031000
00010000
00011000
00000000
,
00010200
00000000
00000000
00001000
00000010
00000000
00000000
00010000
,
00000000
00000000
00010000
00000000
00000000
00000000
00010300
00001000
01000000
00000000
00000000
00000000
00000000
00000000
00000000
00000000
,
01020000
00000000
00000000
00000000
00000000
00000000
10030000
00010000
00100000
00000000
01000000
00000000
00000000
00000000
01000000
00000000
,
00000000
00000000
01000000
00000000
00000000
00000000
01000000
10000000
00200000
00000000
20300000
00000000
32000000
00000000
03020000
00000000
,
00032000
00000000
00000000
00010000
00100000
00000000
00000000
00000100
,
00000000
00000000
00000100
00000000
00000000
00000000
00003100
00000001
00001000
00000000
00000000
00000000
00000000
00000000
00000000
00000000
,
00000102
00000000
00000000
00000000
00000000
00000000
00000103
00000010
00001000
00000000
00000100
00000000
00000100
00000000
00000000
00010000
,
00000000
00000000
00010000
00000000
00000000
00001000
00010000
00001000
00010000
00000000
00000000
00000000
02000000
00000000
00000000
00000000
,
23000000
00000000
00000000
00000000
30100000
01000000
00010000
00100000
,
00002000
00000000
00013000
00000020
00000000
00001030
00000002
00000000
,
00000023
00001000
00000100
00000031
,
00000200
00000000
00001300
00020000
00000000
01030000
10000000
00010000
,
02000000
10000000
00100000
03010000
,
00200000
00000000
00301000
00020000
00000000
00000000
00031000
00000000
,
00000200
00000000
00001000
00000000
00000010
00000000
00000301
00000010
,
00000200
00000000
00000001
00000000
00002300
00000000
00003001
00001000
,
00000001
00000011
00000001
00000101
,
00001000
00001010
00001000
00001100
,
00000100
00010000
00001000
00010000
01000000
10000000
00100000
01000000
,
00010000
00100000
00002000
00000000
00023000
00000000
00032000
00000000
,
00003100
00000010
00000100
00000001
00000010
00000100
00000010
00000001
,
00000100
00001000
00010000
00100000
01000000
00100000
10000000
01000000
,
00100000
01000000
00010000
01000000
00100000
01000000
10000000
00100000
,
00010000
00000000
00001000
00000000
00000010
00000000
00000100
00000000
00000010
00000000
00000010
00000000
00000001
00001000
00000001
00001000
,
00000001
00000100
00000010
00000100
00001000
00000100
00000010
00001000
,
00000100
00001000
00010000
01000000
00100000
10000000
00010000
00010000
,
10000000
01000000
00100000
01000000
00010000
00001000
00000010
00000100
,
00010000
00001000
00010000
00000000
00001000
00000000
00001000
00000000
00011000
00000000
00010000
00000000
00001000
00000000
00000100
00000010
,
00000100
00000001
00000011
00000000
00001001
00001000
00000100
00000010
,
00000011
00000001
00001000
00000100
00001100
00000100
00010100
00010000
,
00011000
00010000
01000000
10000000
00100000
01000000
00010000
10000000
,
00010000
00000000
00000000
01000000
00000000
00000000
00010000
00000000
00000000
01000000
00000000
00000000
00100000
00000000
00000000
00000000
00000000
00000000
00000000
00000000
00000000
00000000
00000000
00000000
10000000
00000000
00000000
00000000
01000000
00000000
00000000
00000000
00100000
00000000
00000000
00000000
01000000
00000000
00000000
00000000
00010000
00000000
00000000
00000000
00001000
00000000
00000000
00000000
,
00020000
00000000
00001000
01000000
00000000
00000000
00000000
00000000
00130000
00000000
00000000
00000000
00001000
00000000
00010000
00000000
,
00011000
00000000
00001000
00000010
00000100
00000001
00000100
00001000
,
00020100
00001000
00000020
00030030
01002000
00010000
00200000
00303000
,
00011000
00000000
00001000
00000000
02001000
00000000
00000000
00000000
03100000
01000000
00010000
01000000
00001000
00000000
00000000
00000000
,
01000000
10000000
01000000
00010000
00100000
01000000
00010000
00001000
,
00100000
00010000
00001000
00000100
00010000
00001000
00000100
00000100
,
00000010
00010000
00001000
00000010
00000100
00001000
00000001
00000100
,
00001000
00000000
00000100
00000000
00000010
00000000
00001000
00000001
00001000
00000000
00001000
00000000
00000100
00000000
00000100
00000000
,
00000010
00000001
00000100
00001000
00000100
00000010
00001000
00010000
,
01000000
00001000
00010000
01000000
00100000
00001000
00010000
00010000
,
00100000
00100000
00100000
00100000
20010000
00000000
30100000
10000000
,
01000000
00100000
00010000
00000000
01000000
00000000
01000000
00000000
00001000
00000000
00010000
00000000
00000200
00000000
00000000
00000000
,
00000310
00000010
00000010
00000010
00000001
00000001
00000100
00000100
,
00001000
00000000
00001000
00000000
00001000
00000000
00001000
00000000
00010000
00000000
00010000
00000000
00100000
01000000
00100000
01000000
,
00010000
00010000
00010000
00010000
10000000
10000000
01000000
01000000
,
00100000
00000000
00001000
00010000
00000010
00000000
00001000
00000010
00020000
00000000
00032000
00000000
00003200
00000000
00000320
00000000
,
00001030
00000000
00001000
00000000
00001000
00000000
00002000
00000000
00003100
00000000
00000100
00000000
00000010
00000001
00001000
00000001
,
00000100
00000000
00000100
00000000
00000100
00000000
00000100
00000000
00001000
00010000
00001000
00010000
00002000
00010000
00000000
01003000
,
00001000
00000000
00001000
00000000
00100000
00010000
00100000
00010000
00100000
00000000
00100000
00000000
01000000
10000000
01000000
10000000
,
00010000
01000000
00010000
01000000
00010000
01000000
00010000
01000000
00001000
00010000
00001000
00010000
00000200
00010000
00000000
00001300
,
00000020
00000000
00000000
00000000
,
00000000
00000000
00000030
00000000
;
