#VERSION:0.83;
#TITLE:A Thousand Miles;
#SUBTITLE:WITH LYRIC;
#ARTIST:Vanessa Carlton;
#TITLETRANSLIT:;
#SUBTITLETRANSLIT:;
#ARTISTTRANSLIT:;
#GENRE:;
#ORIGIN:;
#CREDIT:;
#BANNER:A Thousand Miles-banner.png;
#BACKGROUND:;
#PREVIEWVID:;
#JACKET:A Thousand Miles-jacket.png;
#CDIMAGE:;
#DISCIMAGE:;
#LYRICSPATH:A Thousand Miles.lrc;
#CDTITLE:;
#MUSIC:A Thousand Miles.ogg;
#OFFSET:-0.631000;
#SAMPLESTART:8.101000;
#SAMPLELENGTH:12.000000;
#SELECTABLE:YES;
#DISPLAYBPM:95.000000;
#BPMS:0.000=95.014,
47.000=94.795,
59.000=94.576,
71.000=94.358,
83.000=94.140,
91.000=93.923,
95.000=93.652,
99.000=93.382,
103.000=93.112,
107.000=92.844,
111.000=92.487,
115.000=92.132,
119.000=91.777,
123.000=91.249,
127.000=90.723,
131.000=89.681,
135.000=87.633,
139.000=85.631,
143.000=82.714,
147.000=79.897,
151.000=76.289,
155.000=72.007;
#STOPS:;
#DELAYS:;
#WARPS:;
#TIMESIGNATURES:0.000=4=4;
#TICKCOUNTS:0.000=4;
#COMBOS:0.000=1;
#SPEEDS:0.000=1.000=0.000=0;
#SCROLLS:0.000=1.000;
#FAKES:;
#LABELS:0.000=Song Start;
#BGCHANGES:-1.000=A Thousand Miles.avi=1.000=1=0=0=StretchNoLoop==CrossFade==,
99999=-nosongbg-=1.000=0=0=0 // don't automatically add -songbackground-
;
#KEYSOUNDS:;
#ATTACKS:
;

//---------------dance-single - ----------------
#NOTEDATA:;
#CHARTNAME:;
#STEPSTYPE:dance-single;
#DESCRIPTION:;
#CHARTSTYLE:;
#DIFFICULTY:Hard;
#METER:13;
#RADARVALUES:0.538400,0.491636,0.340896,0.000000,0.852241,398.000000,362.000000,36.000000,0.000000,0.000000,0.000000,0.000000,0.000000,0.000000,0.538400,0.491636,0.340896,0.000000,0.852241,398.000000,362.000000,36.000000,0.000000,0.000000,0.000000,0.000000,0.000000,0.000000;
#CREDIT:BGS's Ghost;
#DISPLAYBPM:140.000000;
#NOTES:
0000
0000
0000
0000
,
0000
0000
0000
0000
,
0000
0000
0000
0000
,
0000
0000
0000
0000
,
1000
0100
0010
0011
0000
0000
0000
0000
0001
0100
0010
1010
0000
0000
0000
0000
,
0010
0100
0001
1001
0000
0000
0000
0000
1000
0001
0010
0110
0000
0000
0000
0100
,
0010
0000
0001
0100
0000
0001
1000
0000
0001
0100
0001
0100
0001
0000
1000
0100
,
0010
0000
0100
1000
0000
0001
1000
0000
0010
0100
0001
0100
0010
1000
0001
1000
,
0010
0000
0000
0110
0000
0000
0000
0000
1000
0100
0010
0100
1000
0001
0100
0001
,
0010
0000
0000
0011
0000
0000
0000
0000
1000
0100
0010
0001
1000
0010
0100
0001
,
1000
0000
0000
1001
0000
0000
0000
0000
0001
0100
0010
0100
0001
0010
0100
0010
,
0001
0000
0000
1100
0000
0000
0000
0000
1000
0100
0010
0001
1000
0010
0100
0001
,
0010
0000
0000
0110
0000
0000
0000
0000
0100
1000
0001
1000
0010
1000
0001
1000
,
0100
0000
0000
0011
0000
0000
0000
0000
0001
0100
0010
0100
0001
1000
0100
1000
,
0010
0000
0000
0101
0000
0000
0000
0000
0001
0010
0100
1000
0100
0010
0001
1000
,
0010
0000
0000
1010
0000
0000
0000
0000
0010
0100
0001
1000
0001
0100
0010
0100
,
0001
0000
0000
0011
0000
0000
0000
0000
1000
0100
0010
1000
0010
0100
1000
0010
,
0100
0000
0000
0101
0000
0000
0000
0000
0001
0010
0100
1000
0001
0100
0010
1000
,
0001
0000
0000
0011
0000
0000
0000
0000
1000
0100
0010
0001
1000
0100
0010
0100
,
1000
0000
0000
1010
0000
0000
0000
0000
0010
0100
0001
1000
0001
0100
0010
1000
,
0001
0000
0000
0011
0000
0000
0000
0000
1000
0100
0001
0100
1000
0100
0001
0100
,
1000
0000
0000
1010
0000
0000
0000
0000
0010
0100
0001
1000
0010
1000
0100
0010
,
0001
0000
0000
0101
0000
0000
0000
0000
0100
0010
0100
0001
1000
0100
1000
0001
,
0100
0000
0000
0110
0000
0000
0000
0000
0010
1000
0001
0010
0001
1000
0010
0100
,
0001
0000
0000
0101
0000
0000
0000
0000
1000
0100
0010
0001
1000
0010
1000
0001
,
0010
0000
0000
0110
0000
0000
0000
0000
0100
1000
0010
1000
0100
1000
0010
1000
,
0100
0000
0000
1001
0000
0000
0000
0000
0001
0100
0001
1000
0100
1000
0001
0100
,
0001
0000
0000
0011
0000
0000
0000
0000
1000
0010
0100
0001
1000
0100
1000
0010
,
0100
0000
0000
0101
0000
0000
0000
0000
1000
0100
1000
0001
0100
0010
1000
0001
,
0010
0000
0000
0110
0000
0000
0000
0000
0100
1000
0001
1000
0100
0010
0001
1000
,
0010
0000
0000
0101
0000
0000
0000
0000
0100
0001
1000
0100
0010
0001
1000
0010
,
0100
0000
0000
0101
0000
0000
0000
0000
0001
1000
0100
1000
0100
1000
0001
0010
,
0001
0000
0000
0101
0000
0000
0000
0000
0100
0010
1000
0001
1000
0010
1000
0001
,
0010
0000
0000
1100
0000
0000
0000
0000
1000
0100
0010
0001
1000
0100
0010
0001
,
0010
0000
0000
0011
0000
0000
0000
0000
0001
0100
0010
0100
0001
1000
0100
0010
,
0001
0000
0000
1100
0000
0000
0000
0000
1000
0100
0010
0001
0100
0010
1000
0001
,
0010
0000
0000
0011
0000
0000
0000
0000
1000
0100
0001
0100
1000
0001
1000
0100
,
0010
0000
0000
1100
0000
0000
0000
0000
1000
0100
0010
0001
0100
0010
0100
0001
,
1000
0000
0000
1100
0000
0000
0000
0000
0100
0010
0001
0100
0010
1000
0010
0100
,
0001
0000
0000
0011
0000
0000
0000
0000
0001
0010
0100
0010
1000
0010
0100
0010
;

//---------------dance-single - ----------------
#NOTEDATA:;
#CHARTNAME:Shitpost;
#STEPSTYPE:dance-single;
#DESCRIPTION:;
#CHARTSTYLE:;
#DIFFICULTY:Challenge;
#METER:15;
#RADARVALUES:0.669618,0.756363,0.274611,0.000000,1.349381,495.000000,464.000000,29.000000,0.000000,24.000000,2.000000,0.000000,0.000000,0.000000,0.669618,0.756363,0.274611,0.000000,1.349381,495.000000,464.000000,29.000000,0.000000,24.000000,2.000000,0.000000,0.000000,0.000000;
#CREDIT:BGS's Ghost;
#DISPLAYBPM:95.000000;
#NOTES:
0000
0000
0000
0000
,
0000
0000
0000
0000
,
0000
0000
0000
0000
,
0000
0000
0000
0000
,
0001
0100
01M0
1000
0000
1100
0000
1101
0000
0000
0000
0001
0000
0011
0000
1011
,
0000
0000
0000
1000
0000
0100
0000
0010
0000
001M
1000
0100
0000
1100
0000
0100
,
0010
0001
1000
0010
0100
0001
0010
0100
1000
0001
0100
0010
1000
0000
0001
0100
,
0010
1000
0001
0010
0100
1000
0010
0100
0001
1000
0100
0010
0001
1000
0001
0100
,
0010
1000
0000
0010
0000
0010
1000
0100
0000
01M0
0001
1000
0100
0010
0100
1000
,
0001
0100
0000
0010
0000
M010
0001
0100
0000
0010
1000
0001
0010
1000
0010
0001
,
1000
0100
0000
0010
0000
0100
1000
0010
0000
1000
100M
0100
0001
1000
0100
0010
,
0001
0100
0000
0010
0000
0010
1000
0001
0000
0010
0100
1000
0100
0010
0100
1000
,
0010
0010
0000
0M10
0000
0001
0100
0010
0000
1000
0001
0010
0100
M100
0001
1000
,
0100
0010
0000
0100
0000
1000
0010
0100
0000
010M
1000
0010
0100
010M
1000
0010
,
0100
0001
0000
1001
0000
1000
0100
0001
0000
0001
0100
1000
0001
0100
1000
0100
,
0001
0010
0000
0011
0000
0001
0010
1000
0000
0001
0100
1000
0010
0001
0010
1000
,
100M
0100
0000
0001
0000
0010
0100
1000
0000
0010
0M10
0001
1000
0010
1000
0100
,
0010
0100
0000
1100
0000
1000
0001
0100
0000
0100
0001
0010
0100
1000
0001
0100
,
0010
1000
0000
0100
0000
1000
0001
0100
0000
0100
0010
0100
0001
1000
0100
0010
,
0001
0100
0000
0001
0000
M001
0010
1000
0000
0100
0010
0100
1000
0001
0100
0010
,
1000
0100
0000
101M
0000
0001
0100
0010
0000
1000
0100
1000
0001
0100
01M0
1000
,
0001
0100
0000
M011
0000
1000
0100
0010
0000
0001
1000
01M1
1000
0001
11M0
0001
,
0010
0100
0000
1000
0000
0010
0100
0001
0000
1000
0100
0001
1000
0010
0001
1000
,
0010
0001
0000
1000
0000
0100
0001
1000
0000
0100
0001
1000
0010
0001
1000
0010
,
0100
0010
0000
0110
0000
0100
0010
0100
0000
0010
M010
0001
0100
0010
1000
0100
,
0001
0100
0000
1000
0000
0001
0100
1000
0000
0100
0001
1000
0100
0001
0100
1000
,
0001
0100
0000
0010
0000
1000
0100
0010
0000
0001
0010
0100
1000
0010
0100
0001
,
1000
0100
0000
1100
0000
1000
0001
0100
0000
1000
0100
0010
1000
0100
0010
1000
,
0010
0100
0000
1000
0000
0010
0100
0001
0000
0010
0100
0001
0100
0010
0001
1000
,
0010
0100
0000
0101
0000
0001
1000
0100
0000
01M0
0001
1000
0100
01M0
0001
1000
,
0100
0100
0000
0100
0000
0100
0100
0100
0000
0100
0100
0100
0100
0100
0100
0100
,
0010
0001
0000
1000
0000
0010
0100
0001
0000
1000
0100
0010
0100
0001
0100
0010
,
0001
0100
0000
0101
0000
0100
0010
1000
0000
1000
0010
0100
0100
0010
1000
1000
,
0001
0010
0000
0100
0000
1000
0010
0100
0000
010M
1000
0001
0100
0001
1000
0100
,
1010
0101
0000
1010
0000
0101
1010
0101
0000
1010
0101
1010
0101
1010
0101
1010
,
0001
0100
0000
0010
0000
1000
0001
0010
0000
0100
1000
0001
00M1
0100
0010
0001
,
1000
0010
0000
0100
0000
0001
0010
0100
0000
1000
0001
0100
01M0
1000
0010
0100
,
0010
1000
0000
0001
0000
0010
0100
1000
0000
0010
0100
0001
1000
0100
0001
0100
,
1000
0001
0000
0100
0000
1000
0001
0010
0000
1000
0001
0010
0100
1000
0010
0100
,
010M
1000
0000
0001
0000
0100
0010
1000
0000
0001
0010
1000
0010
0001
1000
0010
;

//---------------dance-single - ----------------
#NOTEDATA:;
#CHARTNAME:;
#STEPSTYPE:dance-single;
#DESCRIPTION:;
#CHARTSTYLE:;
#DIFFICULTY:Medium;
#METER:9;
#RADARVALUES:0.304372,0.339831,0.000000,0.000000,0.203591,225.000000,225.000000,0.000000,0.000000,0.000000,0.000000,0.000000,0.000000,0.000000,0.304372,0.339831,0.000000,0.000000,0.203591,225.000000,225.000000,0.000000,0.000000,0.000000,0.000000,0.000000,0.000000,0.000000;
#CREDIT:BGS's Ghost;
#DISPLAYBPM:95.000000;
#NOTES:
0000
0000
0000
0000
,
0000
0000
0000
0000
,
0000
0000
0000
0000
,
0000
0000
0000
0000
,
1000
0100
1000
0100
0000
0000
0000
0000
0010
0001
0010
0001
0000
0000
0000
0000
,
0001
0100
0001
0100
0000
0000
0000
0000
0010
1000
0010
1000
0000
0000
0000
0000
,
0001
0000
1000
0001
0000
0000
0100
0000
0001
0000
0100
0000
0010
0000
1000
0000
,
0100
0000
1000
0100
0000
0000
0010
0000
0001
0000
0100
0000
0001
1000
0001
0000
,
0100
0000
0000
0010
0000
0000
0000
0000
1000
0000
0100
0000
0010
0000
0001
0000
,
1000
0000
0000
0010
0000
0000
0000
0000
0100
0000
0001
0000
0010
0000
0100
0000
,
1000
0000
0000
0001
0000
0000
0000
0000
0100
0000
0010
0000
0100
0000
0001
0000
,
1000
0000
0000
0100
0000
0000
0000
0000
1000
0000
0001
0000
0010
0000
0100
0000
,
1000
0000
0000
0010
0000
0000
0000
0000
0100
0000
0001
0000
0100
0000
0010
0000
,
1000
0000
0000
0001
0000
0000
0000
0000
0010
0000
0100
0000
1000
0000
0001
0000
,
0100
0000
0000
0001
0000
0000
0000
0000
1000
0000
0100
0000
0010
0000
0001
0000
,
0100
0000
0000
0010
0000
0000
0000
0000
1000
0000
0100
0000
0010
0000
0100
0000
,
1000
0000
0000
0010
0000
0000
0000
0000
0100
0000
0001
0000
0010
0000
0100
0000
,
1000
0000
0000
0010
0000
0000
0000
0000
0100
0000
0010
0000
1000
0000
0001
0000
,
0010
0000
0000
0100
0000
0000
0000
0000
1000
0000
0001
0000
0100
0000
0001
0000
,
1000
0000
0000
0100
0000
0000
0000
0000
1000
0000
0010
0000
0100
0000
0010
0000
,
0100
0000
0000
0001
0000
0000
0000
0000
0010
0000
0100
0000
0010
0000
0001
0000
,
1000
0000
0000
0010
0000
0000
0000
0000
0100
0000
0001
0000
0010
0000
0100
0000
,
1000
0000
0000
0001
0000
0000
0000
0000
0100
0000
0010
0000
1000
0000
0010
0000
,
0100
0000
0000
0001
0000
0000
0000
0000
0010
0000
0100
0000
1000
0000
0001
0000
,
0100
0000
0000
0001
0000
0000
0000
0000
1000
0000
0100
0000
0010
0000
0001
0000
,
1000
0000
0000
0100
0000
0000
0000
0000
1000
0000
0010
0000
0100
0000
0001
0000
,
0010
0000
0000
0001
0000
0000
0000
0000
0100
0000
0010
0000
0100
0000
0001
0000
,
1000
0000
0000
0100
0000
0000
0000
0000
0010
0000
0001
0000
0010
0000
0100
0000
,
1000
0000
0000
0001
0000
0000
0000
0000
0100
0000
0010
0000
1000
0000
0001
0000
,
1000
0000
0000
0100
0000
0000
0000
0000
0010
0000
0100
0000
1000
0000
0001
0000
,
0100
0000
0000
0010
0000
0000
0000
0000
0100
0000
0001
0000
0010
0000
0100
0000
,
1000
0000
0000
0001
0000
0000
0000
0000
0100
0000
0010
0000
0100
0000
0001
0000
,
1000
0000
0000
0001
0000
0000
0000
0000
0010
0000
0100
0000
1000
0000
0010
0000
,
0100
0000
0000
0001
0000
0000
0000
0000
1000
0000
0100
0000
1000
0000
0001
0000
,
0100
0000
0000
0010
0000
0000
0000
0000
1000
0000
0100
0000
0010
0000
0001
0000
,
1000
0000
0000
0001
0000
0000
0000
0000
0100
0000
0010
0000
1000
0000
0001
0000
,
1000
0000
0000
0001
0000
0000
0000
0000
0010
0000
0100
0000
1000
0000
0010
0000
,
0100
0000
0000
0001
0000
0000
0000
0000
0010
0000
0001
0000
0100
0000
0010
0000
,
1000
0000
0000
0001
0000
0000
0000
0000
0010
0000
0100
0000
0010
0000
0001
0000
,
1000
0000
0000
0010
0000
0000
0000
0000
0100
0000
0010
0000
0100
0000
0001
0000
;

//---------------dance-single - ----------------
#NOTEDATA:;
#CHARTNAME:;
#STEPSTYPE:dance-single;
#DESCRIPTION:;
#CHARTSTYLE:;
#DIFFICULTY:Easy;
#METER:5;
#RADARVALUES:0.219148,0.225844,0.151509,0.000000,0.018939,162.000000,146.000000,16.000000,0.000000,0.000000,0.000000,0.000000,0.000000,0.000000,0.219148,0.225844,0.151509,0.000000,0.018939,162.000000,146.000000,16.000000,0.000000,0.000000,0.000000,0.000000,0.000000,0.000000;
#CREDIT:BGS's Ghost;
#DISPLAYBPM:95.000000;
#NOTES:
0000
0000
0000
0000
,
0000
0000
0000
0000
,
0000
0000
0000
0000
,
0000
0000
0000
0000
,
1000
0000
0000
1000
0000
0000
0000
0000
0001
0000
0000
0001
0000
0000
0000
0000
,
1000
0000
0000
1000
0000
0000
0000
0000
0001
0000
0000
0001
0000
0000
0000
0000
,
0100
0000
0010
0000
1000
0000
0001
0001
,
0001
0000
0010
0000
0100
0000
1000
1000
,
1000
0001
0100
0101
,
0001
1000
0100
0010
,
0001
0100
0010
0110
,
1000
0001
1000
0100
,
0010
0001
0100
0101
,
0001
1000
0001
0010
,
0100
1000
0010
1010
,
0010
0100
0001
1000
,
0100
1000
0001
1001
,
1000
0010
0100
0001
,
0010
0100
0010
0011
,
0001
0100
0010
1000
,
0001
0010
0001
1001
,
1000
0001
0100
0010
,
0100
0001
0010
0011
,
1000
0100
1000
0010
,
0100
0010
1000
1001
,
0001
0010
0100
0010
,
0001
1000
0010
0110
,
0100
0001
1000
0100
,
0010
0100
1000
1001
,
0001
0100
0010
1000
,
0001
0010
0001
0101
,
0001
1000
0100
1000
,
0010
0100
0001
1001
,
1000
0100
0010
0100
,
1000
0001
0100
0101
,
1000
0010
0100
0001
,
1000
0001
0010
0011
,
0001
1000
0010
0100
,
0010
1000
0001
0101
,
0100
0001
1000
0100
;

//---------------dance-single - ----------------
#NOTEDATA:;
#CHARTNAME:;
#STEPSTYPE:dance-single;
#DESCRIPTION:;
#CHARTSTYLE:;
#DIFFICULTY:Beginner;
#METER:2;
#RADARVALUES:0.100104,0.130914,0.000000,0.000000,0.000000,74.000000,74.000000,0.000000,0.000000,0.000000,0.000000,0.000000,0.000000,0.000000,0.100104,0.130914,0.000000,0.000000,0.000000,74.000000,74.000000,0.000000,0.000000,0.000000,0.000000,0.000000,0.000000,0.000000;
#CREDIT:BGS's Ghost;
#DISPLAYBPM:95.000000;
#NOTES:
0000
0000
0000
0000
,
0000
0000
0000
0000
,
0000
0000
0000
0000
,
0000
0000
0000
0000
,
1000
0000
1000
0000
,
0001
0000
0001
0000
,
0100
0000
0001
0001
,
0001
0000
0010
0010
,
0010
0000
0001
0000
,
1000
0000
0001
0000
,
1000
0000
1000
0000
,
0010
0000
0010
0000
,
0100
0000
0001
0000
,
0001
0000
0001
0000
,
1000
0000
0100
0000
,
0010
0000
0100
0000
,
1000
0000
1000
0000
,
0001
0000
0100
0000
,
0010
0000
0100
0000
,
0100
0000
0001
0000
,
1000
0000
0100
0000
,
1000
0000
1000
0000
,
0001
0000
0010
0000
,
0001
0000
0100
0000
,
0100
0000
0010
0000
,
0100
0000
0001
0000
,
1000
0000
1000
0000
,
0100
0000
0100
0000
,
0010
0000
0100
0000
,
1000
0000
0001
0000
,
0001
0000
0100
0000
,
0010
0000
1000
0000
,
0010
0000
0100
0000
,
0010
0000
1000
0000
,
0001
0000
0010
0000
,
0100
0000
0100
0000
,
1000
0000
0001
0000
,
0100
0000
0001
0000
,
1000
0000
1000
0000
,
0001
0000
0001
0000
;

//---------------dance-double - ----------------
#NOTEDATA:;
#CHARTNAME:;
#STEPSTYPE:dance-double;
#DESCRIPTION:;
#CHARTSTYLE:;
#DIFFICULTY:Hard;
#METER:14;
#RADARVALUES:0.541105,0.491636,0.359835,0.000000,0.875914,400.000000,362.000000,38.000000,0.000000,0.000000,0.000000,0.000000,0.000000,0.000000,0.541105,0.491636,0.359835,0.000000,0.875914,400.000000,362.000000,38.000000,0.000000,0.000000,0.000000,0.000000,0.000000,0.000000;
#CREDIT:BGS's Ghost;
#DISPLAYBPM:95.000000;
#NOTES:
// measure 0
00000000
00000000
00000000
00000000
,  // measure 1
00000000
00000000
00000000
00000000
,  // measure 2
00000000
00000000
00000000
00000000
,  // measure 3
00000000
00000000
00000000
00000000
,  // measure 4
10000000
01000000
00100000
00010000
00000000
01010000
00000000
01001000
00000000
00000000
00000000
00010000
00000000
00011000
00000000
00010100
,  // measure 5
00000000
00000000
00000000
00000010
00000000
00000011
00000000
00001001
00000000
00001000
00000010
00000100
00000000
00000001
00000000
00001000
,  // measure 6
00000100
00000000
00010000
00001000
00000000
01000000
00010000
00000000
10000000
01000000
00100000
01000000
10000000
00000000
00010000
01000000
,  // measure 7
00100000
00000000
10000000
01000000
00000000
00100000
00010000
00000000
00100000
00001000
00010000
00000100
00001000
00000010
00000100
00000001
,  // measure 8
00000010
00000000
00000000
00001100
00000000
00000000
00000000
00000000
00010000
00001000
01000000
00010000
01000000
00001000
00010000
01000000
,  // measure 9
10000000
00000000
00000000
10100000
00000000
00000000
00000000
00000000
01000000
00010000
00100000
00001000
00010000
00000100
00000010
00000001
,  // measure 10
00000100
00000000
00000000
00000110
00000000
00000000
00000000
00000000
00000010
00010000
00000100
00001000
00000010
00000100
00000001
00000010
,  // measure 11
00001000
00000000
00000000
00011000
00000000
00000000
00000000
00000000
00010000
00100000
10000000
00010000
00100000
01000000
10000000
00100000
,  // measure 12
01000000
00000000
00000000
01001000
00000000
00000000
00000000
00000000
00001000
00010000
00000100
00000010
00001000
00010000
00000010
00000100
,  // measure 13
00000001
00000000
00000000
00000011
00000000
00000000
00000000
00000000
00000010
00000100
00001000
00000010
00010000
00000010
00001000
00000100
,  // measure 14
00010000
00000000
00000000
00101000
00000000
00000000
00000000
00000000
00100000
01000000
10000000
00100000
00010000
00001000
00000010
00000001
,  // measure 15
00001000
00000000
00000000
00001010
00000000
00000000
00000000
00000000
00000010
00000100
00000001
00001000
00000100
00010000
00001000
00100000
,  // measure 16
01000000
00000000
00000000
11000000
00000000
00000000
00000000
00000000
10000000
00100000
01000000
10000000
00010000
00100000
10000000
00010000
,  // measure 17
00100000
00000000
00000000
01100000
00000000
00000000
00000000
00000000
01000000
10000000
00010000
01000000
00100000
00010000
00100000
01000000
,  // measure 18
00001000
00000000
00000000
00101000
00000000
00000000
00000000
00000000
10000000
00001000
00010000
00000001
00001000
00000001
00010000
00001000
,  // measure 19
10000000
00000000
00000000
11000000
00000000
00000000
00000000
00000000
01000000
00100000
00001000
00010000
00000010
00001000
00000010
00000100
,  // measure 20
00000001
00000000
00000000
00000011
00000000
00000000
00000000
00000000
00000010
00000100
00010000
00001000
00000100
00000010
00010000
00001000
,  // measure 21
00100000
00000000
00000000
00110000
00000000
00000000
00000000
00000000
00010000
01000000
10000000
01000000
00100000
10000000
00010000
00100000
,  // measure 22
01000000
00000000
00000000
11000000
00000000
00000000
00000000
00000000
10000000
00100000
00010000
00001000
00000010
00000001
00000100
00001000
,  // measure 23
00010000
00000000
00000000
00010100
00000000
00000000
00000000
00000000
00000100
00000010
00001000
00000010
00000100
00001000
00000010
00000100
,  // measure 24
00000001
00000000
00000000
00000011
00000000
00000000
00000000
00000000
00000010
00000100
00010000
00001000
01000000
00100000
10000000
00010000
,  // measure 25
00100000
00000000
00000000
11000000
00000000
00000000
00000000
00000000
10000000
01000000
00010000
01000000
00100000
00001000
00010000
00000100
,  // measure 26
00001000
00000000
00000000
00001010
00000000
00000000
00000000
00000000
00000010
00000100
00000001
00001000
00000100
00000001
00000100
00001000
,  // measure 27
00000010
00000000
00000000
00000110
00000000
00000000
00000000
00000000
00000100
00000001
00001000
00000100
00010000
00001000
00000100
00000010
,  // measure 28
00001000
00000000
00000000
00001001
00000000
00000000
00000000
00000000
00000001
00000100
00001000
00010000
00100000
00010000
00001000
00000100
,  // measure 29
00000001
00000000
00000000
00000011
00000000
00000000
00000000
00000000
00000010
00000100
00010000
00001000
00100000
00010000
01000000
00100000
,  // measure 30
10000000
00000000
00000000
11000000
00000000
00000000
00000000
00000000
01000000
00100000
00010000
10000000
00100000
00010000
00100000
01000000
,  // measure 31
00010000
00000000
00000000
00110000
00000000
00000000
00000000
00000000
00100000
01000000
00010000
00001000
00010000
00100000
01000000
00010000
,  // measure 32
00100000
00000000
00000000
01100000
00000000
00000000
00000000
00000000
01000000
10000000
00100000
00010000
00001000
00000010
00000001
00000100
,  // measure 33
00000010
00000000
00000000
00010010
00000000
00000000
00000000
00000000
00010000
00001000
10000000
00010000
00100000
01000000
00100000
00001000
,  // measure 34
00000010
00000000
00000000
00000011
00000000
00000000
00000000
00000000
00000001
00000100
00000010
00010000
00001000
00100000
00010000
01000000
,  // measure 35
00100000
00000000
00000000
10100000
00000000
00000000
00000000
00000000
10000000
01000000
00100000
10000000
00010000
01000000
00100000
00010000
,  // measure 36
10000000
00000000
00000000
10100000
00000000
00000000
00000000
00000000
00100000
01000000
00001000
00010000
01000000
00100000
00001000
00010000
,  // measure 37
00001000
00000000
00000000
01001000
00000000
00000000
00000000
00000000
01000000
00001000
00010000
00000100
00000010
00000001
00000100
00000001
,  // measure 38
00000010
00000000
00000000
00000110
00000000
00000000
00000000
00000000
00000100
00001000
00000001
00000100
00001000
00010000
00100000
10000000
,  // measure 39
00010000
00000000
00000000
00110000
00000000
00000000
00000000
00000000
00100000
01000000
10000000
00010000
01000000
00100000
00010000
00001000
;
