#TITLE:Your Number's Up;
#SUBTITLE:;
#ARTIST:Ice Nine Kills;
#TITLETRANSLIT:;
#SUBTITLETRANSLIT:;
#ARTISTTRANSLIT:;
#GENRE:;
#CREDIT:Ben Fears;
#BANNER:Your Numbers Up [Ben Fears].png;
#BACKGROUND:Your Numbers Up [Ben Fears]-bg.png;
#LYRICSPATH:;
#CDTITLE:;
#MUSIC:Your Numbers Up [Ben Fears].ogg;
#OFFSET:-0.090000;
#SAMPLESTART:65.330910;
#SAMPLELENGTH:12.054000;
#SELECTABLE:YES;
#BPMS:0.000000=135.399994
,36.000000=136.500000
,46.000000=138.500000
,50.000000=140.000000
,52.000000=141.000000
,60.000000=141.500000
,63.000000=146.000000
,69.000000=137.000000
,72.000000=149.000000
,80.000000=150.000000
,84.000000=151.000000
,88.000000=152.000000
,91.000000=154.000000
,94.000000=155.000000
,96.000000=158.000000
;
#STOPS:
;
#BGCHANGES:-0.400=Your Numbers Up [Ben Fears].avi=1.000=0=0=1=====,
99999=-nosongbg-=1.000=0=0=0 // don't automatically add -songbackground-
;
#KEYSOUNDS:;
#ATTACKS:;

//---------------dance-single - ----------------
#NOTES:
     dance-single:
     :
     Hard:
     13:
     0.587084,0.681376,0.359308,0.321880,0.209597,549.000000,501.000000,48.000000,43.000000,0.000000,0.000000,0.587084,0.681376,0.359308,0.321880,0.209597,549.000000,501.000000,48.000000,43.000000,0.000000,0.000000:
// measure 0
0000
0000
0000
0000
,  // measure 1
0000
0000
0000
0000
,  // measure 2
0000
0000
0000
0000
,  // measure 3
0000
0000
0000
0000
,  // measure 4
2020
0000
3030
0000
,  // measure 5
0001
1000
0100
0100
,  // measure 6
0022
0000
0000
0033
,  // measure 7
0001
1000
0001
0000
1000
0100
1000
0000
,  // measure 8
0001
0100
0010
0010
,  // measure 9
1000
0100
0010
0010
,  // measure 10
0001
0010
0100
0000
1000
0010
0100
0000
,  // measure 11
0110
1001
0202
0303
,  // measure 12
2000
0001
3100
0000
,  // measure 13
0002
1000
0103
0000
,  // measure 14
1020
0130
0102
1003
,  // measure 15
1001
0000
0001
0200
0000
0320
0000
0000
,  // measure 16
1030
0001
1000
0001
0200
0000
0301
0010
,  // measure 17
0100
1000
0001
0000
0000
0000
0000
0000
,  // measure 18
1100
0000
0000
0011
0000
0000
2002
0000
,  // measure 19
3003
1000
0100
0010
0001
0010
0100
1000
,  // measure 20
1010
0000
0001
0101
0000
1000
2002
0000
,  // measure 21
3003
0001
1000
0010
0100
0001
1000
0000
,  // measure 22
1100
0000
0000
0011
0000
0000
2002
0000
,  // measure 23
3003
0001
0001
1000
1000
0010
0100
0001
,  // measure 24
0100
0000
0100
0000
0010
0000
0110
0000
0000
0000
1000
0001
1000
0000
1000
0000
,  // measure 25
0001
1001
0000
0000
0000
0000
0000
0000
,  // measure 26
1000
0000
0001
0100
0001
0000
0100
0010
0100
0000
0010
0000
1000
0000
0001
0000
,  // measure 27
1000
0200
0320
0032
0203
0320
2030
0000
,  // measure 28
3001
0000
0100
0001
0100
0000
0010
0000
1000
0000
0001
0000
1000
0000
0001
0000
,  // measure 29
0100
0010
1000
0001
1000
0100
0001
0100
,  // measure 30
1000
0000
0001
0100
0001
0000
0100
0000
0010
0000
1000
0000
0010
0000
0010
0000
,  // measure 31
1000
0000
0100
1000
0100
0000
1000
0000
0001
0000
0100
0000
0001
0000
0100
0000
,  // measure 32
0001
1000
0000
0001
1000
0000
0001
1000
0000
0001
1000
0000
0001
0100
0001
0100
,  // measure 33
0010
0000
1000
0000
0100
0000
0010
0000
0001
0000
1000
0000
0010
0100
0010
0100
,  // measure 34
0000
0001
1000
0001
0102
0000
1003
2010
,  // measure 35
0000
0000
3001
0000
1000
0100
1000
0000
0001
0000
1000
0010
0000
0010
0100
0000
,  // measure 36
0002
0000
1003
1010
0000
1001
0000
0101
,  // measure 37
2000
0000
0000
0000
3001
0000
1000
0000
0100
0000
0010
0000
0001
1000
0001
1000
,  // measure 38
0000
0001
0100
0010
1000
0100
0010
0001
,  // measure 39
1000
1000
0001
0001
0201
0000
0310
1000
,  // measure 40
1001
0001
1000
0010
0010
0100
0102
0000
,  // measure 41
0000
1000
1003
0000
0001
0010
0100
1000
,  // measure 42
0010
0100
0100
0010
1000
1000
0002
0000
,  // measure 43
1003
0100
0100
1000
0001
0100
0100
0001
,  // measure 44
1001
1000
0100
0010
0001
0010
0100
1000
,  // measure 45
0010
0100
0100
0001
0000
1001
1001
0000
,  // measure 46
0101
0000
0100
0000
0010
0000
1000
0000
0000
0000
0001
0000
1000
0000
0010
0100
,  // measure 47
0001
1000
0000
0001
0100
0001
1000
1000
,  // measure 48
1200
0000
0310
0001
0100
0000
0102
0000
,  // measure 49
1003
0001
0100
0010
1000
0001
0010
0000
,  // measure 50
0022
0000
0033
2200
0000
3300
2002
0000
,  // measure 51
3000
0000
0100
0000
0100
0003
0000
0000
1000
0000
0001
0000
1000
0000
0001
0000
,  // measure 52
1001
1000
0100
0010
0001
0100
0010
0100
,  // measure 53
0001
1000
0010
0000
1000
1000
0001
0001
,  // measure 54
0101
0100
0010
1000
0000
0100
1100
0100
,  // measure 55
0010
0000
0000
0011
0000
0000
0000
0000
0000
0000
0000
0000
0001
0000
1000
0000
0001
0000
1000
0000
0001
0000
1000
0000
,  // measure 56
0010
0100
0001
1000
0100
0010
0001
0010
,  // measure 57
0100
1000
0001
0100
0010
1000
0001
1000
,  // measure 58
0010
0100
0001
0010
0100
0010
0001
1000
,  // measure 59
0010
0000
0100
0000
0001
0000
1000
0000
0010
0000
0100
0000
0001
0000
1000
0001
,  // measure 60
0100
0010
1000
0100
1000
0010
0100
0001
,  // measure 61
0010
0100
0010
0001
1000
0010
0100
0001
,  // measure 62
0101
0100
0000
1010
1000
0000
1100
0100
,  // measure 63
0000
0000
0011
0000
0001
0000
1000
0001
1000
0000
0010
0000
0100
0000
0001
1000
,  // measure 64
0010
0100
0001
0010
0100
0010
0001
1000
,  // measure 65
0010
0000
0100
0000
0001
0000
0010
0000
0100
0000
1000
0000
0001
0100
0001
0100
,  // measure 66
0001
0100
0010
1000
0001
0010
0100
0010
,  // measure 67
0001
0000
1000
0000
0010
0000
0100
0000
0001
0100
0001
0000
1000
0100
1000
0000
,  // measure 68
0001
0010
0100
1000
0010
0100
0001
0100
,  // measure 69
0010
1000
0100
0010
0001
1000
0010
0100
,  // measure 70
0001
1000
0001
0100
0000
0000
1000
0001
,  // measure 71
1000
0000
0000
0000
,  // measure 72
1000
0100
1000
0100
0010
0000
0000
0000
0000
0000
0000
0000
0001
0100
0001
0100
,  // measure 73
0010
0000
0000
0000
0000
0000
0000
0000
0000
0000
0000
0000
0000
0000
0000
0000
0000
0000
1000
0000
0000
0000
0000
0000
0001
0000
0000
0100
0000
0000
0001
0000
0000
0000
0000
0000
1000
0000
0000
0000
0001
0000
0000
0000
1000
0000
0000
0000
,  // measure 74
0001
0100
0000
0000
0000
0000
0000
0000
1001
0000
0000
0001
0000
0000
0100
0000
,  // measure 75
0010
0000
0000
0000
1000
0000
0000
0000
0010
0000
0000
0000
1000
0000
0000
0000
0001
0000
0000
0000
1000
0000
0000
0000
0001
0000
0000
0100
0000
0000
0001
0000
0000
0000
0000
0000
1000
0000
0000
0100
0000
0000
1000
0000
0000
0000
0000
0000
,  // measure 76
0001
0010
0001
0010
0100
0000
0000
0000
0000
0000
0000
0000
1000
0010
1000
0010
,  // measure 77
0100
0000
0000
0000
0000
0000
0000
0000
0000
0001
0000
0000
1000
0000
0010
0000
0100
0000
0001
0000
0010
0000
0100
0000
,  // measure 78
1000
0000
0000
0000
0000
0000
0000
0000
1100
0000
1000
0002
0000
0000
0103
0000
,  // measure 79
0010
0000
0000
1010
0000
0000
0202
0000
0000
0000
0000
0000
0000
0000
0000
0000
,  // measure 80
0000
0000
0000
0000
,  // measure 81
0000
0000
0000
0000
,  // measure 82
0000
0000
0000
0303
;

//---------------dance-single - ----------------
#NOTES:
     dance-single:
     :
     Medium:
     9:
     0.397806,0.464574,0.209597,0.404222,0.011228,372.000000,344.000000,28.000000,54.000000,0.000000,0.000000,0.397806,0.464574,0.209597,0.404222,0.011228,372.000000,344.000000,28.000000,54.000000,0.000000,0.000000:
0000
0000
0000
0000
,
0000
0000
0000
0000
,
0000
0000
0000
0000
,
0000
0000
0000
0000
,
0002
0000
0103
0000
,
0002
0000
1003
0000
,
2000
0000
3100
0000
,
1000
0001
1000
0000
,
2000
0010
3010
0000
,
0002
0010
0013
0000
,
0001
1000
0010
0100
,
0001
1000
0002
0003
,
2200
3300
0001
0000
,
0202
0303
2000
3000
,
0020
0130
0200
0301
,
2002
0000
3003
0000
,
0001
0010
0100
1000
,
0001
0100
0001
0000
0000
0000
0000
0000
,
2020
0000
3030
2002
0000
3003
0202
0000
,
0300
0000
1003
0000
0001
0010
0100
0000
,
2200
0000
3300
0220
0000
0330
0022
0000
,
0030
0000
1003
0000
0001
1000
0010
0000
,
2020
0000
3030
0220
0000
0330
2002
0000
,
0003
0000
3001
0000
1000
0001
0010
0000
,
0001
0010
0001
0010
0000
0000
1000
0010
,
1000
0010
0000
0000
0000
0000
0000
0000
,
1000
0100
0010
0000
0001
1000
0010
0000
,
0100
0001
1000
0001
0100
0001
1000
0000
,
0001
0100
0010
0000
1000
0010
0100
0000
,
0010
0000
1000
0000
0001
1000
0001
1000
,
0100
0000
1000
0000
0001
0010
0100
0000
,
1000
0010
0100
0000
0001
1000
0001
0000
,
1000
0000
0000
0100
0000
0000
0010
0000
0000
0001
0000
0000
0100
0000
0010
0000
,
1000
0001
1000
0010
0100
0001
1000
0001
,
0000
1000
0100
1000
0001
0000
1000
0020
,
0000
0000
0130
0000
0100
0010
1000
0001
,
2000
0000
3001
0200
0000
0320
0000
0130
,
0002
0000
1003
0200
0000
0320
0000
0032
,
0000
1003
0010
0100
0001
0100
0010
1000
,
0001
0001
1000
1000
1001
0000
0000
0000
,
0101
0000
0100
0010
0000
1000
0001
0000
,
0010
0002
0000
0000
1000
0000
1003
0000
,
1100
0000
0001
0100
0000
0010
1000
0000
,
0001
2000
0000
0000
0100
0000
3100
0000
,
1000
0100
1000
0001
0000
0000
0001
0100
,
0001
1000
0000
0000
0001
0000
1000
0000
,
0001
0100
0010
1000
0000
0000
0001
0010
,
0100
1000
0000
0000
0001
0000
0100
0000
,
0101
0000
0000
0100
0010
0000
0120
0000
,
0000
1030
0001
0010
,
0011
0000
0000
0001
0100
0000
0201
0000
,
0000
0000
0310
0000
1000
0001
1000
0000
,
1100
0000
0000
0100
1000
0000
1020
0000
,
0000
0000
0130
0000
0001
1000
0010
0000
,
1000
0100
0010
0001
0000
0000
1000
0001
,
0100
0010
0000
0000
0100
0000
0100
0000
,
0001
0100
0010
0000
1000
0100
0010
0000
,
0001
1000
0010
0000
2002
0000
3003
0000
,
1000
0100
0010
0000
0100
1000
0010
0000
,
0100
0001
1000
0000
2002
0000
3003
0000
,
0001
1000
0010
0000
0100
0010
1000
0000
,
0001
0010
0100
0000
2002
0000
3003
0000
,
1000
0100
1000
0100
0000
1000
0001
1000
,
0001
1000
0000
0001
0100
0001
0100
0000
,
0001
0000
0100
0000
0010
1000
0010
0100
,
0001
0000
1000
0000
0001
0010
0100
1000
,
0001
0000
1000
0000
0010
1000
0010
0100
,
0001
0000
1000
0000
0100
1000
0010
0100
,
0001
0000
1000
0000
0001
0010
0001
1000
,
0010
0000
0100
0000
0001
0010
0100
0000
,
1000
0100
0010
0001
0000
0000
1000
0010
,
0100
0001
0000
0000
0000
0000
0000
0000
,
1000
0100
1000
0000
0000
0000
0001
0100
,
0001
0000
0000
0100
0010
1000
0001
0000
,
1000
0000
1001
0000
,
0001
0010
0100
1000
0001
0010
0100
1000
,
0001
0100
0001
0000
0000
0000
1000
0100
,
1000
0000
0000
0000
0001
1000
0010
0000
,
1001
0000
0000
0000
0001
1000
0010
0100
,
0010
0000
0000
0110
0000
0000
2002
0000
0000
0000
0000
0000
0000
0000
0000
0000
,
0000
0000
0000
0000
,
0000
0000
0000
0000
,
0000
0000
0000
3003
;

//---------------dance-single - ----------------
#NOTES:
     dance-single:
     :
     Easy:
     6:
     0.214943,0.278745,0.082341,0.074856,0.003743,201.000000,190.000000,11.000000,10.000000,0.000000,0.000000,0.214943,0.278745,0.082341,0.074856,0.003743,201.000000,190.000000,11.000000,10.000000,0.000000,0.000000:
0000
0000
0000
0000
,
0000
0000
0000
0000
,
0000
0000
0000
0000
,
0000
0000
0000
0000
,
1000
0000
0100
0000
,
0010
0000
0000
0000
,
0001
0000
0100
0000
,
0010
0000
0000
0000
,
1000
0000
0001
0000
,
0100
0000
0000
0000
,
0001
0000
1000
0000
,
0100
0000
0000
0000
,
1000
0100
1000
0000
,
1100
0000
0000
0000
,
0001
0100
0001
0000
,
0101
0000
0000
0000
,
1000
0001
1000
0001
,
1000
0000
0000
0000
,
0001
0000
0000
0100
0000
0000
0010
0000
,
0000
1000
0000
0000
0000
0000
0000
0000
,
1000
0000
0000
0100
0000
0000
0010
0000
,
0000
0001
0000
0000
0000
0000
0000
0000
,
1000
0000
0000
0010
0000
0000
1000
0000
,
0000
0001
0000
0000
0000
0000
0000
0000
,
0001
0000
0000
0100
0000
0000
0001
0000
,
0000
1000
0000
0000
0000
0000
0000
0000
,
0001
0100
0010
0000
,
0100
0010
1000
0000
,
0010
1000
0001
0000
,
1000
0100
1000
0000
,
0001
1000
0100
0000
,
1000
0001
0010
0000
,
0001
0100
0001
0100
,
0010
1000
0010
1000
,
0000
0001
1000
0100
,
0100
0000
0000
1000
,
0100
0100
0010
0010
,
0001
0000
1000
0000
,
0001
1000
0010
0100
,
0001
1000
0001
0000
,
1001
0000
0000
1000
0000
0000
0001
0000
,
0000
0001
0000
0000
0000
0000
0000
0000
,
1000
0000
0000
0010
0000
0000
0100
0000
,
0000
0001
0000
0000
0000
0000
0000
0000
,
1001
0000
0000
0001
0000
0000
1000
0000
,
0000
1000
0000
0000
0000
0000
0000
0000
,
0001
0000
0000
0010
0000
0000
0100
0000
,
0000
1000
0000
0000
0001
0000
1000
0000
,
0020
0030
0100
0002
,
0000
0003
1000
0001
,
2000
3000
0001
0200
,
0000
0300
0010
1000
,
0002
0003
1000
0200
,
0000
0300
0010
0001
,
1000
0001
0100
0010
,
1000
0001
1000
0000
,
1001
0000
0001
1000
,
0010
0100
0001
0000
,
0101
0000
0001
0100
,
0010
1000
0100
0000
,
1100
0000
0100
1000
,
0010
0100
0001
0000
,
1000
1000
0001
0001
,
0100
0001
1000
0000
,
0001
0000
0000
0100
0000
0000
0001
0000
,
0000
0200
0000
0000
0000
0000
0300
0000
,
0001
0000
0000
1000
0000
0000
0001
0000
,
0000
2000
0000
0000
0000
0000
3000
0000
,
0100
0000
0000
1000
0000
0000
0100
0000
,
0000
2000
0000
0000
0000
0000
3000
0000
,
1001
0000
0000
1001
0000
0000
0010
0000
,
0000
0010
0000
0000
0000
0000
0000
0000
,
1000
0100
0000
1000
,
0001
0000
1001
0000
,
0001
0100
0001
1000
,
0010
0100
0001
0000
,
0001
0100
0000
0001
,
1000
0000
1001
0000
,
1000
0001
0010
0100
,
1000
0000
0000
0001
0000
0000
0200
0000
0000
0000
0000
0000
0000
0000
0000
0000
,
0000
0000
0000
0000
,
0000
0000
0000
0000
,
0000
0000
0000
0300
;

//---------------dance-single - ----------------
#NOTES:
     dance-single:
     :
     Beginner:
     2:
     0.114423,0.148776,0.029942,0.000000,0.000000,107.000000,103.000000,4.000000,0.000000,0.000000,0.000000,0.114423,0.148776,0.029942,0.000000,0.000000,107.000000,103.000000,4.000000,0.000000,0.000000,0.000000:
0000
0000
0000
0000
,
0000
0000
0000
0000
,
0000
0000
0000
0000
,
0000
0000
0000
0000
,
0001
0000
0000
0000
,
1000
0000
0000
0000
,
0010
0000
0000
0000
,
0100
0000
0000
0000
,
0001
0000
0000
0000
,
1000
0000
0000
0000
,
0010
0000
0000
0000
,
1000
0000
0000
0000
,
0001
0000
0001
0000
,
0001
0000
0000
0000
,
1000
0000
1000
0000
,
1000
0000
0000
0000
,
0010
0000
0000
0000
,
0100
0000
0000
0000
,
1001
0000
0000
1000
,
0000
0000
0000
0000
,
0001
0000
0000
0001
,
0000
0000
0000
0000
,
0100
0000
0000
0100
,
0000
0000
0000
0000
,
0010
0000
0000
0010
,
0000
0000
0000
0000
,
1000
0000
1000
0000
,
1000
0000
0000
0000
,
0001
0000
0001
0000
,
0001
0000
0000
0000
,
0100
0000
0100
0000
,
0100
0000
0000
0000
,
0010
0000
0000
0000
,
0010
0000
0000
0000
,
0000
1000
1000
0000
,
1000
0000
0000
0000
,
0001
0000
0001
0000
,
0001
0000
0000
0000
,
0000
0100
0100
0000
,
0100
0000
0000
0000
,
1001
0000
0000
1000
,
0000
0000
0000
0000
,
0010
0000
0000
0010
,
0000
0000
0000
0000
,
1000
0000
0000
1000
,
0000
0000
0000
0000
,
0001
0000
0000
0001
,
0000
0000
0000
0000
,
0100
0000
0100
0000
,
0100
0000
0000
0000
,
0001
0000
0001
0000
,
0001
0000
0000
0000
,
1000
0000
1000
0000
,
1000
0000
0000
0000
,
0010
0000
0010
0000
,
0010
0000
0000
0000
,
1000
0000
1000
0000
,
1000
0000
1000
0000
,
0001
0000
0001
0000
,
0001
0000
0000
0000
,
0001
0000
0001
0000
,
0001
0000
0001
0000
,
0100
0000
0100
0000
,
0100
0000
0000
0000
,
0010
0000
0010
0000
,
0010
0000
0010
0000
,
1000
0000
1000
0000
,
1000
0000
0000
0000
,
0001
0000
0001
0000
,
0001
0000
0001
0000
,
0100
0000
0000
0100
,
0000
0000
0000
0000
,
1001
0000
0000
0000
,
1000
0000
1000
0000
,
0010
0000
0000
0000
,
0100
0000
0100
0000
,
0001
0000
0000
0000
,
1000
0000
1000
0000
,
0001
0000
0000
0000
,
0001
0000
1001
0000
;
