#VERSION:0.83;
#TITLE:Wrong Turn;
#SUBTITLE:;
#ARTIST:Kim Petras;
#TITLETRANSLIT:;
#SUBTITLETRANSLIT:;
#ARTISTTRANSLIT:;
#GENRE:;
#ORIGIN:;
#CREDIT:danizom813;
#BANNER:Wrong Turn [danizom813].png;
#BACKGROUND:Wrong Turn [danizom813]-bg.png;
#PREVIEWVID:;
#JACKET:;
#CDIMAGE:;
#DISCIMAGE:;
#LYRICSPATH:;
#CDTITLE:;
#MUSIC:Wrong Turn [danizom813].ogg;
#OFFSET:-0.598000;
#SAMPLESTART:3.969000;
#SAMPLELENGTH:23.739000;
#SELECTABLE:YES;
#BPMS:0.000=115.000;
#STOPS:;
#DELAYS:;
#WARPS:;
#TIMESIGNATURES:0.000=4=4;
#TICKCOUNTS:0.000=4;
#COMBOS:0.000=1;
#SPEEDS:0.000=1.000=0.000=0;
#SCROLLS:0.000=1.000;
#FAKES:;
#LABELS:0.000=Song Start;
#BGCHANGES:0.000=Wrong Turn [danizom813].avi=1.000=0=0=1=====,
99999=-nosongbg-=1.000=0=0=0 // don't automatically add -songbackground-
;
#KEYSOUNDS:;
#ATTACKS:
;

//---------------dance-single - danizom813----------------
#NOTEDATA:;
#CHARTNAME:danizom813;
#STEPSTYPE:dance-single;
#DESCRIPTION:danizom813;
#CHARTSTYLE:;
#DIFFICULTY:Medium;
#METER:10;
#RADARVALUES:0.392017,0.453165,0.122349,0.617572,0.203915,471.000000,450.000000,21.000000,106.000000,0.000000,0.000000,4.000000,0.000000,0.000000,0.392017,0.453165,0.122349,0.617572,0.203915,471.000000,450.000000,21.000000,106.000000,0.000000,0.000000,4.000000,0.000000,0.000000;
#CREDIT:danizom813;
#NOTES:
0000
0000
0000
0000
,
0000
0000
0000
0000
0000
0000
0001
1000
,
0020
2030
3200
0302
,
0023
2030
3200
0302
,
0023
1030
0100
1000
,
0001
0000
0001
0000
0000
0010
0001
0000
0001
0100
0000
0000
1000
0000
0001
0000
,
0200
0302
0023
2030
,
3200
0302
0023
2030
,
3000
0001
0010
0001
,
0010
0000
1000
0000
0000
0100
1000
0000
1000
0010
0000
0000
1001
0000
0001
0000
,
1000
0000
0001
0010
0100
0001
1000
0100
,
1000
0010
0100
0010
0100
0001
0020
0000
,
0001
1000
0031
2000
,
0100
0000
0000
0000
0010
0000
0000
3000
0100
0000
0000
0000
0001
0000
1000
0000
,
0020
2030
3200
0302
,
0023
2030
3200
0302
,
0023
1030
0100
1000
,
1000
0000
0001
0000
0000
0010
0001
0000
0001
0100
0000
0000
1001
0000
0000
0000
,
1000
0100
0000
0000
0100
1000
0000
0000
0001
0000
0010
0000
0100
0000
0000
0000
,
0010
0001
0000
0000
0001
0010
0000
0000
0100
0000
1000
0000
0001
0000
0000
0000
,
0010
0100
0000
0000
0100
0010
0000
0000
0001
0000
1000
0000
0100
0000
0000
0000
,
0010
0001
0000
0000
0001
0010
0000
0000
0001
0000
1000
0000
0010
0000
0000
0000
,
0100
0001
0000
0000
0001
0100
0000
0000
0010
0000
1000
0000
0100
0000
0000
0000
,
1000
0100
0000
0000
0100
1000
0000
0000
0010
0000
0001
0000
0010
0000
0000
0000
,
0001
0100
0000
0000
0100
0001
0000
0000
1000
0000
0010
0200
0000
0000
0300
0000
,
0000
0000
0000
0000
1000
0000
0010
0200
0000
0000
0300
0000
0000
0000
0000
0000
,
0000
0000
0000
0000
1000
0000
0010
0100
0000
0002
0000
0000
0000
0000
0103
0010
,
0100
0000
0000
0000
0001
0000
0100
0010
0000
2000
0000
0000
0000
0000
3010
0100
,
0010
0000
0000
0000
0001
0000
1000
0000
0010
0200
0000
0000
0000
0300
0001
1000
,
0001
0000
1010
1000
0011
0001
1001
1000
,
1001
0000
0000
0000
1000
0000
0010
0100
0000
0002
0000
0000
0000
0000
0103
0010
,
0100
0000
0000
0000
1000
0000
0001
0000
0100
0020
0000
0000
0000
0030
1000
0001
,
1000
0000
0101
0000
1010
0000
1001
0004
,
4000
0000
0003
0000
0000
3000
0000
0000
0000
0000
0000
0000
0001
0000
1000
0000
,
0020
2030
3200
0302
,
0023
2030
3200
0302
,
0023
1030
0100
1000
,
0001
0000
0001
0000
0000
0010
0001
0000
0001
0100
0000
0000
1000
0000
0001
0000
,
0200
0302
0023
2030
,
3200
0302
0023
2030
,
3000
0001
0010
0001
,
0010
0000
1000
0000
0000
0100
1000
0000
1000
0010
0000
0000
1001
0000
0001
0000
,
1000
0000
0001
0010
0100
0001
1000
0100
,
1000
0010
0100
0010
0100
0001
0020
0000
,
0001
1000
0031
2000
,
0100
0000
0000
0000
0010
0000
0000
3000
0100
0000
0000
0000
0001
0000
1000
0000
,
0020
2030
3200
0302
,
0023
2030
3200
0302
,
0023
1030
0100
1000
,
0100
0000
1001
0000
0000
0010
0001
0000
0001
0100
0000
0000
1001
0000
0000
0000
,
1000
0100
0000
0000
0100
1000
0000
0000
0001
0000
0010
0000
0100
0000
0000
0000
,
0010
0001
0000
0000
0001
0010
0000
0000
0100
0000
1000
0000
0001
0000
0000
0000
,
0010
0100
0000
0000
0100
0010
0000
0000
0001
0000
1000
0000
0100
0000
0000
0000
,
0100
1000
0000
0000
1000
0100
0000
0000
1000
0000
0001
0000
0100
0000
0000
0000
,
0010
1000
0000
0000
1000
0010
0000
0000
0100
0000
0001
0000
0010
0000
0000
0000
,
0001
0010
0000
0000
0010
0001
0000
0000
0100
0000
1000
0000
0100
0000
0000
0000
,
1000
0010
0000
0000
0010
1000
0000
0000
0001
0000
0100
0020
0000
0000
0030
0000
,
1000
0000
0100
0000
0001
0000
0100
0020
0000
0000
0030
0000
0000
0000
0000
0000
,
0000
0000
0000
0000
0001
0000
0100
0010
0000
2000
0000
0000
0000
0000
3010
0100
,
0010
0000
0000
0000
1000
0000
0010
0100
0000
0002
0000
0000
0000
0000
0103
0010
,
0100
0000
0000
0000
1000
0000
0001
0000
0100
0020
0000
0000
0000
0030
1000
0001
,
1000
0000
0101
0001
1100
1000
1001
0001
,
1001
0000
0000
0000
0001
0000
0100
0010
0000
2000
0000
0000
0000
0000
3010
0100
,
0010
0000
0000
0000
0001
0000
1000
0000
0010
0200
0000
0000
0000
0300
0001
1000
,
0001
0000
1010
1000
0011
0001
1001
4000
,
0004
0000
3000
0000
0000
0003
0000
0000
0000
0000
0000
0000
1000
0000
0001
0000
,
0200
0302
0023
2030
,
3200
0302
0023
2030
,
3200
0302
0023
2030
,
3200
0000
0302
0000
0023
0000
0031
1000
,
0020
2030
3200
0302
,
0023
2030
3200
0302
,
0023
0000
0000
0000
0000
0000
0000
0000
0000
0000
0000
0000
1000
0030
0002
0000
,
0000
0000
0000
0000
0000
0000
0000
0003
0020
0000
0000
0000
0000
0000
0000
0030
,
0100
1000
0010
1000
0001
0010
0100
1000
,
0010
0100
0001
0010
1000
0100
2000
3002
,
0010
1000
0010
0003
1000
0100
0010
0001
,
0100
0010
1000
0100
0001
0010
0002
2003
,
0100
0001
0100
3000
0001
0010
0100
1000
,
0010
0100
0001
1000
0100
0010
0200
2300
,
0000
0000
0010
0000
0001
0000
0010
0000
0000
3000
0000
0000
2002
0000
0000
0000
,
0000
0000
0000
3003
0000
0000
0000
0000
0220
0000
0000
0000
0000
0000
0330
0000
;

//---------------dance-single - ----------------
#NOTEDATA:;
#CHARTNAME:;
#STEPSTYPE:dance-single;
#DESCRIPTION:;
#CHARTSTYLE:;
#DIFFICULTY:Hard;
#METER:11;
#RADARVALUES:0.414489,0.405463,0.046609,0.337917,0.136914,498.000000,490.000000,8.000000,58.000000,0.000000,0.000000,0.000000,0.000000,0.000000,0.414489,0.405463,0.046609,0.337917,0.136914,498.000000,490.000000,8.000000,58.000000,0.000000,0.000000,0.000000,0.000000,0.000000;
#CREDIT:Benizom813;
#NOTES:
// measure 0
0000
0000
0000
0000
,  // measure 1
0000
0000
0000
1001
,  // measure 2
0002
0000
0203
0000
1300
0010
0002
0000
,  // measure 3
0203
0000
1300
0010
0002
0000
1003
0000
,  // measure 4
1000
0100
1000
0100
0010
0001
1000
0000
,  // measure 5
0001
0100
0001
0100
0010
1000
0001
0000
,  // measure 6
2000
0000
3020
0000
0031
0100
2000
0000
,  // measure 7
3020
0000
0031
0100
2000
0000
3001
0000
,  // measure 8
0001
0010
0001
0010
0100
1000
0001
0000
,  // measure 9
1000
0010
1000
0010
0100
0001
1000
0000
,  // measure 10
0001
0100
1000
0010
0002
0000
1003
0000
,  // measure 11
1000
0100
0001
0010
2000
0000
3001
0000
,  // measure 12
1000
0100
0001
0100
1000
0010
0100
0001
,  // measure 13
0001
0100
1000
0100
0001
1000
0010
0000
,  // measure 14
1000
0010
0001
0100
2000
0000
3001
0000
,  // measure 15
0001
0010
1000
0100
0002
0000
1003
0000
,  // measure 16
0001
0010
1000
0010
0001
0100
0010
1000
,  // measure 17
1000
0010
0001
0010
1000
0001
0100
0000
,  // measure 18
0001
0100
0000
0000
0001
0100
0000
0000
0001
0000
1000
0000
0001
0000
0000
0000
,  // measure 19
1000
0100
0000
0000
1000
0100
0000
0000
1000
0000
0001
0000
1000
0000
0000
0000
,  // measure 20
0001
0010
0000
0000
0001
0010
0000
0000
0001
0000
1000
0000
0001
0000
0000
0000
,  // measure 21
1000
0010
0000
0000
1000
0010
0000
0000
1000
0000
0001
0000
1000
0000
0000
0000
,  // measure 22
0001
0010
0100
1000
0010
0100
0001
0000
,  // measure 23
1000
0010
0100
0001
0010
0100
1000
0000
,  // measure 24
0001
1000
0010
0100
0001
1000
0001
0000
,  // measure 25
1000
0000
0001
0100
0020
0000
0130
0000
,  // measure 26
0000
0000
0000
0000
0001
0000
0100
0010
0000
1000
0000
0000
0000
0000
0001
0100
,  // measure 27
0001
0000
0000
0000
1000
0000
0100
0010
0000
0001
0000
0000
0000
0000
1000
0100
,  // measure 28
1000
0000
0000
0000
0001
0000
1000
0010
0000
0100
0000
0000
0000
0000
0001
1000
,  // measure 29
0001
0000
1000
0001
0100
0010
1000
0001
,  // measure 30
0100
0000
0000
0000
0001
0000
0100
0001
0000
1000
0000
0000
0000
0000
0010
1000
,  // measure 31
0010
0000
0000
0000
1000
0000
0100
1000
0000
0001
0000
0000
0000
0000
0010
0001
,  // measure 32
0010
0000
0001
1000
0010
0100
0001
1000
,  // measure 33
0020
0000
0130
0000
0100
0001
1000
0000
,  // measure 34
0002
0000
0203
0000
1300
0010
0002
0000
,  // measure 35
0203
0000
1300
0010
0002
0000
1003
0000
,  // measure 36
0001
0100
0001
0100
0010
1000
0001
0010
,  // measure 37
0100
1000
0100
1000
0010
0100
0001
0000
,  // measure 38
2000
0000
3020
0000
0031
0100
2000
0000
,  // measure 39
3020
0000
0031
0100
2000
0000
3010
0000
,  // measure 40
1000
0010
1000
0010
0100
0001
0010
0100
,  // measure 41
1000
0001
1000
0001
0100
0010
1001
0000
,  // measure 42
0001
0100
1000
0010
0001
1000
0001
0000
,  // measure 43
1000
0100
0001
0010
1000
0001
1000
0000
,  // measure 44
0002
0103
0200
0310
,  // measure 45
0020
0000
1030
0000
1000
0001
1001
0000
,  // measure 46
1000
0010
0001
0100
1000
0001
1000
0000
,  // measure 47
0001
0010
1000
0100
0001
1000
0001
0000
,  // measure 48
2000
3010
0020
0130
,  // measure 49
0200
0000
0301
0000
0001
1000
1001
0000
,  // measure 50
1000
0100
0000
0000
1000
0100
0000
0000
1000
0000
0001
0000
1000
0000
0000
0000
,  // measure 51
0001
0100
0000
0000
0001
0100
0000
0000
0001
0000
1000
0000
0001
0000
0000
0000
,  // measure 52
1000
0010
0000
0000
1000
0010
0000
0000
1000
0000
0001
0000
1000
0000
0000
0000
,  // measure 53
0001
0010
0000
0000
0001
0010
0000
0000
0001
0000
1000
0000
0001
0000
0000
0000
,  // measure 54
1000
0100
0001
0010
2000
0000
3001
0000
,  // measure 55
0001
0100
1000
0010
0002
0000
1003
0000
,  // measure 56
1001
0000
1001
0000
0001
1000
0100
0000
,  // measure 57
1000
0000
0001
0000
0100
0000
0001
1000
0001
0000
0000
0000
0000
0000
0000
0000
,  // measure 58
1000
0000
0000
0000
0001
0000
0100
0010
0000
1000
0000
0000
0000
0000
0001
0100
,  // measure 59
0001
0000
0000
0000
1000
0000
0100
0010
0000
0001
0000
0000
0000
0000
1000
0100
,  // measure 60
1000
0000
0000
0000
0001
0000
1000
0010
0000
0100
0000
0000
0000
0000
0001
1000
,  // measure 61
0001
0000
1000
0010
0100
0001
0010
0100
,  // measure 62
1000
0000
0000
0000
0001
0000
1000
0100
0000
1000
0000
0000
0000
0000
0001
0100
,  // measure 63
0001
0000
0000
0000
1000
0000
0010
1000
0000
0010
0000
0000
0000
0000
1000
0001
,  // measure 64
1000
0000
0001
0100
0010
1000
0100
0010
,  // measure 65
0002
1003
2000
3001
,  // measure 66
2200
3000
0002
0300
,  // measure 67
0020
0003
2000
0030
,  // measure 68
3002
0100
1003
0000
,  // measure 69
2000
0000
0100
0000
3001
1000
0100
0010
,  // measure 70
0022
0003
2000
0030
,  // measure 71
0200
3000
0002
0300
,  // measure 72
2003
0010
3001
0000
,  // measure 73
0002
0010
2000
3003
,  // measure 74
0001
0100
0010
0100
1000
0100
0010
0000
,  // measure 75
1000
0010
0100
0010
0001
0010
0100
0000
,  // measure 76
0010
0100
0001
0100
1000
0100
0001
0000
,  // measure 77
0100
0010
1000
0010
0001
0010
1000
0000
,  // measure 78
0010
1000
0100
1000
0001
1000
0010
0000
,  // measure 79
0010
0001
0100
0001
1000
0001
0010
0000
,  // measure 80
0010
1000
0100
1000
0001
1000
0010
0000
,  // measure 81
2000
3200
0302
0023
2030
3200
0302
0013
;

//---------------dance-single - ----------------
#NOTEDATA:;
#CHARTNAME:;
#STEPSTYPE:dance-single;
#DESCRIPTION:;
#CHARTSTYLE:;
#DIFFICULTY:Easy;
#METER:5;
#RADARVALUES:0.156474,0.190515,0.011652,0.069914,0.000000,188.000000,186.000000,2.000000,12.000000,0.000000,0.000000,0.000000,0.000000,0.000000,0.156474,0.190515,0.011652,0.069914,0.000000,188.000000,186.000000,2.000000,12.000000,0.000000,0.000000,0.000000,0.000000,0.000000;
#CREDIT:Benizom813;
#NOTES:
0000
0000
0000
0000
,
0000
0000
0000
0000
,
1000
0000
0100
0000
,
0001
0000
0010
0000
,
1000
1000
0001
0001
,
1000
0000
1000
0000
,
0001
0000
0010
0000
,
1000
0000
0100
0000
,
0001
0001
1000
1000
,
0001
0000
1000
0000
,
0001
0000
0100
0000
,
1000
0000
0010
0000
,
0001
0001
1000
1000
,
0001
0000
1000
0000
,
1000
0000
0010
0000
,
0001
0000
0100
0000
,
1000
1000
0001
0001
,
1000
0000
0001
0000
,
1000
0000
0010
0100
,
0010
0000
0100
0001
,
0100
0000
0001
1000
,
0001
0000
1000
0000
,
0001
0010
0100
0000
,
1000
0010
0100
0000
,
0010
1000
0001
0000
,
1000
0001
0100
0000
,
0000
0001
0100
0000
,
0000
0010
1000
0000
,
0000
1000
0100
0000
,
0000
0010
0001
1000
,
0001
0000
1000
0000
,
0010
0000
0100
0000
,
0001
0000
1000
0000
,
0200
0000
0300
0000
,
1000
0000
0100
0000
,
0001
0000
0010
0000
,
1000
1000
0001
0001
,
1000
0000
0000
0000
,
0001
0000
0100
0000
,
1000
0000
0010
0000
,
0001
0001
1000
1000
,
0001
0000
0000
0000
,
1000
0000
0100
0000
,
0001
0000
0010
0000
,
1000
1000
0001
0001
,
1000
0000
0000
0000
,
0001
0000
0100
0000
,
1000
0000
0010
0000
,
0001
0001
1000
1000
,
0001
0000
0000
0000
,
1000
0100
1000
0000
,
0001
0100
0001
0000
,
1000
0010
1000
0000
,
0001
0010
0001
0000
,
1000
1000
0100
0000
,
0010
0010
0001
0000
,
0001
0001
0100
0000
,
0000
0001
1000
0000
,
1001
0000
0000
1000
,
0010
0000
0000
0100
,
0001
0000
0000
0000
,
1000
0001
1000
0001
,
0100
0000
0000
0001
,
1000
0000
0000
1000
,
0010
0000
0010
0000
,
0200
0000
0300
0000
,
0002
0000
0003
0000
,
2000
0000
3000
0000
,
0020
0000
0030
0000
,
0200
0000
0300
0000
,
0002
0000
0003
0000
,
2000
0000
3000
0000
,
0020
0000
0030
0000
,
0200
0000
0300
0000
,
0001
0001
0100
0100
,
0010
0000
0010
0000
,
1000
1000
0100
0100
,
0010
0000
0010
0000
,
0001
0001
1000
1000
,
0010
0000
0010
0000
,
1000
1000
0001
0001
,
0100
0000
2002
3003
;

//---------------dance-single - ----------------
#NOTEDATA:;
#CHARTNAME:;
#STEPSTYPE:dance-single;
#DESCRIPTION:;
#CHARTSTYLE:;
#DIFFICULTY:Beginner;
#METER:1;
#RADARVALUES:0.078237,0.094966,0.000000,0.000000,0.000000,94.000000,94.000000,0.000000,0.000000,0.000000,0.000000,0.000000,0.000000,0.000000,0.078237,0.094966,0.000000,0.000000,0.000000,94.000000,94.000000,0.000000,0.000000,0.000000,0.000000,0.000000,0.000000,0.000000;
#CREDIT:Benizom813;
#NOTES:
0000
0000
0000
0000
,
0000
0000
0000
0000
,
0001
0000
0000
0000
,
1000
0000
0000
0000
,
1000
0000
0000
0000
,
0010
0000
0010
0000
,
0010
0000
0000
0000
,
1000
0000
0000
0000
,
0001
0000
0000
0000
,
0100
0000
0100
0000
,
0100
0000
0000
0000
,
0001
0000
0000
0000
,
1000
0000
0000
0000
,
1000
0000
1000
0000
,
1000
0000
0000
0000
,
0001
0000
0000
0000
,
0100
0000
0000
0000
,
0100
0000
0000
0000
,
0010
0000
0000
0000
,
1000
0000
0000
0000
,
0001
0000
0000
0000
,
1000
0000
0000
0000
,
0001
0000
0000
0000
,
0100
0000
0000
0000
,
0010
0000
0000
0000
,
0010
0000
0000
0000
,
0000
1000
0000
0000
,
0000
0001
0000
0000
,
0000
0100
0000
0000
,
0000
0001
0000
0000
,
0000
1000
0000
0000
,
0000
1000
0000
0000
,
0000
0001
0000
0000
,
0000
0000
0000
0000
,
0100
0100
0000
0000
,
0100
0000
0000
0000
,
0010
0010
0000
0000
,
0010
0000
0000
0000
,
1000
1000
0000
0000
,
1000
0000
0000
0000
,
0001
0001
0000
0000
,
0001
0000
0000
0000
,
1000
1000
0000
0000
,
1000
0000
0000
0000
,
0001
0001
0000
0000
,
0001
0000
0000
0000
,
0100
0100
0000
0000
,
0100
0000
0000
0000
,
0010
0000
0010
0000
,
0010
0000
0000
0000
,
0010
0000
0000
0000
,
1000
0000
0000
0000
,
0001
0000
0000
0000
,
0100
0000
0000
0000
,
0001
0000
0000
0000
,
1000
0000
0000
0000
,
1000
0000
0000
0000
,
0001
0000
0000
0000
,
0000
0100
0000
0000
,
0000
0010
0000
0000
,
0000
1000
0000
0000
,
0000
0001
0000
0000
,
0000
1000
0000
0000
,
0000
0010
0000
0000
,
0000
0100
0000
0000
,
0000
0000
0000
0000
,
0001
0000
0000
0000
,
1000
0000
0000
0000
,
0010
0000
0000
0000
,
1000
0000
0000
0000
,
0001
0000
0000
0000
,
0100
0000
0000
0000
,
0001
0000
0000
0000
,
1000
0000
0000
0000
,
0010
0000
0010
0000
,
0010
0000
0000
0000
,
1000
0000
1000
0000
,
1000
0000
0000
0000
,
0001
0000
0001
0000
,
0001
0000
0000
0000
,
0100
0000
0100
0000
,
0100
0000
0100
0000
;
