#VERSION:0.83;
#TITLE:Witch Doctor survivor MAX;
#SUBTITLE:;
#ARTIST:Cartoons vs 270 vs BEN FEARS;
#TITLETRANSLIT:;
#SUBTITLETRANSLIT:;
#ARTISTTRANSLIT:;
#GENRE:;
#ORIGIN:;
#CREDIT:;
#BANNER:Witch Doctor SURVIVOR MAX [Ben Fears].png;
#BACKGROUND:Witch Doctor SURVIVOR MAX [Ben Fears]-bg.png;
#PREVIEWVID:;
#JACKET:Witch Doctor SURVIVOR MAX [Ben Fears]-jacket.png;
#CDIMAGE:;
#DISCIMAGE:;
#LYRICSPATH:;
#CDTITLE:;
#MUSIC:Witch Doctor SURVIVOR MAX [Ben Fears].ogg;
#OFFSET:-0.030000;
#SAMPLESTART:63.540272;
#SAMPLELENGTH:15.000000;
#SELECTABLE:YES;
#BPMS:0.000=150.000,
20.000=290.000,
49.000=275.000,
52.000=150.000,
76.000=72.500,
77.000=73.000,
78.000=290.000,
134.000=72.500,
135.000=71.000,
136.000=150.000,
167.000=156.000,
168.000=290.000,
190.000=72.500,
192.000=290.000,
216.000=285.000,
218.000=150.000,
245.000=152.000,
246.000=72.500,
248.000=150.000,
287.000=155.000,
288.000=290.000,
335.500=16.700,
336.000=150.000,
367.000=155.000,
368.000=72.500,
369.625=105.000,
370.000=290.000,
426.000=72.500,
428.000=150.000,
457.000=152.000,
458.000=290.000,
465.000=280.000,
466.000=156.000,
469.000=155.000,
470.000=290.000;
#STOPS:465.000=0.200,
989.146=0.160;
#DELAYS:;
#WARPS:;
#TIMESIGNATURES:0.000=4=4;
#TICKCOUNTS:0.000=4;
#COMBOS:0.000=1;
#SPEEDS:0.000=1.000=0.000=0;
#SCROLLS:0.000=1.000;
#FAKES:;
#LABELS:0.000=Song Start;
#BGCHANGES:;
#KEYSOUNDS:;
#ATTACKS:
;

//---------------dance-single - ----------------
#NOTEDATA:;
#CHARTNAME:;
#STEPSTYPE:dance-single;
#DESCRIPTION:;
#CHARTSTYLE:;
#DIFFICULTY:Hard;
#METER:15;
#RADARVALUES:0.707612,0.913408,0.395458,0.053621,0.351891,739.000000,680.000000,59.000000,8.000000,0.000000,0.000000,0.000000,0.000000,0.000000,0.707612,0.913408,0.395458,0.053621,0.351891,739.000000,680.000000,59.000000,8.000000,0.000000,0.000000,0.000000,0.000000,0.000000;
#CREDIT:Ben Fears;
#OFFSET:-0.035000;
#BPMS:0.000000=150.000000
,20.000000=290.000000
,49.000000=275.000000
,52.000000=150.000000
,76.000000=72.500000
,77.000000=73.000000
,78.000000=290.000000
,134.000000=72.500000
,135.000000=71.000000
,136.000000=150.000000
,167.000000=156.000000
,168.000000=290.000000
,190.000000=72.500000
,192.000000=290.000000
,216.000000=285.000000
,218.000000=150.000000
,245.000000=152.000000
,246.000000=72.500000
,248.000000=150.000000
,287.000000=155.000000
,288.000000=290.000000
,335.500000=16.700001
,336.000000=150.000000
,367.000000=155.000000
,368.000000=72.500000
,369.625000=105.000000
,370.000000=290.000000
,426.000000=72.500000
,428.000000=150.000000
,457.000000=152.000000
,458.000000=290.000000
,465.000000=280.000000
,466.000000=156.000000
,469.000000=155.000000
,470.000000=290.000000
;
#STOPS:465.000000=0.200000
,989.145813=0.160000
;
#DELAYS:;
#WARPS:;
#TIMESIGNATURES:0.000000=4=4
;
#TICKCOUNTS:0.000000=4
;
#COMBOS:0.000000=1
;
#SPEEDS:0.000000=1.000000=0.000000=0
;
#SCROLLS:0.000000=1.000000
;
#FAKES:;
#LABELS:0.000000=Song Start
;
#NOTES:
0000
0000
0000
0000
,
0000
0000
0000
0000
,
0000
0000
0000
0000
,
0000
0000
0000
0000
,
0100
0100
0100
0000
,
1001
0001
1000
0010
,
0100
0001
0010
0100
,
1000
0010
0100
0101
,
0101
1010
2002
3003
,
1000
0010
0100
0001
,
0010
0100
1000
0010
,
0100
0010
1000
0001
,
0100
2002
0000
3003
,
0001
0000
0100
0000
0001
0000
0000
1000
0010
0000
1000
0000
0010
0000
1000
0000
,
0100
0001
0100
1000
0001
0100
0100
0010
,
1000
0000
0010
0000
1000
0000
0000
0001
0100
0000
0001
0000
0100
0000
0001
0000
,
0010
1000
0010
0001
1000
0001
0001
0100
,
0100
0000
0010
0000
0010
0000
0000
1000
0001
0000
1000
0000
0100
0000
0010
0000
,
0001
0001
1000
1000
0001
1000
0100
0010
,
0001
0000
0000
0000
0001
0000
0000
0000
0000
1000
0000
0000
0000
1000
0000
0000
0010
0000
0000
0000
0000
0000
0000
0000
0100
0000
0000
0000
0000
0000
0000
0000
,
0001
0100
0010
1000
,
0100
0010
0001
1000
,
0010
1000
0001
0010
,
0100
1000
0010
0100
,
0001
0100
0010
1000
,
0100
0000
0010
0000
0001
0000
1000
0100
,
0000
0010
0001
0000
1000
0000
0001
0100
,
0000
0010
1000
0100
,
1100
0000
0001
1000
,
0001
0000
1000
0001
,
0101
0000
0001
1000
,
0001
0000
1000
0010
,
1010
0000
0001
1000
,
0001
0000
0000
0000
1000
0000
0000
0000
0001
0100
0000
0010
0000
0010
0000
0000
,
1000
0100
1000
0000
0010
0000
0100
0001
0000
0001
0100
0000
0010
0000
1000
0000
,
0100
0010
0100
0000
0010
0000
0001
1000
0000
1000
0000
0001
1000
0000
0010
0000
,
0100
0001
0100
0000
0010
0000
1000
0100
0000
0100
1000
0000
0010
0000
0100
0000
,
0001
1000
0000
0001
0000
1000
0000
0010
0100
0000
0000
0000
1001
0000
0000
0000
,
0001
0010
0001
0000
0100
0000
0010
1000
0000
1000
0010
0000
0100
0000
0001
0000
,
0010
0100
0010
0000
0100
0000
1000
0001
0000
0001
0000
1000
0001
0000
0100
0000
,
0010
1000
0010
0000
0100
0000
0001
0010
0000
0010
0001
0000
0100
0000
0010
0000
,
1000
0001
0000
1000
0000
0001
0000
0100
0010
0000
0000
0000
1001
0000
0000
0000
,
1000
1010
0000
0110
,
0000
0000
0101
0000
0000
0000
0001
1000
,
0001
0000
1000
0100
1000
0000
0001
0100
,
0001
0000
1000
0100
1000
0000
0000
0000
,
0000
1001
0000
0110
,
0001
0000
1000
0000
0010
0010
0010
1001
,
1000
0000
0010
1000
0010
0000
0100
0000
,
0000
0101
0000
0110
,
0000
1010
0000
1100
,
0000
0000
0001
0000
1000
0100
1000
0000
,
0001
0100
0001
0000
1000
0010
1000
0000
,
0001
0010
0001
0000
1000
0000
1010
0000
,
0010
1001
0101
1001
,
1000
1010
1001
0000
0101
0000
1001
0000
,
0001
0010
0001
0010
0001
0000
1000
0000
1100
0000
0000
0000
0101
0000
0000
0000
,
1000
0000
1010
0000
0101
0000
1000
0000
0001
0000
0100
0010
0100
0010
1000
0000
,
0001
0000
1100
0101
,
1000
1010
0110
0000
1001
0000
1001
0000
,
0001
0100
0001
0100
0001
0000
0100
0000
0110
0000
0000
0000
1010
0000
0000
0000
,
0001
1100
0101
1000
0010
0010
0110
1001
,
2000
0000
3100
0000
1000
1100
1001
0001
,
1000
0000
0001
0100
0001
0100
0010
0000
1000
0000
0000
0000
1001
0000
0000
0000
,
0001
0100
0001
0000
1000
0000
0001
0100
0000
0100
0010
0000
1000
0000
0001
0000
,
0010
0100
0010
0000
0001
0000
1000
0100
0000
0010
0000
0001
1000
0000
0010
0000
,
1000
0010
1000
0000
0001
0000
0100
0010
0000
0010
1000
0000
0001
0000
0100
0000
,
0010
1000
0000
0001
0000
1000
0000
0010
0100
0000
0000
0000
1001
0000
0000
0000
,
1000
0010
1000
0000
0001
0000
1000
0010
0000
0010
0100
0000
0001
0000
1000
0000
,
0100
0010
0100
0000
1000
0000
0001
0010
0000
0100
0000
1000
0001
0000
0100
0000
,
0001
0100
0001
0000
1000
0000
0010
0100
0000
0100
0001
0000
1000
0000
0010
0000
,
0100
0001
0000
1000
0000
0001
0000
0100
0010
0000
0000
0000
1001
0000
0000
0000
,
1000
0000
0001
0100
0001
0000
0100
0010
,
0100
0000
0010
1000
0010
0000
1000
0100
,
1000
0000
0100
0010
0100
0000
0010
0001
,
0010
0000
0001
1000
0001
0000
1000
0100
,
0010
0000
0001
0100
0010
0000
1000
0010
,
0100
0000
0001
1000
0010
0000
0100
0000
,
0001
0000
0000
0000
1000
0000
0001
0100
,
0000
0000
0010
0000
1000
0100
0000
0000
,
0010
0000
0001
1000
0000
0000
0010
0000
,
1000
0001
0000
0000
0100
0000
0001
1000
,
0000
0000
0100
0000
0010
0001
0000
0000
,
1000
0010
1000
0000
0010
0000
0100
0002
,
1003
0100
0001
0100
1000
0010
0001
0010
,
1000
1000
0001
0001
0100
0100
0000
0001
,
1000
0001
1000
0001
0100
0010
1000
0100
,
0010
0000
0000
0010
0001
0000
0000
0001
1000
0000
0000
1000
0010
0000
0000
0010
,
0100
0001
1000
0001
0100
0010
1000
0010
,
0100
0001
0010
0100
1000
1000
0000
0100
,
1000
0010
0100
0001
1000
0010
0100
0001
,
1000
0000
0000
0000
1000
0000
0000
0001
0100
0000
0010
0000
1000
0000
0001
0000
,
0100
0000
0100
0000
0001
1000
0000
0001
0000
0100
0000
0010
0000
1000
0000
0000
0001
0000
0000
0000
0100
0000
0000
0000
0001
0000
0000
0000
0000
0000
0000
0000
,
1000
0000
0010
0000
0100
0000
0001
0010
,
0000
0010
0100
0000
1000
0100
0010
0000
,
0001
1000
0010
0100
,
0001
0000
1000
0000
0010
0100
0010
0000
,
1000
0000
0001
0000
0010
0000
0100
1000
,
0000
1000
0001
0000
1000
0000
0010
0100
,
0000
0001
1000
0000
0100
0000
0010
0001
,
0000
0000
1000
0000
0001
0100
0001
0000
,
1000
0000
0010
0000
0100
0000
0001
1000
,
0000
1000
0100
0000
0010
0001
1000
0000
,
0001
1000
0010
0100
,
0001
0000
1000
0000
0100
0010
0100
0000
,
1000
0000
0010
0000
0100
0000
0001
1000
,
0000
0000
0000
0000
1000
0000
0000
0000
0010
0000
0000
0000
0000
0000
0000
0000
0100
0000
0000
0001
0000
0000
0100
0000
0000
0001
0000
0000
1000
0000
0010
0000
,
0100
0000
0000
0000
1001
0000
0000
0000
1000
0000
0100
0010
0001
0000
0000
0000
,
1100
0000
0000
0000
1100
0000
0000
0000
0001
0100
0001
0100
0001
0000
0100
0000
,
0010
0000
0000
0000
0110
0000
0000
0000
0100
0000
0010
1000
0001
0000
1000
0000
,
0010
0000
0100
0001
0100
0001
0100
0000
0010
0000
0000
0000
0000
0000
0000
0000
,
0010
0000
0000
0000
1001
0000
0000
0000
0001
0000
0010
0100
1000
0000
0000
0000
,
0011
0000
0000
0000
0011
0000
0000
0000
1000
0010
1000
0010
1000
0000
0010
0000
,
0100
0000
0000
0000
0110
0000
0000
0000
0010
0000
0100
0001
1000
0000
0001
0000
,
0100
0000
0010
1000
0010
1000
0010
0000
0100
0000
0001
0000
0100
0000
0001
0000
,
0000
0000
1000
0100
0000
0010
0001
0000
,
1000
0000
0000
0001
0000
0000
1000
0000
0000
0000
0000
0000
0001
0000
0100
0000
0010
0000
1000
0000
0100
0000
0010
0000
,
0001
0100
0010
1000
0000
0000
2002
0000
0000
0000
0000
0000
,
0000
0000
3003
0000
;

//---------------dance-single - ----------------
#NOTEDATA:;
#CHARTNAME:;
#STEPSTYPE:dance-single;
#DESCRIPTION:;
#CHARTSTYLE:;
#DIFFICULTY:Challenge;
#METER:18;
#RADARVALUES:0.967101,1.111975,0.408864,0.207783,0.683674,1010.000000,949.000000,61.000000,31.000000,0.000000,0.000000,0.000000,0.000000,0.000000,0.967101,1.111975,0.408864,0.207783,0.683674,1010.000000,949.000000,61.000000,31.000000,0.000000,0.000000,0.000000,0.000000,0.000000;
#CREDIT:Ben Fears;
#OFFSET:-0.030000;
#BPMS:0.000000=150.000000
,20.000000=290.000000
,49.000000=275.000000
,52.000000=150.000000
,76.000000=72.500000
,77.000000=73.000000
,78.000000=290.000000
,134.000000=72.500000
,135.000000=71.000000
,136.000000=150.000000
,167.000000=156.000000
,168.000000=290.000000
,190.000000=72.500000
,192.000000=290.000000
,216.000000=285.000000
,218.000000=150.000000
,245.000000=152.000000
,246.000000=72.500000
,248.000000=150.000000
,287.000000=155.000000
,288.000000=290.000000
,335.500000=16.700001
,336.000000=150.000000
,367.000000=155.000000
,368.000000=72.500000
,369.625000=105.000000
,370.000000=290.000000
,426.000000=72.500000
,428.000000=150.000000
,457.000000=152.000000
,458.000000=290.000000
,465.000000=280.000000
,466.000000=156.000000
,469.000000=155.000000
,470.000000=290.000000
;
#STOPS:465.000000=0.200000
,989.145813=0.160000
;
#DELAYS:;
#WARPS:;
#TIMESIGNATURES:0.000000=4=4
;
#TICKCOUNTS:0.000000=4
;
#COMBOS:0.000000=1
;
#SPEEDS:0.000000=1.000000=0.000000=0
;
#SCROLLS:0.000000=1.000000
;
#FAKES:;
#LABELS:0.000000=Song Start
;
#NOTES:
0000
0000
0000
0000
,
0000
0000
0000
0000
,
0000
0000
0000
0000
,
0000
0000
0000
0000
,
2000
3002
0103
0000
,
0001
0100
0001
1000
0010
0100
0001
0010
,
0100
1000
0001
0100
0010
1000
0100
0010
,
0001
1000
0010
0100
0001
1000
0001
0000
,
1000
0110
2002
3003
,
0001
1000
0001
1000
0001
1000
0010
0100
,
0010
0100
0001
0010
0001
0010
0100
1000
,
0100
1000
0001
0010
0100
1000
0010
0100
,
0001
1000
0020
0000
0000
0000
0000
0000
,
1030
0000
0001
0000
0100
0000
0010
1000
0001
0000
0100
0000
0010
0000
1000
0100
,
1000
0000
0010
0000
0100
0000
0001
0000
1000
0000
0001
0010
0001
0010
0100
1000
,
0100
0000
1000
0000
0010
0000
0100
0001
1000
0000
0010
0000
0100
0000
0001
0010
,
0001
0000
1000
0000
0010
0000
0100
0000
0001
0000
1000
0100
1000
0100
0010
0001
,
0010
0000
0001
0000
1000
0000
0010
0100
0001
0000
1000
0000
0010
0000
0100
0010
,
0100
0001
0010
0100
2000
0001
0001
3001
,
0101
0000
0000
0000
1010
0000
0000
0000
0000
0001
0000
1000
0000
0010
0000
0100
0001
0000
0000
0000
0100
0000
0000
0000
0010
0000
0000
0000
1000
0000
0000
0000
,
0100
0010
0001
0000
1000
0100
1000
0000
,
0001
0100
0001
0000
1000
0010
0100
0001
,
0010
0100
1000
0000
0001
0010
0001
0000
,
1000
0010
1000
0000
0001
0100
0010
1000
,
0100
0010
0001
0000
1000
0010
0100
0001
,
0010
0100
1000
0000
0001
0000
0100
0010
,
0000
1000
0001
1000
0001
0000
1000
0100
,
0000
1000
1100
0110
,
0011
0000
0000
0000
0001
0010
0100
1000
,
0001
1000
1010
0110
,
0101
0000
0000
0000
0001
0100
0010
1000
,
0001
0010
0011
0110
,
1001
0000
0000
0000
1000
0100
0010
0001
,
1000
0000
0000
0000
0001
0000
0000
0000
0000
0000
0000
0000
0000
0000
0000
0000
1000
0100
0010
0001
0000
0000
1000
0010
0000
0100
0001
0000
0000
0000
0000
0000
,
1000
0100
0010
0100
1000
0000
0001
0100
0000
0010
0000
1000
0100
0010
0100
1000
,
0001
0100
0010
0100
0001
0000
1000
0100
0000
0010
0000
0001
0100
0010
0100
0001
,
1000
0100
0010
0001
0100
0000
0001
1000
0000
0001
0000
1000
0010
1000
0010
0100
,
0001
0100
0000
0101
0000
0110
0000
1000
0001
0000
1000
0100
0000
1000
0001
1000
,
0001
0010
0100
0010
0001
0000
1000
0010
0000
0100
0000
0001
0010
0100
0010
0001
,
1000
0010
0100
0010
1000
0000
0001
0010
0000
0100
0000
1000
0010
0100
0010
1000
,
0001
0010
0100
1000
0010
0000
1000
0001
0000
1000
0000
0001
0100
0001
0100
0010
,
1000
0010
0000
1010
0000
0110
0000
0001
1000
0000
0001
0010
0000
0001
1000
0001
,
1000
0010
0100
0001
1000
0100
0010
0001
,
1000
0010
0100
0010
2000
0000
3001
0000
,
1001
0010
0101
1000
,
1010
0001
1001
2000
,
3100
0000
1000
0100
0010
0000
0001
1000
,
0010
0000
0000
0000
0000
0000
0000
0000
0100
0000
0000
0000
0001
0000
0000
0000
1000
0010
0000
0000
1010
0000
0000
0000
0110
0000
0000
0000
0101
0000
0000
0000
,
0001
1000
0010
0100
0001
1000
0010
0000
,
1000
0000
0001
0010
1000
0000
1000
0010
,
0001
0000
0001
0100
1000
0000
1000
0100
,
0001
0000
2000
0000
3001
0100
0001
0000
,
0100
0010
0100
0000
0010
1000
0010
0000
,
1000
0100
1000
0010
0100
0001
0010
0100
,
0010
0001
1000
0010
0200
0001
0320
1000
,
0230
0001
0301
0000
0101
0100
1001
1000
,
0001
0010
0100
1000
0010
0000
0110
0000
1002
0000
0100
0000
2003
0000
0010
0000
,
3002
0000
1000
0000
1003
0000
1100
0000
0101
0000
1000
0100
0010
0001
1000
0000
,
1001
0000
0001
0100
0000
0010
1000
0000
0020
0000
1000
0000
0230
0000
0001
0000
,
0320
1000
1030
0000
1010
0010
1001
0001
,
1000
0100
0010
0001
0100
0000
0110
0000
2001
0000
0010
0000
3002
0000
0100
0000
,
2003
0000
0000
0000
0001
0000
0000
0000
3001
0000
0000
0000
0011
0000
0000
0000
1000
0010
0000
0000
1010
0000
0000
0000
0101
0000
0000
0000
1001
0000
0000
0000
,
0002
0010
2003
0100
3002
1000
1003
1100
,
0101
0000
1000
0010
0100
0001
1000
0000
1001
0000
1000
0100
0000
0100
0010
0000
,
0001
0010
0100
0010
0001
0000
1000
0010
0000
0100
0000
0001
0010
0100
0010
0001
,
1000
0010
0100
0010
1000
0000
0001
0010
0000
0100
0000
1000
0010
0100
0010
1000
,
0001
0010
0100
1000
0010
0000
1000
0001
0000
1000
0000
0001
0100
0001
0100
0010
,
1000
0010
0000
1010
0000
0110
0000
0001
1000
0000
0001
0010
0000
0001
1000
0001
,
1000
0100
0010
0100
1000
0000
0001
0100
0000
0010
0000
1000
0100
0010
0100
1000
,
0001
0100
0010
0100
0001
0000
1000
0100
0000
0010
0000
0001
0100
0010
0100
0001
,
1000
0100
0010
0001
0100
0000
0001
1000
0000
0001
0000
1000
0010
1000
0010
0100
,
0001
0100
0000
0101
0000
0110
0000
1000
0001
0000
1000
0100
0000
1000
0001
1000
,
0001
0100
0000
0010
1000
0001
0000
1000
,
0100
1000
0000
0001
0100
0010
0000
1000
,
0010
1000
0000
0001
0100
0001
0000
1000
,
0010
0100
0000
0001
0010
0100
0000
1000
,
0010
0100
0000
0001
1000
0001
0000
1000
,
0100
0010
0000
0001
1000
0010
0000
0100
,
0002
0000
0103
0000
0001
0100
0010
1000
,
0020
0000
1030
0000
1000
0100
0010
0001
,
2000
0000
3001
0000
0001
0100
0010
1000
,
0200
0000
1300
0000
1000
0100
0010
0001
,
1000
0001
0100
0010
1000
0001
0100
0010
,
0100
0010
1000
0010
0100
0010
1000
0002
,
1003
0000
0100
0010
0001
0000
0010
0001
1000
0000
0001
1000
0010
0000
1000
0010
,
0100
0000
0001
0000
1000
0000
0010
0000
0100
0010
0100
0010
1000
0000
0001
0000
,
1000
0000
0100
1000
0001
0000
0100
0001
1000
0000
0100
1000
0001
0000
1000
0000
,
0010
0000
0000
0010
0100
0000
0000
0100
0001
0000
0000
0001
1000
0000
0001
0000
,
0100
0000
0100
0010
1000
0000
1000
0100
0010
0000
0010
0001
1000
0000
1000
0010
,
0100
0000
0100
0001
1000
0000
1000
0100
0010
0001
1000
0000
0001
0000
1000
0000
,
0010
0000
0010
0100
0001
0000
0100
0010
1000
0000
0010
0100
0001
0000
0010
0100
,
1000
0000
0000
0000
0001
0000
0000
1000
0100
0000
0010
0000
0001
0000
0100
0000
,
0010
0000
0010
0000
1000
0001
0000
0010
0000
0100
0000
1000
0000
0001
0000
0000
1000
0000
0000
0000
0100
0000
0000
0000
1000
0000
0000
0000
0100
0000
0000
0000
,
0001
0100
0001
0100
1000
0010
0100
0001
,
1000
0100
0010
0001
1000
0010
1000
0010
,
0001
0010
0001
0010
1000
0100
0010
0001
,
1000
0010
0100
0000
0001
0010
0001
0010
,
1000
0010
1000
0010
0001
0100
0010
1000
,
0001
0010
0100
1000
0001
0100
0001
0100
,
1000
0100
1000
0100
0001
0010
0100
1000
,
0001
0100
0010
0000
1000
0010
0100
0010
,
0001
0010
0100
0010
1000
0100
0010
0001
,
1000
0010
0100
0001
1000
0100
0010
0100
,
0001
0100
0010
0100
1000
0001
0100
0010
,
1000
0100
0010
0000
0001
0010
0100
0010
,
1000
0010
0100
0010
0001
0100
0010
1000
,
0100
0000
0000
0000
0010
0000
0000
0000
0001
0000
0000
0000
1000
0000
0000
0000
0010
0100
0000
0100
0001
0000
0001
1000
0000
1000
0100
0000
1000
0001
1000
0001
,
0100
0010
1010
0100
0001
1000
1100
0100
,
0010
0000
0001
0000
1001
0000
1000
0000
0001
0010
0100
1000
0010
0000
0100
0000
,
0001
1000
1010
0010
0100
0001
0101
1000
,
1000
0000
0001
0010
0100
1000
0010
0000
1010
0000
0001
0100
0000
0010
1000
0000
,
1001
0100
1001
0010
0100
0110
0110
0001
,
1000
0000
0010
0000
1000
0000
0001
0000
1000
0100
0010
0001
1000
0000
0001
0000
,
1010
1000
0101
0010
0100
1001
1001
0001
,
1000
0000
0001
0010
0100
1000
0010
0000
0100
0000
0001
0000
0100
0000
0010
0000
,
0000
0000
1000
0010
0000
0100
0001
0000
,
1000
0000
0000
0100
0000
0000
1000
0000
0000
0000
0000
0000
0010
0000
0010
0000
0010
0000
0010
0000
0010
0000
0010
0000
,
0010
0010
0010
0010
0000
0000
2002
0000
0000
0000
0000
0000
,
0000
0000
3003
0000
;

//---------------dance-single - ----------------
#NOTEDATA:;
#CHARTNAME:;
#STEPSTYPE:dance-single;
#DESCRIPTION:;
#CHARTSTYLE:;
#DIFFICULTY:Medium;
#METER:13;
#RADARVALUES:0.617604,0.794268,0.187675,0.053621,0.157513,645.000000,617.000000,28.000000,8.000000,0.000000,0.000000,0.000000,0.000000,0.000000,0.617604,0.794268,0.187675,0.053621,0.157513,645.000000,617.000000,28.000000,8.000000,0.000000,0.000000,0.000000,0.000000,0.000000;
#CREDIT:Ben Fears;
#NOTES:
// measure 0
0000
0000
0000
0000
,  // measure 1
0000
0000
0000
0000
,  // measure 2
0000
0000
0000
0000
,  // measure 3
0000
0000
0000
0000
,  // measure 4
0010
1000
0001
0000
,  // measure 5
0001
1000
0010
0100
,  // measure 6
0001
0010
0100
1000
,  // measure 7
0001
1000
0010
0100
,  // measure 8
0000
0001
1000
0000
,  // measure 9
0001
0010
0100
1000
,  // measure 10
0100
0010
0001
1000
,  // measure 11
0010
0100
0001
1000
,  // measure 12
0010
2002
0000
0003
,  // measure 13
3001
0100
0001
0000
1000
0100
1000
0000
,  // measure 14
0001
0010
0100
1000
0001
0100
0100
0010
,  // measure 15
0010
1000
0010
0000
1000
0100
1000
0000
,  // measure 16
0001
1000
0100
0010
0001
1000
1000
0001
,  // measure 17
0001
0100
0001
0000
1000
0010
1000
0000
,  // measure 18
0001
0010
0100
1000
0010
0100
0001
1000
,  // measure 19
0001
0000
0000
0000
1000
0000
0000
0000
0000
1000
0000
0100
0000
0010
0000
0001
1000
0000
0000
0000
0000
0000
0000
0000
0100
0000
0000
0000
0000
0000
0000
0000
,  // measure 20
1000
0010
0100
0001
,  // measure 21
1000
0100
0010
0001
,  // measure 22
1000
0010
0100
0001
,  // measure 23
1000
0000
0001
1000
,  // measure 24
0010
0100
0001
0010
,  // measure 25
0100
0000
0000
0000
1000
0000
0100
1000
,  // measure 26
0000
0000
0001
0000
1000
0000
0001
1000
,  // measure 27
0000
1001
0001
0100
,  // measure 28
0010
1000
0100
0100
,  // measure 29
0100
0000
1000
0010
,  // measure 30
0100
0001
1000
1000
,  // measure 31
1000
0000
0001
1000
,  // measure 32
0010
0100
0001
0001
,  // measure 33
0001
0000
0000
0000
0000
0000
0000
0000
1000
0000
0000
0001
0000
0100
0000
0000
,  // measure 34
0001
1000
0010
0100
0001
0010
0100
0000
,  // measure 35
1000
0010
1000
0001
0010
0100
1000
0000
,  // measure 36
0001
1000
0010
0100
0001
1000
0100
0000
,  // measure 37
1000
0001
0000
1000
0000
0001
0000
1000
0010
0000
0000
0000
1001
0000
0000
0000
,  // measure 38
0001
0100
0010
1000
0100
0010
0001
0000
,  // measure 39
0010
0100
0010
0001
1000
0010
0100
0000
,  // measure 40
0010
1000
0010
0100
0001
0100
0010
0000
,  // measure 41
1000
0100
0000
1000
0000
0001
0000
0100
0010
0000
0000
0000
1001
0000
0000
0000
,  // measure 42
0001
0100
0010
1000
,  // measure 43
0010
0100
0001
0010
,  // measure 44
0100
0010
0100
0010
,  // measure 45
0100
0010
0100
0010
,  // measure 46
0010
0100
0010
0100
,  // measure 47
0010
0000
0100
0000
1000
0001
1000
0001
,  // measure 48
1000
0010
0100
0001
,  // measure 49
0010
0100
0010
0100
,  // measure 50
0010
0001
0010
0001
,  // measure 51
0010
0001
1000
0001
,  // measure 52
1000
0001
1000
0010
,  // measure 53
1000
0010
1000
0001
,  // measure 54
1000
0010
1010
0101
,  // measure 55
1000
0001
0100
0000
1001
0000
1100
0000
,  // measure 56
0001
0010
0100
1000
0010
0000
1010
0000
,  // measure 57
0001
1000
0001
0100
0100
0010
0010
1000
,  // measure 58
0001
1000
1100
0101
,  // measure 59
1000
0010
0010
0000
1010
0000
0101
0000
,  // measure 60
1000
0100
0001
0100
1000
0000
1100
0000
,  // measure 61
0001
1000
0010
0100
0001
0001
1000
1000
,  // measure 62
0001
0000
0101
0000
1000
0010
0010
1000
,  // measure 63
0001
0010
0100
1000
0001
0000
1001
0000
,  // measure 64
1000
0100
0001
0100
0010
0001
1000
0001
,  // measure 65
1000
0010
0100
0001
0010
0100
1000
0000
,  // measure 66
0001
0100
1000
0100
0010
1000
0010
0100
,  // measure 67
0001
1000
0000
0001
0000
1000
0000
0010
0100
0000
0000
0000
1001
0000
0000
0000
,  // measure 68
0001
0010
1000
0010
0100
1000
0001
1000
,  // measure 69
0001
0100
0010
1000
0100
0010
0001
0000
,  // measure 70
1000
0010
0001
0010
0100
0001
0100
0010
,  // measure 71
1000
0001
0000
1000
0000
0001
0000
0100
0010
0000
0000
0000
1001
0000
0000
0000
,  // measure 72
1000
0010
0100
0001
,  // measure 73
0100
0010
1000
0100
,  // measure 74
0010
0001
1000
0010
,  // measure 75
1000
0001
0010
0100
,  // measure 76
1000
0010
0100
0001
,  // measure 77
1000
0100
0010
0001
,  // measure 78
1000
0000
0000
0000
0001
0100
0001
0000
,  // measure 79
0000
0000
1000
0010
1000
0000
0000
0000
,  // measure 80
0001
0010
0001
0000
0000
0000
1000
0100
,  // measure 81
1000
0000
0000
0000
0001
1000
0001
0000
,  // measure 82
0000
0000
1000
0100
1000
0000
0000
0000
,  // measure 83
0001
0100
0001
0000
1000
0000
0010
0200
,  // measure 84
0301
0100
0001
0100
1000
0100
1000
0100
,  // measure 85
0001
0100
0001
0100
0010
0010
0000
1000
,  // measure 86
0010
0100
0001
0010
0100
1000
0010
0100
,  // measure 87
0002
0100
1000
0013
,  // measure 88
1000
0100
1000
0100
0001
0100
0001
0100
,  // measure 89
1000
0100
0001
0100
1000
0001
0000
1000
,  // measure 90
0010
0100
0001
0010
0100
1000
0010
0100
,  // measure 91
0001
0000
0000
0000
1000
0000
0000
0001
0100
0000
0010
0000
1000
0000
0001
0000
,  // measure 92
0100
0000
0100
0000
0010
1000
0000
0010
0000
0100
0000
0001
0000
1000
0000
0000
0001
0000
0000
0000
0100
0000
0000
0000
0001
0000
0000
0000
0000
0000
0000
0000
,  // measure 93
0100
0000
0010
0000
1000
0000
0001
0010
,  // measure 94
0000
0010
0100
0000
1000
0100
1000
0000
,  // measure 95
0010
1000
0100
0010
,  // measure 96
0001
0000
0000
0000
1000
0010
1000
0000
,  // measure 97
0001
0000
1000
0000
0010
0000
0100
0001
,  // measure 98
0000
0001
1000
0000
0001
0000
1000
0010
,  // measure 99
0000
0100
0001
0000
0010
0000
0100
1000
,  // measure 100
0000
0000
0001
0000
1000
0100
1000
0000
,  // measure 101
0001
0000
1000
0000
0010
0000
0100
0001
,  // measure 102
0000
0001
0100
0000
0010
1000
0010
0000
,  // measure 103
0100
0001
0010
0100
,  // measure 104
1000
0000
0001
0000
1000
0100
1000
0000
,  // measure 105
0010
0000
0100
0000
0001
0000
1000
0010
,  // measure 106
0000
0000
0000
0000
0010
0000
0000
0000
0100
0000
0000
0000
0000
0000
0000
0000
0001
0000
0000
0001
0000
0000
1000
0000
0000
1000
0000
0000
0010
0000
0100
0000
,  // measure 107
0001
0000
1010
0000
1000
0100
0100
0000
,  // measure 108
1100
0000
0000
0000
0101
0000
0000
0000
1000
0001
1000
0001
1000
0000
0010
0000
,  // measure 109
0100
0000
0201
0000
0310
1000
1000
0001
,  // measure 110
0001
0000
1000
0100
1000
0100
1000
0000
0001
0000
0000
0000
0101
0000
0000
0000
,  // measure 111
1000
0000
0101
0000
0001
0010
0010
0000
,  // measure 112
0011
0000
0000
0000
1010
0000
0000
0000
0001
1000
0001
1000
0001
0000
0100
0000
,  // measure 113
0010
0000
1020
0000
0130
0001
0001
1000
,  // measure 114
1000
0000
0001
0010
0001
0010
0001
0000
1000
0000
0010
0000
1000
0000
0010
0000
,  // measure 115
0000
0000
1000
0100
0000
1000
0001
0000
,  // measure 116
1000
0000
0000
0001
0000
0000
1000
0000
0000
0000
0000
0000
0001
0000
0100
0000
0001
0000
0100
0000
0001
0000
0100
0000
,  // measure 117
0001
0100
0001
0100
0000
0000
2002
0000
0000
0000
0000
0000
,  // measure 118
0000
0000
3003
0000
;

//---------------dance-single - ----------------
#NOTEDATA:;
#CHARTNAME:;
#STEPSTYPE:dance-single;
#DESCRIPTION:;
#CHARTSTYLE:;
#DIFFICULTY:Easy;
#METER:10;
#RADARVALUES:0.409821,0.714841,0.274810,0.087135,0.000000,428.000000,387.000000,41.000000,13.000000,0.000000,0.000000,0.000000,0.000000,0.000000,0.409821,0.714841,0.274810,0.087135,0.000000,428.000000,387.000000,41.000000,13.000000,0.000000,0.000000,0.000000,0.000000,0.000000;
#CREDIT:Ben Fears;
#NOTES:
0000
0000
0000
0000
,
0000
0000
0000
0000
,
0000
0000
0000
0000
,
0000
0000
0000
0000
,
0010
0010
0010
0000
,
1000
0000
0001
0000
,
0100
0000
0001
1000
,
0000
0010
0000
1000
,
0000
0001
0001
0000
,
1000
0000
0100
0000
,
0010
0001
0000
1000
,
0000
1001
0000
0000
,
0010
0010
0000
0000
,
1000
0000
0001
0000
0100
0010
0100
0000
,
0001
1000
0200
0300
,
1000
0000
0100
0000
0010
0001
0010
0000
,
0001
1000
0020
0030
,
1000
0000
0001
0000
0100
0001
0100
0000
,
0001
1000
0010
0100
,
1001
1001
0000
0000
0001
0000
0000
0000
,
1000
0000
0100
0000
,
0010
0000
0001
0000
,
1000
0000
0010
1000
,
0001
0000
0100
0000
,
0001
0000
1000
0100
,
0010
0000
0000
0000
0001
0000
0000
1000
,
0000
0010
1000
0001
,
0000
0000
1000
0100
,
1000
0000
0001
0000
,
0001
0000
1000
0010
,
1000
0000
0001
0000
,
0001
0000
0100
0010
,
0100
0000
0001
0000
,
1000
0000
0001
1000
,
0001
0000
0010
0000
0100
0010
0100
0000
,
0010
0000
0001
0000
1000
0010
1000
0000
,
0010
0000
0100
0000
0001
0100
0001
0000
,
1000
0100
0010
0001
1000
0000
0000
0000
,
0001
0100
0001
0000
0100
0000
0010
0000
,
1000
0010
1000
0000
0001
0000
0010
0000
,
0001
1000
0001
0000
1000
0000
0100
0000
,
1000
0100
0010
0001
1000
0000
0000
0000
,
0001
0100
0000
0010
,
0000
1000
0000
0000
,
0001
0000
0001
0000
,
1000
0000
1000
0000
,
0000
0100
0000
0010
,
0000
0000
0001
0000
1000
0010
0001
0100
,
1000
0000
1000
0000
,
0000
0010
0000
1000
,
0000
0001
0000
0010
,
0000
0000
0001
0000
,
1000
0000
0010
0000
,
0100
0000
0000
0001
,
0000
1000
0100
1001
,
1000
0010
0100
0000
0010
0000
0110
0000
,
0100
0001
1000
0000
0001
0000
0101
0000
,
0100
0010
1000
0000
0001
1000
0001
1000
,
0100
0000
1000
0011
,
1000
0010
0100
0000
0010
0000
0110
0000
,
0100
0001
1000
0000
0010
0000
1010
0000
,
0001
1000
0100
0000
1000
1000
0001
0001
,
1000
0000
1010
0000
0001
1000
0010
0000
,
1010
0110
2002
3003
,
0001
0010
0100
0000
0010
0000
0001
0000
,
1000
0100
0010
0000
0100
0000
1000
0000
,
0010
1000
0001
0000
1000
0000
0010
0000
,
0100
0001
0100
0010
1000
0000
0000
0000
,
0001
1000
0100
0000
1000
0000
0001
0000
,
0010
0001
1000
0000
0100
0000
1000
0000
,
0010
0100
0001
0000
0100
0000
0010
0000
,
1000
0001
1000
0001
0100
0000
0000
0000
,
0001
0100
0000
0010
,
0000
1000
0100
1000
,
0000
0010
0000
0100
,
0000
0001
0100
0001
,
0000
1000
0000
0010
,
0000
1000
0001
1000
,
0100
0000
1100
0000
,
0000
0101
0000
0000
,
1010
0000
0000
0011
,
0000
0000
1000
0001
,
0000
0001
0100
0000
,
0100
0010
0000
2000
,
3001
0001
1000
1000
,
0001
0010
0100
1000
0010
0010
0000
0000
,
1000
1000
0001
0001
,
2000
3200
0320
0032
,
1003
1000
0001
0001
,
1000
0100
0010
0001
1000
1000
0000
0000
,
0001
1000
0010
0100
,
0110
0110
1001
0110
,
0002
2003
3100
0000
,
1100
0000
0000
0000
0001
0000
0000
1000
,
0000
0010
0100
0000
,
0001
0000
0100
0010
,
1000
0000
0001
0000
,
0101
0000
0000
0000
0100
0000
0000
0001
,
0000
0000
1000
0000
0010
0000
0000
0100
,
0000
0001
1000
0001
,
0000
0000
1000
0000
,
1001
0000
0000
0000
0001
0000
0000
1000
,
0000
0100
0010
0000
,
0001
0000
1000
0000
,
0010
0000
0100
0000
,
0110
0000
0000
0000
0010
0000
0000
1000
,
0000
0001
0100
0100
,
0001
0000
1000
0000
0100
1000
0001
0000
,
1100
0101
1010
0011
,
1000
0000
0001
0000
1000
0001
0010
0000
,
0001
0010
0100
1000
0010
0000
0000
0000
,
1010
0101
0011
1100
,
1001
0000
1001
0000
0001
0010
0100
1000
,
1010
1010
0101
0101
,
1000
0001
1000
0001
0100
0000
0000
0000
,
0000
0100
0000
0010
,
1000
0001
1000
0000
0001
0000
0100
0000
,
0010
0110
2002
0000
,
0000
0000
3003
0000
;

//---------------dance-single - ----------------
#NOTEDATA:;
#CHARTNAME:;
#STEPSTYPE:dance-single;
#DESCRIPTION:;
#CHARTSTYLE:;
#DIFFICULTY:Beginner;
#METER:7;
#RADARVALUES:0.239382,0.397134,0.100540,0.073730,0.000000,250.000000,235.000000,15.000000,11.000000,0.000000,0.000000,0.000000,0.000000,0.000000,0.239382,0.397134,0.100540,0.073730,0.000000,250.000000,235.000000,15.000000,11.000000,0.000000,0.000000,0.000000,0.000000,0.000000;
#CREDIT:Ben Fears;
#NOTES:
0000
0000
0000
0000
,
0000
0000
0000
0000
,
0000
0000
0000
0000
,
0000
0000
0000
0000
,
0100
0100
0100
0000
,
1000
0000
0000
0000
,
0001
0000
0100
0000
,
0000
0100
0000
0010
,
0000
1000
1000
0000
,
0000
0001
0000
0001
,
0000
1000
0000
1000
,
0000
0100
0000
0100
,
0000
1000
0000
0000
,
0001
0000
1000
0000
,
0010
0010
0010
0000
,
1000
0000
0001
0000
,
0100
0100
0100
0000
,
0001
0000
1000
0000
,
0100
0010
0001
1000
,
2002
3003
0001
0000
,
0000
0000
1000
0000
,
0000
0000
0010
0000
,
0000
0000
0100
0000
,
0000
0000
0010
0000
,
0000
0000
1000
0000
,
0000
0000
0001
0000
,
0001
0000
1000
0000
,
1000
0000
0100
0100
,
0100
0000
0000
0000
,
0000
0000
0010
0010
,
0010
0000
0000
0000
,
0000
0000
0001
0001
,
0001
0000
0000
0000
,
0000
0000
2000
0000
,
3001
0000
0100
0001
,
1000
0000
0010
0000
,
1000
0000
0100
0000
,
1001
1001
1001
0000
,
1000
0000
0100
0010
,
0001
0000
1000
0000
,
0010
0000
0010
0000
,
1001
1001
1001
0000
,
0001
0000
0000
0000
,
1000
0000
0000
0000
,
0010
0000
0010
0000
,
0010
0000
0010
0000
,
0000
1000
0000
1000
,
0000
1000
0002
0000
,
0103
0000
0100
0000
,
0000
0010
0000
0010
,
0000
1000
0000
1000
,
0000
0000
0001
0000
,
0001
0000
1000
0000
,
1000
0000
0000
0100
,
0000
0000
1001
0000
,
1000
0000
0001
1000
,
0010
0010
0100
0000
,
0100
0000
0001
1000
,
0001
0000
1000
0000
,
0100
0000
0010
0010
,
0001
1000
0001
0000
,
1000
0000
0020
0000
,
0130
0000
0100
0000
,
0001
1000
0001
0000
,
1000
0000
0100
0000
,
0010
0000
0001
0000
,
1000
0000
0010
0000
,
1001
0110
1001
0000
,
0001
0100
0001
0000
,
1000
0000
0001
0000
,
1000
0100
1000
0000
,
1001
0110
1001
0000
,
1000
0000
0000
0000
,
0010
0000
0000
0000
,
0100
0000
0000
0000
,
0001
0000
0000
0000
,
1000
0000
0000
0000
,
0100
0000
0000
0000
,
0000
0000
1000
0000
,
0000
0001
0000
0000
,
0100
0000
0000
0010
,
0000
0000
1000
0000
,
0000
0001
0000
0000
,
0010
0000
0000
0200
,
1300
0000
1000
0000
,
0100
0010
0001
0000
,
0100
0000
0100
0010
,
1000
0000
0000
0000
,
0001
0000
0001
0000
,
0001
0100
0010
0000
,
0100
0000
0010
1000
,
0001
0000
1000
0000
,
0200
0000
1300
0000
,
1000
0000
0001
0000
,
1000
0000
0010
0010
,
1000
0000
0001
0000
,
0010
0000
0100
0000
,
0100
0000
1000
0000
,
0001
0000
0100
0100
,
0001
0000
0100
0000
,
0010
0000
1000
0000
,
1000
0000
0001
0000
,
1000
0000
0001
0001
,
0100
0000
0001
0000
,
1000
0000
0010
0000
,
0010
0000
1000
0000
,
0100
0100
2000
0000
,
3001
0000
1000
0000
,
0001
1000
0010
0100
,
0001
0000
1000
0000
,
0010
1000
0100
0000
,
1000
0000
0001
0000
,
1000
0100
0010
0001
,
0100
0000
0001
0000
,
1000
0001
0100
0000
,
0000
0100
0000
0000
,
0100
0100
0020
0000
,
0000
0130
2002
0000
,
0000
0000
3003
0000
;
