#TITLE:Where The Wild Things Are;
#SUBTITLE:(ft Sadat X);
#ARTIST:Cmon & Kypski;
#TITLETRANSLIT:;
#SUBTITLETRANSLIT:;
#ARTISTTRANSLIT:;
#GENRE:;
#CREDIT:;
#BANNER:Where The Wild Things Are [Nowhere Dance Club].png;
#BACKGROUND:Where The Wild Things Are [Nowhere Dance Club]-bg.png;
#LYRICSPATH:;
#CDTITLE:;
#MUSIC:Where The Wild Things Are [Nowhere Dance Club].ogg;
#OFFSET:0.000000;
#SAMPLESTART:54.574066;
#SAMPLELENGTH:12.000000;
#SELECTABLE:YES;
#BPMS:0.000000=109.959999
,179.000000=110.999947
,191.000000=109.999992
,216.000000=110.300049
,220.000000=109.940002
;
#DISPLAYBPM:110;
#STOPS:
;
#BGCHANGES:;
#KEYSOUNDS:;
#ATTACKS:;

//---------------dance-single - NOWHERE DANCE CLUB----------------
#NOTES:
     dance-single:
     :
     Hard:
     9:
     0.311154,0.365855,0.395309,0.519328,0.093014,281.000000,230.000000,51.000000,67.000000,0.000000,1.000000,0.311154,0.365855,0.395309,0.519328,0.093014,281.000000,230.000000,51.000000,67.000000,0.000000,1.000000:
0000
0000
0000
0000
,
0000
0000
0000
0000
0000
0000
0000
0000
0000
0000
0000
0010
0002
0000
0000
0000
,
0000
1003
1000
1000
0000
0000
2200
0000
,
0000
0000
3300
0011
,
0000
1002
0000
0013
,
0000
0000
0000
0000
0000
1000
0000
0000
0001
0000
0000
0000
0202
0000
0000
0000
,
0303
1010
0000
0101
,
0000
1000
0001
2200
,
3300
0100
0100
0011
,
0001
1000
1000
1100
,
0001
2200
3300
1001
,
0000
0000
0001
1000
0001
0100
0001
1000
,
0100
0000
0000
0000
0002
0000
0000
0003
0001
1000
0000
0000
0001
0000
0000
0000
,
1001
0000
0000
0000
0100
0000
0000
0000
0010
0100
0000
0000
0010
0000
0100
0000
,
1000
1002
1003
2000
,
3001
0000
0000
0000
2000
0000
3000
0000
0001
0100
0000
0000
0100
0000
0001
0000
,
1000
0001
0200
0000
0000
0300
2002
0000
,
3003
0000
0000
0000
0000
2020
3030
0000
0220
0330
0000
0000
0202
0303
0000
0000
,
0010
2020
3030
0202
,
0303
0000
0022
0033
0220
0330
1001
0000
,
0001
0000
0000
0000
2002
3003
0000
0000
0010
0000
0000
0000
0110
0000
0000
0000
,
0100
0000
2000
0000
3100
0000
0100
0010
,
0100
2000
0010
3010
,
0100
0000
1001
0001
0100
0000
0202
0000
,
0303
0000
0000
0200
,
0310
0000
0000
0000
1000
0000
0000
1000
0001
0000
0000
0000
1000
0000
0001
0000
,
1000
0000
1000
0010
1000
0001
1000
0001
,
0100
0000
0000
0000
1001
0000
0000
0001
0100
0000
0000
0000
0001
0000
1000
0000
,
0002
0000
0000
0003
0010
0000
0100
0000
0010
0000
0000
0000
0001
0000
0100
0000
,
0010
0000
1000
0000
0000
0000
0000
0000
1000
0001
0100
0000
0010
0000
0000
0000
,
0010
0000
0000
0000
1000
0000
1000
0000
0010
0000
0000
0000
0001
0000
1000
0100
,
0000
0000
1000
0000
0010
0100
0100
0000
,
0010
0000
0000
0000
0000
0000
0000
0000
0000
0000
0000
0000
2001
0000
0000
0000
0000
0000
0000
0000
3000
0000
0000
0000
1000
0000
0000
0001
0000
0000
0000
0000
0000
0000
0000
0000
1000
0000
0000
0000
0000
0000
0000
0000
0000
0022
0000
0000
,
0000
0033
2000
0000
0000
0000
0001
3000
,
0001
0402
0000
0003
,
0000
0300
0000
0000
0002
0000
0000
0000
1003
0000
0000
0000
1000
0000
0001
0000
,
1000
0000
0000
0000
0000
0000
0000
0000
0202
0000
0000
0000
0000
0000
0000
0003
0000
0000
0000
0000
0000
0000
0000
0000
1300
0000
0000
0000
0000
0000
0000
0000
,
0001
1000
0000
0000
0010
0000
0000
0000
0100
0000
0001
0000
1000
0000
0100
0000
,
0010
0000
0001
0000
0100
0001
0100
1000
,
0100
0000
0110
0000
0001
1000
0010
1000
,
0100
0101
2002
0000
,
0010
0000
0000
0000
0000
0000
0000
0000
0000
0000
0000
3003
0000
0000
0000
0000
,
0000
0000
0000
0000
0000
0000
1000
0001
,
0000
0000
0000
0000
0000
0000
0010
0000
0001
0000
1000
0000
0000
0100
0000
0000
,
0000
0000
0000
0000
0000
0000
0000
0000
0010
0100
0000
0000
0010
0000
0000
0000
,
0010
0000
0000
0000
0110
0000
0000
0000
0001
0000
0000
1000
0000
0011
0000
0000
,
1001
0000
2200
0000
0000
0000
0000
3300
,
0001
0000
0000
0000
1100
0000
0000
0110
0000
0000
0011
0000
1000
0000
0000
0000
,
2200
3300
0000
1000
0001
0000
1000
0000
,
0011
0000
0000
0000
0000
0000
0000
0000
0000
0000
0000
0000
0000
0000
0000
0000
0000
0000
0000
0000
0000
0000
0000
0000
0000
0000
0000
0000
0000
0000
0000
0000
0000
0000
0000
0000
0000
0000
0000
0000
0000
0000
0000
0000
0000
0000
0000
0000
2000
0000
0000
0000
0000
0000
0000
0000
0000
0000
0000
0000
0000
0000
0000
0000
0000
0000
0000
0000
0000
0000
0000
0000
0001
0000
0000
0000
0000
0000
0000
0000
0000
0000
0000
0000
0000
0000
0000
0000
0000
0000
0000
0000
0000
0000
0000
0000
0000
0000
0000
0000
0000
0000
0000
0000
0000
0000
0000
0000
0002
0000
3000
0000
0000
0000
0000
0000
0000
0000
0000
0000
0000
0000
0000
0000
0000
0000
0000
0000
0000
0000
0000
0000
0000
0000
0000
0000
0000
0000
0000
0000
0000
0000
0000
0000
0000
0000
0000
0000
0000
0000
0000
0000
0000
0000
0000
0000
0000
0000
0000
0000
0000
0000
0000
0000
0000
0000
0000
0000
1000
0000
0000
0000
0000
0000
0003
0000
0000
0000
0000
0000
0000
0000
0000
0000
0000
0000
0000
0000
0000
0000
0000
0000
,
0000
1000
0000
0000
0001
0000
0100
0000
0000
0001
0000
0000
0022
0000
0000
0000
,
0033
0000
0000
0000
0000
0000
0000
0000
0100
0000
0000
0001
1000
0000
0000
0000
,
2002
0000
0000
3003
0000
0000
0000
0000
1000
0001
0000
0000
0200
0000
0000
0000
,
0000
0300
0000
0000
1001
0000
0011
0000
0000
0000
0000
0000
0000
0110
0000
0000
,
0022
0000
0000
0000
0000
0000
0000
0000
0000
0000
0000
0033
0000
0000
0000
0000
,
0100
1000
0001
0010
0100
1000
0002
0000
,
0000
0003
0010
0000
0000
0000
0010
0000
,
0001
0010
0100
2000
0002
0000
3003
0000
,
0000
0011
2002
0000
0000
0000
0000
0000
,
3003
0000
0000
0000
;

//---------------dance-single - ----------------
#NOTES:
     dance-single:
     :
     Medium:
     6:
     0.205959,0.316053,0.085263,0.364304,0.000000,186.000000,175.000000,11.000000,47.000000,0.000000,0.000000,0.205959,0.316053,0.085263,0.364304,0.000000,186.000000,175.000000,11.000000,47.000000,0.000000,0.000000:
0000
0000
0000
0000
,
0000
0000
0000
0000
,
0000
0000
0000
0000
,
0000
0000
0000
1001
,
0000
0002
0000
0203
,
0000
0320
0000
2030
,
0000
3002
0000
2003
,
0000
3200
0000
0320
,
0000
0032
0203
0320
,
2030
3200
0320
0032
,
0000
2003
3020
0230
,
0302
0023
0230
2300
,
0000
3001
1100
0001
,
1000
0010
0101
1000
,
0000
0001
1100
0010
,
0001
1000
0101
1000
,
0000
0020
0030
0200
,
0300
0002
2003
3200
,
0300
2000
3000
0002
,
0003
0020
0032
0203
,
0300
0001
1000
0010
,
0100
0002
2003
3200
,
0300
1000
0010
0100
,
0001
2000
3002
0203
,
0300
0001
0000
0000
,
0000
1000
0100
0001
,
0100
0000
1000
0000
0010
0100
0001
0000
,
0000
0001
0100
1000
,
0100
0000
0001
0000
0010
0100
1000
0000
,
0000
0001
1000
0010
,
0100
0000
0010
0000
1000
0000
0001
1000
,
0010
0000
1000
0010
,
0100
0000
0001
0000
1000
0000
0001
1000
,
0100
0000
2000
0000
3000
0000
0001
1000
,
0001
0000
2000
0000
3000
0000
0001
0100
,
0001
0000
2000
0000
3000
0000
0001
0010
,
0001
2000
3000
0002
,
0003
1000
0100
0010
,
0010
0001
1000
0010
,
0010
0100
0001
1000
,
1000
0000
0001
0000
0100
0000
0010
1000
,
0001
1000
0000
0000
,
0000
0000
0000
0000
,
0000
0000
0000
0000
,
0000
0000
0000
0010
,
0010
1001
1000
0001
,
0100
2002
0000
0000
,
3003
0001
1000
0010
,
0010
0000
1000
0000
0010
1000
0001
0000
,
0000
1000
0100
0000
,
0100
0000
0100
0010
,
0010
0001
1000
0010
,
0100
0001
1000
0001
,
0000
1000
0001
0100
,
2002
0000
0000
3003
,
0001
1000
0010
0100
,
0100
0000
0001
0000
1000
0001
1000
0000
,
0001
0101
1000
1010
,
0001
0100
0110
0000
0000
0000
0000
0000
;

//---------------dance-single - ----------------
#NOTES:
     dance-single:
     :
     Easy:
     3:
     0.126233,0.180602,0.015502,0.007751,0.000000,114.000000,112.000000,2.000000,1.000000,0.000000,0.000000,0.126233,0.180602,0.015502,0.007751,0.000000,114.000000,112.000000,2.000000,1.000000,0.000000,0.000000:
// measure 0
0000
0000
0000
0000
,  // measure 1
0000
0000
0000
0000
,  // measure 2
0000
0000
0000
0000
,  // measure 3
0000
0000
0000
1000
,  // measure 4
0000
0010
0000
0100
,  // measure 5
0000
0001
0000
1000
,  // measure 6
0000
0010
0000
1000
,  // measure 7
0000
0001
0000
0001
,  // measure 8
0000
0100
0000
0010
,  // measure 9
0000
1000
0000
0001
,  // measure 10
0000
1000
0000
0100
,  // measure 11
0000
0010
0010
0010
,  // measure 12
0000
0001
0000
1000
,  // measure 13
0000
0010
0000
0010
,  // measure 14
0000
1000
0000
0001
,  // measure 15
0000
0100
0100
0100
,  // measure 16
0000
0100
0000
0001
,  // measure 17
0000
1000
0000
1000
,  // measure 18
0000
0010
0000
1000
,  // measure 19
0000
0001
0000
0001
,  // measure 20
0000
1000
0000
0001
,  // measure 21
0000
0100
0100
0100
,  // measure 22
0000
0100
0000
0001
,  // measure 23
0000
1000
1000
1000
,  // measure 24
0000
1000
0000
0000
,  // measure 25
0000
0000
0010
0000
,  // measure 26
0010
0000
1000
0000
,  // measure 27
1000
0000
0001
0000
,  // measure 28
0001
0000
0100
0100
,  // measure 29
0000
0001
0000
1000
,  // measure 30
0000
0010
0010
0010
,  // measure 31
0000
0010
0000
1000
,  // measure 32
0000
0001
0000
0001
,  // measure 33
0000
0100
0000
0100
,  // measure 34
0000
0001
0000
0001
,  // measure 35
0000
1000
0000
1000
,  // measure 36
0000
0010
0010
0010
,  // measure 37
0000
0010
0000
1000
,  // measure 38
0000
0001
0000
0100
,  // measure 39
0000
0001
0000
1000
,  // measure 40
0000
0001
0001
0001
,  // measure 41
0000
0001
0000
0000
,  // measure 42
0000
0000
0000
0000
,  // measure 43
0000
0000
0000
0000
,  // measure 44
0000
0000
0000
0010
,  // measure 45
0010
1001
0000
0000
,  // measure 46
0000
0000
1000
0100
,  // measure 47
0000
1000
0000
0001
,  // measure 48
0000
0100
0000
0000
,  // measure 49
0000
0001
0000
0000
,  // measure 50
1000
0000
0010
0010
,  // measure 51
0000
1000
0000
0001
,  // measure 52
0000
0100
0100
0100
,  // measure 53
0000
0001
0000
1000
,  // measure 54
0020
0000
0000
0030
,  // measure 55
1000
0000
0001
0000
,  // measure 56
0100
0000
0100
0000
,  // measure 57
0001
1000
0010
0010
,  // measure 58
1000
1001
0000
0000
;

//---------------dance-single - ----------------
#NOTES:
     dance-single:
     :
     Beginner:
     1:
     0.059795,0.090301,0.000000,0.000000,0.000000,54.000000,54.000000,0.000000,0.000000,0.000000,0.000000,0.059795,0.090301,0.000000,0.000000,0.000000,54.000000,54.000000,0.000000,0.000000,0.000000,0.000000:
// measure 0
0000
0000
0000
0000
,  // measure 1
0000
0000
0000
0000
,  // measure 2
0000
0000
0000
0000
,  // measure 3
0000
0000
0000
0001
,  // measure 4
0000
0000
0000
1000
,  // measure 5
0000
0000
0000
0000
,  // measure 6
0000
0010
0000
0000
,  // measure 7
0000
0000
0000
0000
,  // measure 8
0000
1000
0000
0000
,  // measure 9
0000
0001
0000
0000
,  // measure 10
0000
0001
0000
0000
,  // measure 11
0000
0100
0000
0000
,  // measure 12
0000
0010
0000
0000
,  // measure 13
0000
1000
0000
0000
,  // measure 14
0000
1000
0000
0000
,  // measure 15
0000
0001
0000
0000
,  // measure 16
0000
0001
0000
0000
,  // measure 17
0000
0100
0000
0000
,  // measure 18
0000
0010
0000
0000
,  // measure 19
0000
1000
0000
0000
,  // measure 20
0000
0001
0000
0000
,  // measure 21
0000
1000
0000
0000
,  // measure 22
0000
0100
0000
0000
,  // measure 23
0000
0010
0000
0000
,  // measure 24
0000
0001
0000
0000
,  // measure 25
0000
0000
0000
1000
,  // measure 26
0000
1000
0000
0000
,  // measure 27
0000
0001
0000
0001
,  // measure 28
0000
0001
0000
0000
,  // measure 29
0000
0100
0000
0000
,  // measure 30
0000
0100
0000
0000
,  // measure 31
0000
0001
0000
0000
,  // measure 32
0000
1000
0000
0000
,  // measure 33
0000
0001
0000
0000
,  // measure 34
0000
1000
0000
0000
,  // measure 35
0000
1000
0000
0000
,  // measure 36
0000
0001
0000
0000
,  // measure 37
0000
0001
0000
0000
,  // measure 38
0000
1000
0000
0000
,  // measure 39
0000
0001
0000
0000
,  // measure 40
0000
1000
0000
0000
,  // measure 41
0000
0010
0000
0000
,  // measure 42
0000
0000
0000
0000
,  // measure 43
0000
0000
0000
0000
,  // measure 44
0000
0000
0000
0100
,  // measure 45
0100
0100
0000
0000
,  // measure 46
0000
0001
0000
0000
,  // measure 47
0000
1000
0000
0000
,  // measure 48
0000
0010
0000
0000
,  // measure 49
0000
1000
0000
0000
,  // measure 50
0000
0001
0000
0000
,  // measure 51
0000
0100
0000
0000
,  // measure 52
0000
0001
0000
0000
,  // measure 53
0000
1000
0000
0000
,  // measure 54
0000
0010
0000
0000
,  // measure 55
0000
0000
1000
0000
,  // measure 56
0000
0000
0000
0000
,  // measure 57
0001
0000
0000
0000
,  // measure 58
1000
1000
0000
0000
;
