#TITLE:What's A Girl To Do;
#SUBTITLE:;
#ARTIST:Bat For Lashes;
#TITLETRANSLIT:;
#SUBTITLETRANSLIT:;
#ARTISTTRANSLIT:;
#GENRE:;
#CREDIT:;
#BANNER:Whats A Girl To Do [Nowhere Dance Club].png;
#BACKGROUND:Whats A Girl To Do [Nowhere Dance Club]-bg.png;
#LYRICSPATH:;
#CDTITLE:;
#MUSIC:Whats A Girl To Do [Nowhere Dance Club].ogg;
#OFFSET:-0.514000;
#SAMPLESTART:43.261002;
#SAMPLELENGTH:15.966000;
#SELECTABLE:YES;
#BPMS:0.000000=116.500000
;
#STOPS:
;
#BGCHANGES:0.514=Whats A Girl To Do [Nowhere Dance Club].avi=1.000=0=0=1=====,
99999=-nosongbg-=1.000=0=0=0 // don't automatically add -songbackground-
;
#KEYSOUNDS:;
#ATTACKS:;

//---------------dance-single - NOWHERE Dance Club----------------
#NOTES:
     dance-single:
     NOWHERE Dance Club:
     Easy:
     3:
     0.192579,0.237986,0.249166,0.230000,0.000000,211.000000,172.000000,39.000000,36.000000,0.000000,0.000000,0.192579,0.237986,0.249166,0.230000,0.000000,211.000000,172.000000,39.000000,36.000000,0.000000,0.000000:
// measure 0
0000
0000
0000
0000
,  // measure 1
0100
0000
0100
0001
,  // measure 2
0100
0000
0100
1000
,  // measure 3
0200
0000
0000
0000
,  // measure 4
0000
0000
0300
0100
,  // measure 5
0002
0000
0000
0000
,  // measure 6
0000
0000
0003
0001
,  // measure 7
0200
0000
0000
0000
,  // measure 8
0000
0000
0300
0100
,  // measure 9
2000
0000
0000
0000
,  // measure 10
0000
0000
3000
1000
,  // measure 11
0100
0000
0100
0001
,  // measure 12
0100
0000
0100
1000
,  // measure 13
0100
0000
0100
0001
,  // measure 14
0010
0000
0100
0010
,  // measure 15
1000
0000
0001
0010
,  // measure 16
0100
0000
0001
1000
,  // measure 17
0001
0000
1000
0001
,  // measure 18
0100
0000
0100
0100
,  // measure 19
0100
0000
1001
0001
,  // measure 20
1100
0000
1000
0000
,  // measure 21
2000
0000
3000
0110
,  // measure 22
0020
0000
0030
0110
,  // measure 23
0200
0000
0300
0011
,  // measure 24
0002
0000
0003
0011
,  // measure 25
0200
0000
0300
1100
,  // measure 26
0020
0000
0030
0110
,  // measure 27
2000
0000
3000
0110
,  // measure 28
0010
1000
0010
0100
,  // measure 29
0020
0000
0030
0110
,  // measure 30
0002
0000
0003
0011
,  // measure 31
0020
0000
0030
0110
,  // measure 32
0200
0000
0300
0110
,  // measure 33
2000
0000
3000
0011
,  // measure 34
0002
0000
0003
0110
,  // measure 35
0000
1001
0000
1100
,  // measure 36
0000
0011
0000
1001
,  // measure 37
1001
0000
0100
0000
,  // measure 38
0100
0001
0100
0000
,  // measure 39
0100
1000
0100
1000
,  // measure 40
0001
1000
0100
0000
,  // measure 41
0010
0010
0010
0010
,  // measure 42
0010
0000
0100
0100
,  // measure 43
0100
0000
0100
0010
,  // measure 44
0001
0000
1000
0010
,  // measure 45
0100
0000
0100
0001
,  // measure 46
0100
0000
0100
1000
,  // measure 47
0100
0000
0100
0001
,  // measure 48
0010
0000
0100
0010
,  // measure 49
1000
0000
0001
0010
,  // measure 50
0100
0000
0100
0010
,  // measure 51
1001
0000
1000
0001
,  // measure 52
1001
0000
1000
0110
,  // measure 53
0001
0000
0002
0000
,  // measure 54
2003
0000
3000
0000
,  // measure 55
2000
0000
3000
0110
,  // measure 56
0200
0000
0300
0110
,  // measure 57
0020
0000
0030
0101
,  // measure 58
0002
0000
0003
0101
,  // measure 59
0020
0000
0030
1010
,  // measure 60
0200
0000
0300
0110
,  // measure 61
2000
0000
3000
0110
,  // measure 62
1000
0010
0100
0110
,  // measure 63
2000
0000
3000
0110
,  // measure 64
0020
0000
0030
0110
,  // measure 65
0200
0000
0300
0011
,  // measure 66
0002
0000
0003
0011
,  // measure 67
0200
0000
0300
1100
,  // measure 68
0020
0000
0030
0110
,  // measure 69
2000
0000
3000
0110
,  // measure 70
1000
0001
1000
0110
,  // measure 71
1000
0000
0000
1000
,  // measure 72
2000
3000
0001
0000
,  // measure 73
0002
0000
0003
0100
,  // measure 74
2000
0000
3000
0000
;

//---------------dance-single - NOWHERE Dance Club----------------
#NOTES:
     dance-single:
     NOWHERE Dance Club:
     Medium:
     5:
     0.311230,0.380777,0.434444,0.626110,0.025556,341.000000,273.000000,68.000000,98.000000,25.000000,1.000000,0.311230,0.380777,0.434444,0.626110,0.025556,341.000000,273.000000,68.000000,98.000000,25.000000,1.000000:
0000
0000
0000
0000
,
0100
0000
0000
0100
0100
0000
1100
0000
,
0001
0000
0000
0001
0100
0000
1001
0000
,
0200
0000
0300
0100
0001
0200
0000
0300
,
0010
0001
2000
3000
1000
0000
0000
0000
,
1001
0000
0000
0001
0011
0000
0000
0000
,
0200
0000
0301
0100
0010
0000
0000
0000
,
2000
0000
3000
1000
0000
0000
0000
0100
,
0202
0000
0303
1000
,
2200
0000
0000
0000
3300
0000
0001
0001
,
0202
0000
0303
0000
,
0200
0010
0301
1000
,
0020
1000
0130
1010
,
0200
0010
1300
0011
,
0200
0010
0301
1010
,
0200
0001
0301
1001
,
0220
0000
0000
0330
,
0001
1000
0000
0000
0000
0000
0001
0000
0200
0000
0000
0000
1300
0000
0000
0000
,
1000
0010
0000
0000
0000
0000
0100
0000
0002
0000
0000
0000
1003
0000
0000
0000
,
1000
0100
0000
0000
0001
0000
0010
0000
0002
0000
0000
0000
1003
0000
0000
0000
,
0200
0000
0000
0000
0001
0300
0010
0000
,
0200
0000
0310
0001
2000
3000
1100
0000
,
0002
0000
0013
0100
2000
3000
1001
0000
,
0020
0000
0130
1000
0002
0003
0011
0000
,
2000
0000
3100
0010
0002
0003
1001
0000
,
0200
0000
0310
1000
0002
0003
0101
0000
,
2000
0000
3010
0100
0002
0003
1001
0000
,
2020
0000
3030
0101
,
2200
0000
0000
0000
0000
0000
3300
0000
0000
0000
0000
0000
1000
0100
0000
0000
,
2000
0000
0000
3000
0001
0000
1000
0000
2002
0000
0000
0000
0MM0
0000
3003
0000
,
0100
0000
0000
0100
0001
0000
0011
0000
,
0002
0000
1003
0001
2002
0000
0MM0
0000
,
3013
0000
1000
0001
,
1000
0010
0001
0100
1000
0000
0001
0000
,
1000
0010
0001
1000
,
0201
0000
0300
0110
,
0200
0000
0300
0101
,
0100
0000
2200
0000
,
3300
0001
0202
0000
,
0303
0000
0200
0010
,
0301
1000
0100
0110
,
0040
0000
0030
0011
,
0200
0000
1300
1100
,
2000
0000
3001
0001
,
2002
0000
3003
0100
,
0110
0020
1000
1030
,
0210
0001
0301
0101
,
1002
0100
1003
0100
,
0110
0001
1000
0100
0100
0000
1100
0000
,
0110
0200
1000
1300
,
0120
0001
0031
0100
,
0011
0110
0001
1100
,
1002
1000
0003
1000
0001
0000
0011
0000
,
0220
0000
0330
1001
,
0100
0011
1100
0100
,
0200
0000
0310
0001
2000
3000
1010
0000
,
0002
0000
0013
0100
2000
3000
1001
0000
,
0020
0000
0130
1000
0002
0003
0011
0000
,
2000
0000
3100
0010
0002
0003
1001
0000
,
0200
0000
0310
1000
0002
0003
1MM1
0000
,
2000
0000
3010
0100
0002
0003
1MM1
0000
,
2200
0000
3300
MM11
,
2020
0000
0000
3030
1000
0000
11MM
0000
,
0002
0000
0013
0100
2000
3000
1001
0000
,
0020
0000
0130
0001
2000
3000
1010
0000
,
0002
0000
0103
0010
2000
3000
1001
0000
,
0020
0000
0130
1000
0002
0003
0011
0000
,
2000
3200
0320
0032
,
2003
3000
0001
1000
,
0201
0000
0300
0110
,
0200
0000
0300
0101
,
020M
M0M0
000M
M0M0
000M
M0M0
000M
M0M0
030M
0000
0000
0000
0011
0000
0000
0000
,
0020
0000
0030
0000
1000
0001
1000
0100
,
0002
0000
0000
1000
,
2003
0000
3000
0000
;

//---------------dance-single - NOWHERE Dance Club----------------
#NOTES:
     dance-single:
     NOWHERE Dance Club:
     Hard:
     8:
     0.425317,0.485555,0.376944,0.696388,0.121389,466.000000,407.000000,59.000000,109.000000,22.000000,2.000000,0.425317,0.485555,0.376944,0.696388,0.121389,466.000000,407.000000,59.000000,109.000000,22.000000,2.000000:
0000
0000
0000
0000
,
0200
0000
0300
0100
0200
0000
0310
0000
,
0020
0000
0030
0010
0020
0000
0130
0000
,
1000
0000
0001
0000
0100
0000
0001
0000
0100
0001
0100
0000
0010
0000
0100
0000
,
0001
0000
0001
0000
0100
0000
0001
0000
0100
0001
0100
0000
1000
0000
0100
0000
,
2002
0000
3003
0001
0001
0000
1000
0000
,
0001
0000
1000
0000
0100
0000
1000
0000
0100
1000
0100
0000
0001
0000
0100
0000
,
2002
0000
3003
1000
1000
0000
0011
0000
,
1000
0000
0001
0000
0010
0000
0001
0000
0010
0001
0010
0000
0100
0000
1000
0000
,
2002
0000
3003
1000
1000
0000
0010
1000
,
0001
0000
0000
0001
2002
3003
0000
0000
,
0001
0000
1000
0000
0100
0000
1000
0000
0100
1000
0100
0000
0001
0000
0100
0000
,
1000
0000
0001
0000
0100
0000
0001
0000
0100
0001
0100
0000
1000
0000
0100
0000
,
0001
0000
1000
0000
0010
0000
1000
0000
0010
1000
0010
0000
1000
0000
0001
0000
,
0010
0000
1000
0000
0100
0000
1000
0000
0100
1000
0100
0000
0001
0000
0100
0000
,
0002
0000
0000
0000
0003
0000
1000
0001
2000
0000
0000
0000
3000
0000
0100
0000
,
2000
0000
3000
0000
0000
0010
1000
0010
2000
0000
0000
0000
3000
0000
0001
0000
,
2000
0000
0000
0000
3000
0000
0001
1000
0200
0000
0000
0000
0300
0000
0100
0000
,
0002
0000
0003
0000
0000
1000
0001
1000
0200
0000
0300
0000
0001
0000
0000
0000
,
2000
0000
3000
0000
0100
0000
1000
0001
2000
0000
3000
0000
0001
0000
0000
0000
,
0002
0000
0000
0000
0003
0000
1000
0001
,
1000
0010
0010
0001
0001
0000
0102
0003
,
1020
0000
0000
0000
0030
0000
0000
0000
1000
0000
0100
0010
0100
0000
0000
0000
,
0002
0003
1000
0001
2100
3000
0012
0003
,
0100
0000
0000
0000
0100
0000
1000
0100
1000
0000
0000
0000
0100
0000
0001
0000
,
0201
0000
0300
0000
0020
0000
0030
0000
1000
0000
0001
1000
0001
0000
0000
0000
,
1200
0000
0300
0000
0021
0000
0030
0000
0001
0000
1000
0001
1000
0000
0000
0000
,
0100
0000
0001
0000
0002
0000
0003
0000
1000
0000
0100
1000
0100
0000
0000
0000
,
0200
0000
1300
0000
2000
0000
0000
0000
3001
0000
0001
1000
0001
0000
0000
0000
,
2010
0000
3010
0000
1000
0000
MM21
0030
,
2100
0000
3000
0000
2010
3000
0102
0000
,
2003
0000
0000
3000
0000
0000
1000
0100
1000
0000
0000
0000
2M1M
0000
3000
0000
,
0201
0000
0300
0000
0102
0003
2010
0000
,
3001
0000
0000
0000
0001
0000
1000
0100
1000
0000
0000
0000
1MM2
0000
0003
0000
,
0120
0000
0030
0000
1000
1000
0001
0001
,
2000
0000
3000
0001
0010
0000
1010
0000
,
2002
0000
3003
0100
0100
0000
1100
0000
,
0200
0000
0300
0100
0200
0000
0310
0000
,
0020
0000
0030
0010
0020
0030
1001
0000
,
0200
0000
0300
0100
0200
0300
0011
0000
,
0020
0000
0030
0010
0020
0030
0100
0000
,
0040
0000
0030
0011
,
0020
0000
0000
0130
0100
0000
1100
0000
,
0200
0000
0300
0100
0200
0300
0110
0000
,
0020
0000
0030
0010
0020
0030
0001
0000
,
0001
0000
1000
0000
0100
0000
1000
0000
0001
1000
0001
0000
1000
0000
0100
0000
,
0001
0000
1000
0000
0010
0000
1000
0000
0010
1000
0010
0000
0001
0000
0100
0000
,
0001
0000
1000
0000
0001
0000
0010
0000
0001
1000
0001
0000
0100
0000
0010
0000
,
0001
0000
0100
0000
0202
0000
0303
0000
0001
1000
0001
0000
0001
0000
0000
0000
,
0001
0000
1000
0000
0100
0000
1000
0000
0100
1000
0100
0000
0001
0000
0100
0000
,
0201
0000
0000
0000
0300
0000
0100
0000
0001
0010
0001
0000
1000
0000
0000
0000
,
0020
0000
0000
0000
0030
0000
0010
0000
0100
0010
0100
0000
0001
0000
0000
0000
,
2000
0000
3002
0000
0103
0000
0000
0000
0010
1000
0010
0000
1000
0000
0000
0000
,
1000
2100
3201
0312
,
0103
0000
0100
0000
0200
0300
1000
0001
,
1000
0000
0010
0100
0010
0000
0001
0000
0001
0000
0000
0000
0102
0000
0003
0000
,
1020
0000
0000
0000
0030
0000
0000
0000
1000
0000
0100
0010
0100
0000
0000
0000
,
0002
0000
1003
0001
2100
3000
0012
0000
,
0103
0000
0100
1000
1000
0000
0200
0000
,
0301
0000
1000
0100
1000
0000
0010
0000
1000
0000
0000
0000
MM21
0000
0030
0000
,
2100
0000
3010
0000
0012
0003
2100
0000
,
3001
0000
0000
0000
1000
0000
0001
0010
0001
0000
0000
0000
2MM1
0000
3000
0000
,
0210
0300
0002
1003
,
0020
0000
0030
0000
0001
0000
1000
0001
1000
0000
0000
0000
1M2M
0000
0030
0000
,
0102
0000
0003
0000
0012
0003
2100
0000
,
3001
0000
0000
0000
0001
0000
1000
0010
1000
0000
0000
0000
1MM2
0000
0003
0000
,
0210
0000
0300
0000
2100
3000
0012
0000
,
1003
0000
0000
0000
1000
0000
0001
0100
0001
0000
0000
0000
2MM1
0000
3000
0000
,
0120
0000
0030
0000
1000
1000
0001
0001
,
2000
3000
1100
0101
,
2002
0000
3003
0000
0100
0010
0100
M01M
,
M20M
M00M
0300
0100
0200
0000
0310
0000
,
0020
0000
0030
0010
0020
0000
1030
0000
,
0200
0000
0300
0100
0200
0000
0310
0000
,
0020
0000
0030
0010
0020
0000
0130
0000
,
0200
0000
0000
0000
,
0300
0000
0000
0000
;

//---------------dance-single - ----------------
#NOTES:
     dance-single:
     :
     Beginner:
     1:
     0.067540,0.093278,0.000000,0.000000,0.000000,74.000000,74.000000,0.000000,0.000000,0.000000,0.000000,0.067540,0.093278,0.000000,0.000000,0.000000,74.000000,74.000000,0.000000,0.000000,0.000000,0.000000:
// measure 0
0000
0000
0000
0000
,  // measure 1
0000
0000
0000
0000
,  // measure 2
0000
0000
0000
0000
,  // measure 3
1000
0000
0000
0000
,  // measure 4
0001
0000
0000
0000
,  // measure 5
0100
0000
0000
0000
,  // measure 6
0100
0000
0000
0000
,  // measure 7
0001
0000
0000
0000
,  // measure 8
1000
0000
0000
0000
,  // measure 9
0010
0000
0000
0000
,  // measure 10
0010
0000
0000
0000
,  // measure 11
1000
0000
0000
0000
,  // measure 12
1000
0000
0000
0000
,  // measure 13
0001
0000
0000
0000
,  // measure 14
0001
0000
0000
0000
,  // measure 15
0100
0000
0000
0000
,  // measure 16
0100
0000
0000
0000
,  // measure 17
0001
0000
0000
0000
,  // measure 18
1000
0000
0000
0000
,  // measure 19
0010
0000
0010
0000
,  // measure 20
0000
0000
0000
0000
,  // measure 21
1000
0000
1000
0000
,  // measure 22
0000
0000
0000
0000
,  // measure 23
0001
0000
0001
0000
,  // measure 24
0000
0000
0000
0000
,  // measure 25
0100
0000
0100
0000
,  // measure 26
0000
0000
0000
0000
,  // measure 27
0001
0000
0001
0000
,  // measure 28
0000
0000
0000
0000
,  // measure 29
1000
0000
1000
0000
,  // measure 30
0000
0000
0000
0000
,  // measure 31
0010
0000
0010
0000
,  // measure 32
0000
0000
0000
0000
,  // measure 33
1000
0000
0000
0000
,  // measure 34
0001
0000
0000
0000
,  // measure 35
0100
0000
0000
0000
,  // measure 36
0100
0000
0000
0000
,  // measure 37
0010
0000
0000
0000
,  // measure 38
1000
0000
0000
0000
,  // measure 39
0001
0000
0000
0000
,  // measure 40
0001
0000
0000
0000
,  // measure 41
1000
0000
0000
0000
,  // measure 42
0010
0000
0000
0000
,  // measure 43
0100
0000
0000
0000
,  // measure 44
0100
0000
0000
0000
,  // measure 45
0001
0000
0000
0000
,  // measure 46
1000
0000
0000
0000
,  // measure 47
0010
0000
0000
0000
,  // measure 48
0010
0000
0000
0000
,  // measure 49
1000
0000
0000
0000
,  // measure 50
0001
0000
0000
0000
,  // measure 51
0100
0000
0000
0000
,  // measure 52
0100
0000
0000
0000
,  // measure 53
0001
0001
0000
0000
,  // measure 54
0001
0000
0000
0000
,  // measure 55
1000
0000
1000
0000
,  // measure 56
0000
0000
0000
0000
,  // measure 57
0010
0000
0010
0000
,  // measure 58
0000
0000
0000
0000
,  // measure 59
1000
0000
1000
0000
,  // measure 60
0000
0000
0000
0000
,  // measure 61
0001
0000
0001
0000
,  // measure 62
0000
0000
0000
0000
,  // measure 63
0100
0100
0000
0000
,  // measure 64
0100
0000
0000
0000
,  // measure 65
0010
0010
0000
0000
,  // measure 66
0010
0000
0000
0000
,  // measure 67
1000
0000
0000
0000
,  // measure 68
0001
0000
0000
0000
,  // measure 69
1000
0000
0000
0000
,  // measure 70
0100
0000
0000
0000
,  // measure 71
0100
0000
0000
0000
,  // measure 72
0100
0000
0000
0000
,  // measure 73
0010
0000
0000
0000
;
