#TITLE:☆V☆E☆A☆H☆;
#SUBTITLE:;
#ARTIST:バーバパパ;
#TITLETRANSLIT:;
#SUBTITLETRANSLIT:;
#ARTISTTRANSLIT:;
#GENRE:;
#CREDIT:Ben Fears;
#BANNER:VEAH [Ben Fears].png;
#BACKGROUND:VEAH [Ben Fears]-bg.png;
#LYRICSPATH:;
#CDTITLE:;
#MUSIC:VEAH [Ben Fears].ogg;
#OFFSET:-0.009364;
#SAMPLESTART:86.332855;
#SAMPLELENGTH:14.533999;
#SELECTABLE:YES;
#DISPLAYBPM:155;
#BPMS:0.000000=155.000000
,131.000000=155.500000
,132.000000=155.000000
;
#STOPS:
;
#BGCHANGES:0.000=VEAH [Ben Fears].avi=1.000=0=0=0=StretchNoLoop====,
99999=-nosongbg-=1.000=0=0=0 // don't automatically add -songbackground-
;
#KEYSOUNDS:;
#ATTACKS:;

//---------------dance-single - ----------------
#NOTES:
     dance-single:
     :
     Hard:
     13:
     0.562003,0.600373,0.244889,0.363384,0.150093,498.000000,467.000000,31.000000,46.000000,0.000000,0.000000,0.562003,0.600373,0.244889,0.363384,0.150093,498.000000,467.000000,31.000000,46.000000,0.000000,0.000000:
// measure 0
0000
0000
0000
0000
,  // measure 1
0000
0000
0000
0000
,  // measure 2
0000
0000
0000
0000
,  // measure 3
0000
0000
0000
0000
,  // measure 4
0110
0010
0010
0010
,  // measure 5
0010
0010
0010
0010
,  // measure 6
0010
0010
0010
0010
,  // measure 7
0010
0000
0010
0000
0000
0000
2002
3003
,  // measure 8
1000
0000
0100
0000
0010
0000
0100
0000
1000
0000
0000
0001
0000
0000
1000
0000
,  // measure 9
0000
0010
0000
0010
0000
0000
1000
0000
0001
0000
0010
0000
0100
0000
1000
0000
,  // measure 10
0001
0000
0100
0000
0010
0000
0100
0000
0001
0000
1000
0000
0001
0100
0001
0000
,  // measure 11
0100
0000
0010
0000
1000
0000
0100
0000
0010
0000
0001
1000
0001
0000
1000
0000
,  // measure 12
0001
0000
0010
0000
0100
0000
0010
0000
0001
0000
0000
1000
0000
0000
0001
0000
,  // measure 13
0000
0100
0000
0100
0000
0000
0001
0000
1000
0000
0100
0000
0010
0000
0001
0000
,  // measure 14
1000
0000
0010
0000
0100
0000
0010
0000
1000
0000
0001
0000
1000
0010
1000
0000
,  // measure 15
0010
0000
0100
0000
0001
0000
0010
0000
0100
0000
1000
0001
2000
0000
0000
0000
,  // measure 16
3002
0000
0000
0000
0103
0000
0001
0000
1000
0000
0001
0100
0000
0000
0010
0000
,  // measure 17
1000
0100
0000
0010
0001
0000
1000
0000
0001
0000
0001
0000
0100
0000
0100
0000
,  // measure 18
0010
0000
1000
0000
0001
0000
0010
0000
0100
0000
1000
0000
0001
1000
0010
0000
,  // measure 19
0100
0000
0001
0000
1000
0000
0100
0000
0010
0000
0001
1000
0001
0000
1000
0000
,  // measure 20
0001
0000
0100
0000
0010
0000
1000
0000
0001
0000
1000
0010
0000
0000
0100
0000
,  // measure 21
0001
0010
0000
0100
1000
0000
0001
0000
1000
0000
1000
0000
0010
0000
0010
0000
,  // measure 22
0100
0000
0001
0000
1000
0000
0100
0000
0010
0000
0001
0000
1000
0001
0100
0000
,  // measure 23
0010
0000
1000
0000
0001
0000
0010
0000
0100
0000
1000
0001
2000
0000
0000
0000
,  // measure 24
3002
0100
0000
0100
,  // measure 25
2003
0010
0000
0010
,  // measure 26
0000
0000
3002
0000
0000
0000
0100
0100
,  // measure 27
0000
0100
0000
1000
,  // measure 28
2003
0000
3001
0200
0000
0000
0310
0000
,  // measure 29
0200
0000
0301
2000
0000
0000
3100
0000
,  // measure 30
2000
0000
3001
0020
0000
0000
0130
0000
,  // measure 31
0020
0032
2003
3010
,  // measure 32
1001
0000
1001
0002
0000
0103
0010
1000
,  // measure 33
1100
0000
1100
0200
0000
1300
0010
0100
,  // measure 34
0101
0000
0101
0200
0000
0310
1000
0001
,  // measure 35
2000
0000
3002
0000
1003
1000
0010
0010
,  // measure 36
0100
0001
0100
0001
0100
0001
0100
0001
,  // measure 37
1000
0100
1000
0100
1000
0100
1000
0100
,  // measure 38
1000
0010
0001
1000
0100
0001
0010
1000
,  // measure 39
0001
0100
1000
0001
1000
0000
2002
3003
,  // measure 40
0001
0201
0000
0000
0310
1010
0000
0101
,  // measure 41
0000
0000
1001
0000
0000
0000
1100
0000
0000
0000
0101
0000
0000
0000
1000
0100
,  // measure 42
0010
0000
0012
0000
1003
0020
0000
0230
,  // measure 43
0000
0000
0302
0000
0000
0000
2003
0000
0000
0000
3002
0000
0000
0000
0103
0010
,  // measure 44
1000
0000
0100
0000
1000
0000
0001
0000
1000
0001
0000
0000
0100
0000
0100
0000
,  // measure 45
0000
0000
1001
0000
0000
0000
1100
0000
0000
0000
0101
0000
0000
0000
0001
1000
,  // measure 46
0010
0000
1010
0000
1000
0100
0010
0012
,  // measure 47
0000
1003
0000
2010
0000
3001
0200
0000
,  // measure 48
0320
0000
1030
0000
0001
1000
0010
0110
,  // measure 49
0000
0000
0101
0000
0000
0000
1100
0000
0000
0000
1001
0000
0000
0000
0001
1000
,  // measure 50
0100
0000
1100
0000
0001
2000
0000
3020
,  // measure 51
0000
0000
0230
0000
0000
0000
0302
0000
0000
0000
2003
0000
0000
0000
3100
0010
,  // measure 52
0001
0000
0100
0000
0001
0000
1000
0000
0001
0100
0000
0000
0010
0000
0010
0000
,  // measure 53
0000
0000
1000
0000
0000
0000
1001
0000
0000
0000
1100
0000
0000
0000
0001
1000
,  // measure 54
0010
0000
0110
0000
0100
0001
1000
0020
,  // measure 55
0000
2030
0000
3002
0000
1003
0200
0000
,  // measure 56
0310
0001
1000
0010
0100
0001
1000
0100
,  // measure 57
0010
0000
0001
0000
0100
0000
1000
0000
0100
0000
0010
0000
1000
0000
0001
0010
,  // measure 58
0100
1000
0010
0100
0001
0100
0010
1000
,  // measure 59
0100
0000
0010
0000
0001
0000
1000
0000
0010
0000
0100
0000
0001
0000
1000
0100
,  // measure 60
1000
0000
0001
0000
0100
0000
0010
0000
1000
0100
0010
0000
0001
0000
1000
0000
,  // measure 61
0010
0000
0100
0000
0010
0000
0001
0000
0010
0000
0100
0000
0010
0000
1000
0100
,  // measure 62
1000
0001
0100
0010
1000
0001
0010
0100
,  // measure 63
1000
0001
1000
0010
0100
0001
2000
0000
,  // measure 64
3002
0000
0103
0010
0100
0001
1000
0100
,  // measure 65
0010
0000
0001
0000
1000
0000
0010
0000
0100
0000
0001
0000
1000
0000
0001
0100
,  // measure 66
0001
1000
0100
0010
0001
0100
0010
0100
,  // measure 67
0001
0000
0010
0000
0100
0000
1000
0000
0001
0000
0100
0000
0010
0000
1000
0100
,  // measure 68
0010
0000
0001
0000
1000
0000
0010
0000
1000
0001
0000
0001
0100
0000
0010
0000
,  // measure 69
0100
0000
0001
0000
0010
0000
0100
0000
1000
0000
0001
0000
1000
0000
0001
0010
,  // measure 70
0100
1000
0001
0100
0010
0100
0010
1000
,  // measure 71
0100
0000
0010
0000
0001
0000
1000
0000
0010
0000
0100
0000
0001
0000
1000
0001
,  // measure 72
1000
0000
0000
0000
,  // measure 73
0000
0000
0000
0000
,  // measure 74
0000
0000
0000
0000
,  // measure 75
0000
0000
0000
0000
,  // measure 76
0100
0100
0100
0100
,  // measure 77
0100
0100
0100
0100
,  // measure 78
0100
0100
0100
0100
,  // measure 79
0100
0100
0010
0010
,  // measure 80
1001
0000
0000
0000
;

//---------------dance-single - ----------------
#NOTES:
     dance-single:
     :
     Medium:
     11:
     0.448023,0.537176,0.363384,0.173792,0.000000,397.000000,351.000000,46.000000,22.000000,0.000000,0.000000,0.448023,0.537176,0.363384,0.173792,0.000000,397.000000,351.000000,46.000000,22.000000,0.000000,0.000000:
// measure 0
0000
0000
0000
0000
,  // measure 1
0000
0000
0000
0000
,  // measure 2
0000
0000
0000
0000
,  // measure 3
0000
0000
0000
0000
,  // measure 4
1000
1000
0001
0001
,  // measure 5
1000
1000
0001
0001
,  // measure 6
1000
1000
0001
0001
,  // measure 7
1000
1000
0000
1002
,  // measure 8
0103
0001
1000
0000
0010
0000
1010
0000
,  // measure 9
0001
0011
1000
1100
,  // measure 10
1000
0100
0010
0000
0001
0000
0011
0000
,  // measure 11
1000
1010
0001
0101
,  // measure 12
1000
0100
0010
0000
0001
1000
0001
1000
,  // measure 13
0000
0001
0100
0000
0010
1000
0001
0000
,  // measure 14
1000
0001
0100
0000
0001
1000
0001
1000
,  // measure 15
0000
1000
0100
0000
1000
0001
1001
0000
,  // measure 16
0102
0000
1003
0000
1000
0001
0100
0000
,  // measure 17
0001
1000
0010
0000
1000
0100
0010
0000
,  // measure 18
0100
0000
1000
0000
0010
1000
0100
0000
,  // measure 19
1000
0100
0010
0000
0001
1000
0001
0000
,  // measure 20
1000
0000
0010
0000
0100
0001
1000
0000
,  // measure 21
0010
1000
0100
0000
1000
0100
0010
0000
,  // measure 22
0001
0000
1000
0000
0001
1000
0010
0000
,  // measure 23
0100
0001
1000
0000
0001
0010
0200
0000
,  // measure 24
2300
0001
0000
0001
,  // measure 25
3002
0100
0000
0100
,  // measure 26
0000
2003
0000
0010
,  // measure 27
0000
0010
0000
3010
,  // measure 28
1000
0000
0001
0200
0000
0000
0300
0000
,  // measure 29
0010
0000
1000
0200
0000
0000
0300
0000
,  // measure 30
0010
0000
0001
2000
0000
0000
3000
0000
,  // measure 31
0002
0000
0023
0000
0130
1000
0001
0000
,  // measure 32
1100
0000
0101
0000
1000
0100
0010
0000
,  // measure 33
0011
0000
1010
0000
0010
1000
0001
0000
,  // measure 34
0101
0000
1100
0000
1000
0100
0010
0000
,  // measure 35
1100
0000
0110
0000
0010
0001
1000
0000
,  // measure 36
0001
0100
0001
0100
0010
0100
0010
0000
,  // measure 37
1000
0010
1000
0010
0100
0010
0100
0000
,  // measure 38
0001
1000
0001
0100
0010
0100
0001
1000
,  // measure 39
0001
0010
0100
0010
0001
1000
0200
0000
,  // measure 40
1300
0010
0000
0000
0000
1010
0000
1001
,  // measure 41
0000
0101
0000
1001
0000
1100
0000
0001
,  // measure 42
2000
0000
3001
0000
0000
1100
0000
0101
,  // measure 43
0000
0011
0000
1010
0000
1001
0000
1000
,  // measure 44
0001
0100
0001
0100
0010
1000
0010
0000
,  // measure 45
1000
0100
1000
0000
0001
0000
0010
0000
,  // measure 46
0001
1000
0001
0000
0000
1100
0000
0101
,  // measure 47
0000
1000
0000
0010
0000
1000
0002
0000
,  // measure 48
0103
0010
0110
0000
0000
1010
0000
1100
,  // measure 49
0000
0101
0000
0011
0000
1001
0000
0001
,  // measure 50
0100
0000
0101
0000
0000
1000
0000
0001
,  // measure 51
0000
1100
0000
0101
0000
1000
0000
0001
,  // measure 52
0100
0010
1000
0010
1000
0001
0100
0000
,  // measure 53
0001
1000
0100
0000
1000
0001
0100
0000
,  // measure 54
1001
0000
1001
0000
0000
1100
0000
0101
,  // measure 55
0000
1000
0000
0001
0000
1000
0020
0000
,  // measure 56
0130
0001
0100
0010
1000
0001
1000
0000
,  // measure 57
0001
0010
0100
0000
1000
0010
0100
0000
,  // measure 58
0010
1000
0010
1000
0100
1000
0001
0000
,  // measure 59
1000
0100
0010
0000
0100
0010
0001
0000
,  // measure 60
1000
0010
1000
0010
0100
0001
1000
0000
,  // measure 61
0001
0100
0010
0000
0100
0010
1000
0000
,  // measure 62
0010
1000
0001
1000
0100
0010
0001
0000
,  // measure 63
0010
0100
2000
0000
3001
0000
0000
0000
,  // measure 64
2200
0000
0000
3300
,  // measure 65
0002
0100
0100
0103
,  // measure 66
1000
0010
0100
0000
0001
1000
0001
0000
,  // measure 67
1000
0100
0010
0001
0010
0100
1000
0000
,  // measure 68
0202
0000
0000
0303
,  // measure 69
2000
0000
0010
3010
,  // measure 70
1000
0010
0100
0000
0010
1000
0100
1000
,  // measure 71
0001
0010
0100
0010
0001
1000
0010
0000
,  // measure 72
1001
0000
0000
0000
,  // measure 73
0000
0000
0000
0000
,  // measure 74
0000
0000
0000
0000
,  // measure 75
0000
0000
0000
0000
,  // measure 76
0010
0010
0010
0010
,  // measure 77
0010
0010
0010
0010
,  // measure 78
0010
0010
0010
0010
,  // measure 79
0010
0010
0000
0000
,  // measure 80
1001
0000
0000
0000
;

//---------------dance-single - ----------------
#NOTES:
     dance-single:
     :
     Easy:
     7:
     0.343070,0.442380,0.126394,0.173792,0.000000,304.000000,288.000000,16.000000,22.000000,0.000000,0.000000,0.343070,0.442380,0.126394,0.173792,0.000000,304.000000,288.000000,16.000000,22.000000,0.000000,0.000000:
// measure 0
0000
0000
0000
0000
,  // measure 1
0000
0000
0000
0000
,  // measure 2
0000
0000
0000
0000
,  // measure 3
0000
0000
0000
0000
,  // measure 4
1000
0001
1000
0001
,  // measure 5
1000
0001
1000
0001
,  // measure 6
1000
0001
1000
0001
,  // measure 7
1000
0001
0000
1001
,  // measure 8
0001
0100
0010
0010
,  // measure 9
1000
1000
0001
1000
,  // measure 10
0100
0010
0001
0001
,  // measure 11
1000
1000
0001
1000
,  // measure 12
0010
0100
0001
1000
,  // measure 13
0010
0010
0100
0100
,  // measure 14
0001
1000
0100
0010
,  // measure 15
0001
0001
1000
0020
,  // measure 16
0230
0000
0301
0000
1000
0000
0010
1000
,  // measure 17
0010
0100
0001
1000
,  // measure 18
0001
0000
1000
0000
0100
0000
0010
0001
,  // measure 19
0010
0001
1000
0001
,  // measure 20
1000
0000
0010
0000
0100
0000
0001
0100
,  // measure 21
0001
0100
0010
1000
,  // measure 22
0001
0000
1000
0000
0100
0000
1000
0100
,  // measure 23
1000
0100
1000
0020
,  // measure 24
0230
0001
0000
0001
,  // measure 25
0302
1000
0000
1000
,  // measure 26
0000
0023
0000
0100
,  // measure 27
0000
0100
0000
0130
,  // measure 28
1000
0010
0200
0300
,  // measure 29
0001
1000
0200
0300
,  // measure 30
1000
0001
0020
0030
,  // measure 31
0001
0010
0100
1000
,  // measure 32
1010
1010
0002
0103
,  // measure 33
0101
0101
2000
3100
,  // measure 34
1100
1100
0002
0013
,  // measure 35
0011
0011
2000
3010
,  // measure 36
1000
0010
1000
0000
0001
0000
0001
0000
,  // measure 37
0001
0100
0001
0000
1000
0000
1000
0000
,  // measure 38
0001
1000
0001
0000
1000
0001
1000
0000
,  // measure 39
0001
0010
0000
1001
,  // measure 40
1000
0100
1000
0000
0000
0001
0000
1000
,  // measure 41
0000
0010
0000
0100
0000
0001
0000
0000
,  // measure 42
0100
0001
0100
0000
0000
0001
0000
1000
,  // measure 43
0000
0001
0000
0100
0000
0010
0000
0000
,  // measure 44
1000
0100
1000
0000
0001
0100
0001
0000
,  // measure 45
1000
1000
0001
0001
,  // measure 46
1000
0010
1000
0000
0000
0000
0001
0000
,  // measure 47
1000
0010
0100
0002
,  // measure 48
2003
0000
3100
0000
0000
1000
0000
0001
,  // measure 49
0000
1000
0000
0010
0000
0100
0000
0000
,  // measure 50
0001
0100
0001
0000
0000
1000
0000
0001
,  // measure 51
0000
0100
0000
0010
0000
1000
0000
0000
,  // measure 52
0001
0100
0001
0000
1000
0100
1000
0000
,  // measure 53
0000
0001
0000
1000
0000
0010
0000
0000
,  // measure 54
0100
0001
0100
0000
0000
0000
0010
0000
,  // measure 55
1000
0001
0010
0200
,  // measure 56
2300
0000
3001
0000
1000
0010
0100
0000
,  // measure 57
0001
1000
0001
0000
,  // measure 58
0001
0000
0100
0000
0001
1000
0010
0000
,  // measure 59
0100
0001
1000
0000
,  // measure 60
0100
0000
0100
0000
1000
0100
0010
0000
,  // measure 61
0001
1000
0010
0010
,  // measure 62
0100
0000
0001
0000
0100
0001
1000
0000
,  // measure 63
0001
1000
0010
0000
,  // measure 64
2002
0003
0001
0001
,  // measure 65
3002
0000
0100
0100
,  // measure 66
0203
0000
0010
0010
,  // measure 67
0320
1030
0001
0010
,  // measure 68
0011
0000
1000
0000
0001
0100
0010
0000
,  // measure 69
1000
0000
0001
0000
1000
0100
0010
0000
,  // measure 70
0110
1001
0000
1000
,  // measure 71
0001
1000
0100
0000
0010
0001
0100
0000
,  // measure 72
1001
0000
0000
0000
,  // measure 73
0000
0000
0000
0000
,  // measure 74
0000
0000
0000
0000
,  // measure 75
0000
0000
0000
0000
,  // measure 76
0010
0010
0010
0010
,  // measure 77
0010
0010
0010
0010
,  // measure 78
0010
0010
0010
0010
,  // measure 79
0010
0010
0000
0000
,  // measure 80
1001
0000
0000
0000
;

//---------------dance-single - ----------------
#NOTES:
     dance-single:
     :
     Beginner:
     3:
     0.147836,0.252789,0.007900,0.000000,0.000000,131.000000,130.000000,1.000000,0.000000,0.000000,0.000000,0.147836,0.252789,0.007900,0.000000,0.000000,131.000000,130.000000,1.000000,0.000000,0.000000,0.000000:
// measure 0
0000
0000
0000
0000
,  // measure 1
0000
0000
0000
0000
,  // measure 2
0000
0000
0000
0000
,  // measure 3
0000
0000
0000
0000
,  // measure 4
1000
0000
1000
0000
,  // measure 5
1000
0000
0000
0000
,  // measure 6
0001
0000
0001
0000
,  // measure 7
0001
0000
0000
0100
,  // measure 8
0100
0000
0000
0000
,  // measure 9
0001
0000
0001
0000
,  // measure 10
0001
0000
0000
0000
,  // measure 11
1000
0000
1000
0000
,  // measure 12
1000
0000
0000
0000
,  // measure 13
0010
0000
0010
0000
,  // measure 14
0010
0000
0000
0000
,  // measure 15
1000
0000
0000
0001
,  // measure 16
0001
0000
0000
0000
,  // measure 17
1000
0000
1000
0000
,  // measure 18
1000
0000
0000
0000
,  // measure 19
0010
0000
0010
0000
,  // measure 20
0010
0000
0000
0000
,  // measure 21
1000
0000
1000
0000
,  // measure 22
1000
0000
0000
0000
,  // measure 23
0001
0000
0000
0100
,  // measure 24
0100
0000
0000
0000
,  // measure 25
0010
0000
0000
0000
,  // measure 26
0000
1000
0000
0000
,  // measure 27
0000
0000
0000
0000
,  // measure 28
0001
0001
0000
0000
,  // measure 29
1000
1000
0000
0000
,  // measure 30
0010
0010
0000
0000
,  // measure 31
0010
0000
0000
0000
,  // measure 32
1000
1000
0000
0000
,  // measure 33
0001
0001
0000
0000
,  // measure 34
0100
0100
0000
0000
,  // measure 35
0100
0100
0000
0000
,  // measure 36
0001
0001
0001
0000
,  // measure 37
1000
1000
1000
0000
,  // measure 38
0010
0010
0010
0010
,  // measure 39
0010
0000
0000
0100
,  // measure 40
0100
0000
0000
0000
,  // measure 41
0001
0000
0001
0000
,  // measure 42
0001
0001
0000
0000
,  // measure 43
1000
0000
1000
0000
,  // measure 44
1000
1000
0000
0000
,  // measure 45
0010
0000
0010
0000
,  // measure 46
0010
0010
0000
0000
,  // measure 47
0100
0000
0100
0000
,  // measure 48
0100
0000
0000
0000
,  // measure 49
0001
0000
0001
0000
,  // measure 50
0001
0001
0000
0000
,  // measure 51
1000
0000
1000
0000
,  // measure 52
1000
1000
0000
0000
,  // measure 53
0010
0000
0010
0000
,  // measure 54
0010
0010
0000
0000
,  // measure 55
1000
0000
0000
0001
,  // measure 56
0001
0000
0000
0000
,  // measure 57
1000
0000
1000
0000
,  // measure 58
0100
0000
0000
0000
,  // measure 59
0100
0000
0100
0000
,  // measure 60
0010
0000
0000
0000
,  // measure 61
0010
0000
0010
0000
,  // measure 62
0001
0000
0000
0000
,  // measure 63
0001
0000
0000
0100
,  // measure 64
0100
0000
0000
0000
,  // measure 65
0010
0000
0000
0000
,  // measure 66
1000
0000
0000
0000
,  // measure 67
0001
0000
0000
0000
,  // measure 68
1000
1000
1000
0000
,  // measure 69
0100
0100
0100
0000
,  // measure 70
0010
0010
0010
0000
,  // measure 71
0001
0001
0001
0001
,  // measure 72
0001
0000
0000
0000
,  // measure 73
0000
0000
0000
0000
,  // measure 74
0000
0000
0000
0000
,  // measure 75
0000
0000
0000
0000
,  // measure 76
1000
1000
0000
0000
,  // measure 77
0001
0001
0000
0000
,  // measure 78
1000
1000
0000
0000
,  // measure 79
0001
0001
0000
0000
,  // measure 80
1001
0000
0000
0000
;
