#TITLE:Thriller;
#SUBTITLE:(James Egbert Remix);
#ARTIST:Michael Jackson;
#TITLETRANSLIT:;
#SUBTITLETRANSLIT:;
#ARTISTTRANSLIT:;
#GENRE:;
#CREDIT:;
#BANNER:Thriller (James Egbert Remix) [Nowhere Dance Club].png;
#BACKGROUND:Thriller (James Egbert Remix) [Nowhere Dance Club]-bg.png;
#LYRICSPATH:;
#CDTITLE:;
#MUSIC:Thriller (James Egbert Remix) [Nowhere Dance Club].ogg;
#OFFSET:-0.092000;
#SAMPLESTART:33.862000;
#SAMPLELENGTH:16.386999;
#SELECTABLE:YES;
#DISPLAYBPM:16.000000:256.000000;
#BPMS:0.000000=128.000000
,168.000000=256.000000
,230.000000=128.000000
,326.250000=64.000000
,331.000000=32.000000
,332.000000=16.000000
,333.000000=128.000000
;
#STOPS:
;
#BGCHANGES:;
#KEYSOUNDS:;
#ATTACKS:;

//---------------dance-single - ----------------
#NOTES:
     dance-single:
     :
     Hard:
     9:
     0.384048,0.498573,0.419220,0.538997,0.066543,404.000000,341.000000,63.000000,81.000000,22.000000,0.000000,0.384048,0.498573,0.419220,0.538997,0.066543,404.000000,341.000000,63.000000,81.000000,22.000000,0.000000:
0000
0000
0000
0000
,
0000
0000
0000
0000
,
1000
0000
0001
0000
1000
0001
1000
0000
,
0001
0000
1000
0000
0001
1000
0001
0000
,
1100
0000
0011
0000
1000
0001
1000
0000
,
0011
0000
1100
0000
0021
0030
0201
0000
,
0301
0000
1001
0000
1000
0010
0200
0000
,
0301
0000
1001
0000
0001
0010
0100
0000
,
0220
0330
0022
0033
0001
0001
2002
3003
,
0020
0000
0030
0000
0100
0000
0000
0000
0101
0000
0000
0000
1000
0001
1000
0000
,
0002
0000
0000
0003
1000
0000
0000
0000
1000
0000
0001
0000
0100
0000
0000
0000
,
0001
0000
0110
0000
0100
0001
0100
0000
,
2000
0000
0000
3000
0001
0000
0000
0000
0001
0000
1000
0000
0100
0000
0000
0000
,
1000
0000
0000
0000
0110
0000
0000
0000
1000
0100
1000
0000
1100
0000
0000
0000
,
0002
0000
0000
0003
1000
0000
0000
0000
1000
0000
0001
0000
0100
0000
0000
0000
,
0001
0000
0110
0000
0100
0001
0100
0000
,
0220
0000
0330
0000
0101
0000
0000
0000
0001
1000
0001
0000
2002
0000
3003
0000
,
0200
0000
0300
0000
0010
0000
0000
0000
0011
0000
0000
0000
0001
1000
0001
0000
,
1000
0000
0001
0000
1000
0001
1000
0000
,
0020
0000
0032
0003
1000
0001
0200
0300
,
1000
1000
0100
0010
0001
0001
0010
0100
,
2000
0000
0000
0000
0000
0000
3000
0000
0000
0000
0100
0010
0100
0000
0000
0000
,
2000
0000
0010
0000
3010
0000
0001
1000
,
0200
0000
0000
0000
0000
0300
0000
0000
1000
0001
1000
0000
0000
0000
0000
0000
,
1000
1000
0100
0010
0001
0001
0010
0100
,
2000
0000
0000
0000
0001
0000
3000
0000
0000
0000
0001
1000
0001
0000
0000
0000
,
M012
MM00
M003
0000
21M0
00MM
30M0
0000
,
1000
0100
1000
0000
0010
1000
0010
0000
,
0110
0000
0000
0000
0000
0000
1000
0001
0000
1000
0001
0000
0000
0000
0000
0000
,
0110
0000
0110
0000
0000
0000
1000
0001
0000
1000
0001
0000
0000
0000
0000
0000
,
2001
0000
0000
3000
0001
0010
0100
0010
,
0002
0000
0000
0003
0001
0010
0100
0010
,
2200
0000
3300
0000
1000
0002
0000
0203
,
0000
0000
0000
0000
0300
0000
0000
0000
0000
0000
0001
1000
0001
0000
0000
0000
,
0002
0000
0000
2000
0003
0000
0000
0000
3000
0000
0000
0000
MMM1
0000
0000
0000
,
2000
3002
2003
3MM1
,
0002
0000
0000
0000
0000
0000
0003
0000
1000
0100
1000
0100
1000
0000
0000
0000
,
0010
0001
0200
0301
,
0021
0000
0001
0031
,
1100
0101
0002
MM13
,
1000
0100
0010
0001
0010
0100
1000
0100
,
0000
M11M
0000
0000
M11M
0000
0020
0000
,
0002
0000
0000
0000
,
0030
0000
0000
0000
0003
0000
0000
1002
,
0000
1000
0000
0000
0000
0000
0000
0000
,
0000
0000
0000
0003
0000
0000
0000
0102
,
0000
0100
0000
0000
0000
0000
0000
0000
,
0000
0000
0000
0003
0000
0000
0000
2100
,
0000
0100
0000
0000
0000
0000
0000
0000
,
0000
0000
0000
3000
0000
0000
0000
0102
,
0000
1000
0000
0000
0000
0000
0000
0000
,
0000
0000
0000
0003
0000
0000
0000
2100
,
0000
0001
0000
0000
0000
0000
0000
0000
,
0000
0000
0000
0000
0000
0000
0000
3000
0000
0000
0000
0000
0000
0000
1100
0000
,
0000
2200
0000
0000
0000
0000
0000
0000
,
0000
0000
0000
3300
0000
0000
0000
1001
,
0000
0220
0000
0000
0000
0000
0000
0000
,
0330
0000
0000
0000
1010
0000
0001
0001
,
0010
1000
0100
0000
1010
0000
1000
1000
,
0010
0001
0101
0000
1000
0000
0001
0100
,
0001
0000
0010
0000
0002
0000
0000
0000
1003
0000
0000
1000
0001
0000
1000
0000
,
0100
0000
1000
0000
0010
0000
0000
0000
1010
0000
0000
0000
0010
0001
0010
0000
,
1000
0000
0000
0000
1000
0100
1000
0000
0001
0000
0000
0000
0010
1000
0010
0000
,
0100
0000
0000
0000
0001
0100
0001
0000
0010
0000
0000
0000
0100
0000
0100
0000
,
0010
0010
0001
0001
1000
1000
2002
0000
,
0000
3003
0000
00M0
0M00
00M0
1000
0000
,
0001
0000
1000
0000
0001
0000
2200
3300
,
0220
0330
0022
0033
0101
0000
0012
0000
,
0103
0000
0001
2000
0010
0000
3010
0000
,
0010
0000
0010
1000
0100
0000
2200
3300
,
0011
0000
0001
0100
0101
0000
0020
0000
,
0230
0000
0320
1030
0002
0000
1000
0000
,
0010
0003
1000
0001
0100
0000
0100
0000
,
0100
0000
0010
1000
0001
1000
0001
0000
,
2000
0001
3100
0201
,
0001
0300
0010
0000
1010
0000
2000
0000
,
3001
0002
1003
2001
,
3010
0001
1001
0002
,
0100
0103
1100
1001
,
0011
0000
0101
0001
2000
0000
3001
0000
,
2000
3001
1002
0013
,
1000
0000
0000
0000
4000
0000
0000
0000
0000
3000
0000
0000
1000
0000
0000
0000
,
0001
1000
0001
2000
,
0002
3003
0000
0000
;

//---------------dance-single - ----------------
#NOTES:
     dance-single:
     :
     Medium:
     6:
     0.286134,0.441845,0.279480,0.286134,0.000000,301.000000,259.000000,42.000000,43.000000,0.000000,0.000000,0.286134,0.441845,0.279480,0.286134,0.000000,301.000000,259.000000,42.000000,43.000000,0.000000,0.000000:
0000
0000
0000
0000
,
0000
0000
0000
0000
,
1000
0102
1003
0010
,
1000
0001
0010
0000
0010
0000
0220
0000
,
0330
0000
2001
0000
3100
0000
1000
0010
,
0100
0001
0100
2002
,
3003
0000
0001
0000
1000
0000
0010
1000
,
0010
0100
0101
2100
,
3001
2002
3003
0101
,
1000
0000
0010
1000
0200
0000
0300
0000
,
1000
0001
0100
0100
,
0010
0000
1000
0000
0001
0100
0001
0000
,
0000
1000
0001
1000
,
0100
0000
0010
0000
0001
0010
0100
1000
,
0000
1001
1000
0010
,
0100
0000
0100
0000
0010
1000
0010
0000
,
1010
0001
0011
1000
,
1001
0110
2002
3003
,
0001
0000
1000
0000
0010
0000
0100
0001
,
2000
0000
3100
0000
,
1000
0100
1000
0000
0001
0010
0001
0000
,
0200
0300
0010
0010
,
1000
0000
0000
0000
0001
0000
1000
0001
,
0200
0000
0301
0000
,
0100
0000
0001
0000
1000
0000
0010
0100
,
0020
0000
0030
1000
,
0002
0000
0003
0000
,
1000
0100
0010
0001
,
0100
0010
0100
0000
0000
0000
0110
0000
,
0001
0000
0100
0000
0010
1000
0010
0000
,
2002
0000
0000
3003
,
1000
0000
0001
0000
0010
0000
0100
1000
,
0100
0000
0000
0000
1000
0000
0010
1000
,
0001
0000
1000
0010
,
0110
2002
0000
3003
,
0001
1000
0200
0300
,
1000
0100
0010
0001
,
0100
0010
1000
0000
,
0110
2002
0000
3003
,
0001
1000
0020
0030
,
0100
0100
0001
1000
,
0000
0001
0100
0000
1000
0100
0000
0000
,
2002
0000
0000
0000
,
0000
0000
3003
0000
,
0020
0000
0000
0000
,
0000
0000
0030
0000
,
0200
0000
0000
0000
,
0000
0000
0300
0000
,
0002
0000
0000
0000
,
0000
0000
0003
0000
,
1000
0000
1000
0000
,
0001
0000
0001
0000
,
0100
0000
0100
0000
,
0010
0000
0010
0000
,
1000
0000
1000
0000
,
0001
0000
0001
0000
,
1000
0000
1000
0000
,
0100
0000
0100
1000
,
1000
0001
0001
0100
,
0100
0010
0010
1000
,
0010
0100
0001
0010
,
0100
1000
0001
1000
,
1000
0100
0100
0010
,
0010
0001
0001
0200
,
0000
0000
0000
0310
,
0000
0000
0000
1001
,
1001
0100
0100
1001
,
1001
0010
0010
0002
,
0013
0100
1000
0020
,
0130
0001
1000
1001
,
1001
1100
1100
1001
,
0101
2002
3003
0001
,
1000
0010
0010
0100
,
0001
1000
0000
1010
,
0101
1000
0001
0011
,
1100
2002
3003
0001
,
1000
0000
0010
1000
0010
0000
0100
0000
,
0001
0100
0001
0000
0000
0000
0101
0000
,
2020
0000
3030
1001
,
0110
0022
0033
2000
,
3100
0000
0002
0000
0103
0000
1000
0001
,
0100
0000
0001
1000
0100
0000
1000
0000
,
1000
0001
0001
0100
,
0010
0000
0000
0000
;

//---------------dance-single - ----------------
#NOTES:
     dance-single:
     :
     Easy:
     4:
     0.153999,0.248538,0.059889,0.106469,0.000000,162.000000,153.000000,9.000000,16.000000,0.000000,0.000000,0.153999,0.248538,0.059889,0.106469,0.000000,162.000000,153.000000,9.000000,16.000000,0.000000,0.000000:
// measure 0
0000
0000
0000
0000
,  // measure 1
0000
0000
0000
0000
,  // measure 2
0001
0000
1000
0000
,  // measure 3
0010
0000
0010
0000
,  // measure 4
1000
0000
0001
0000
,  // measure 5
0100
0100
0000
0000
,  // measure 6
0001
0000
1000
0000
,  // measure 7
0100
0000
0100
0000
,  // measure 8
1000
1000
0000
0000
,  // measure 9
0001
0001
0000
0000
,  // measure 10
1000
0000
0010
0000
,  // measure 11
0100
0000
0100
0000
,  // measure 12
0001
0000
1000
0000
,  // measure 13
0001
0000
0001
0000
,  // measure 14
0010
0000
0010
0000
,  // measure 15
0100
0000
0100
0000
,  // measure 16
1000
1000
0000
0000
,  // measure 17
0001
0001
0001
0000
,  // measure 18
0100
0000
0010
0000
,  // measure 19
2000
3000
1000
0000
,  // measure 20
0001
1000
0001
0000
,  // measure 21
0002
0003
0000
0000
,  // measure 22
1000
0000
0100
0000
,  // measure 23
0020
0030
0010
0000
,  // measure 24
0001
1000
0001
0000
,  // measure 25
2000
3000
0000
0010
,  // measure 26
0020
0000
0000
0030
,  // measure 27
0100
0000
0100
0000
,  // measure 28
0001
0000
0000
0000
,  // measure 29
1000
0000
0001
0000
,  // measure 30
2000
0000
3000
0000
,  // measure 31
0010
0000
0010
0000
,  // measure 32
1000
0000
0001
0000
,  // measure 33
0100
0000
0000
0000
,  // measure 34
0001
2000
3000
0000
,  // measure 35
1000
0100
1000
0000
,  // measure 36
1000
0000
0001
0000
,  // measure 37
1000
1000
0010
0000
,  // measure 38
1000
0002
0003
0000
,  // measure 39
0001
0100
0001
0000
,  // measure 40
0100
0000
0100
0000
,  // measure 41
0001
0000
1000
0000
,  // measure 42
0020
0000
0000
0000
,  // measure 43
0000
0000
0000
0000
,  // measure 44
0000
0000
0000
0000
,  // measure 45
0000
0000
0030
0000
,  // measure 46
0200
0000
0000
0000
,  // measure 47
0000
0000
0000
0000
,  // measure 48
0000
0000
0000
0000
,  // measure 49
0000
0000
0300
0000
,  // measure 50
0002
0000
0000
0000
,  // measure 51
0000
0000
0003
0000
,  // measure 52
2000
0000
0000
0000
,  // measure 53
0000
0000
3000
0000
,  // measure 54
0020
0000
0000
0000
,  // measure 55
0000
0000
0030
0000
,  // measure 56
0200
0000
0000
0000
,  // measure 57
0000
0000
0300
0001
,  // measure 58
0000
0001
0000
1000
,  // measure 59
0000
1000
0000
0010
,  // measure 60
0000
0010
0000
1000
,  // measure 61
0000
1000
0000
0001
,  // measure 62
0001
1000
0000
1000
,  // measure 63
1000
0010
0000
0010
,  // measure 64
0010
0100
0000
0220
,  // measure 65
0000
0000
0330
1001
,  // measure 66
1001
0000
0000
1000
,  // measure 67
0001
0100
0000
0001
,  // measure 68
0100
0001
0000
1000
,  // measure 69
0100
1000
0000
1001
,  // measure 70
1001
0000
0000
1000
,  // measure 71
0010
1000
0000
0001
,  // measure 72
0010
0100
0000
0001
,  // measure 73
1000
0001
0000
1001
,  // measure 74
1001
0000
0000
0001
,  // measure 75
0100
0001
0000
1000
,  // measure 76
0010
1000
0000
0001
,  // measure 77
1000
0001
0000
1001
,  // measure 78
1001
0000
0000
1000
,  // measure 79
0100
1000
0000
0001
,  // measure 80
0010
0001
0000
0100
,  // measure 81
0000
0100
0000
0010
,  // measure 82
0010
0010
0000
1000
,  // measure 83
0001
0000
0000
0000
;

//---------------dance-single - ----------------
#NOTES:
     dance-single:
     :
     Beginner:
     2:
     0.092209,0.137661,0.000000,0.000000,0.000000,97.000000,97.000000,0.000000,0.000000,0.000000,0.000000,0.092209,0.137661,0.000000,0.000000,0.000000,97.000000,97.000000,0.000000,0.000000,0.000000,0.000000:
// measure 0
0000
0000
0000
0000
,  // measure 1
0000
0000
0000
0000
,  // measure 2
0001
0000
0000
0000
,  // measure 3
1000
0000
0000
0000
,  // measure 4
0010
0000
0000
0000
,  // measure 5
1000
0000
1000
0000
,  // measure 6
1000
0000
0000
0000
,  // measure 7
0001
0000
0000
0000
,  // measure 8
0100
0000
0000
0000
,  // measure 9
0001
0000
0000
0000
,  // measure 10
1000
0000
0000
0000
,  // measure 11
0001
0000
0001
0000
,  // measure 12
0001
0000
0000
0000
,  // measure 13
1000
0000
0000
0000
,  // measure 14
0010
0000
0000
0000
,  // measure 15
0010
0000
0010
0000
,  // measure 16
0010
0000
0000
0000
,  // measure 17
1000
0000
0000
0000
,  // measure 18
0001
0000
0000
0000
,  // measure 19
0100
0000
0000
0000
,  // measure 20
0100
0000
0000
0000
,  // measure 21
0001
0000
0000
0000
,  // measure 22
1000
0000
0000
0000
,  // measure 23
0010
0000
0010
0000
,  // measure 24
0010
0000
0000
0000
,  // measure 25
1000
0000
0000
0000
,  // measure 26
0001
0000
0000
0000
,  // measure 27
1000
0000
1000
0000
,  // measure 28
1000
0000
0000
0000
,  // measure 29
0001
0000
0000
0000
,  // measure 30
0001
0000
0000
0000
,  // measure 31
0100
0000
0100
0000
,  // measure 32
0100
0000
0000
0000
,  // measure 33
0001
0000
0000
0000
,  // measure 34
1000
1000
0000
0000
,  // measure 35
1000
0000
0000
0000
,  // measure 36
0001
0001
0000
0000
,  // measure 37
0001
0000
0000
0000
,  // measure 38
0001
0001
0000
0000
,  // measure 39
0100
0000
0000
0000
,  // measure 40
0010
0010
0000
0000
,  // measure 41
0010
0000
0000
0000
,  // measure 42
1000
0000
0000
0000
,  // measure 43
0000
0000
0000
0000
,  // measure 44
0001
0000
0000
0000
,  // measure 45
0000
0000
0000
0000
,  // measure 46
1000
0000
0000
0000
,  // measure 47
0000
0000
0000
0000
,  // measure 48
0001
0000
0000
0000
,  // measure 49
0000
0000
0000
0000
,  // measure 50
0100
0000
0000
0000
,  // measure 51
0000
0000
0000
0000
,  // measure 52
0100
0000
0000
0000
,  // measure 53
0000
0000
0000
0000
,  // measure 54
0010
0000
0000
0000
,  // measure 55
0000
0000
0000
0000
,  // measure 56
0010
0000
0000
0000
,  // measure 57
0000
0000
0000
0000
,  // measure 58
0000
0000
0000
1000
,  // measure 59
0000
0000
0000
0001
,  // measure 60
0000
0000
0000
0001
,  // measure 61
0000
0000
0000
0100
,  // measure 62
0000
0000
0000
0010
,  // measure 63
0000
0000
0000
1000
,  // measure 64
0000
1000
0000
1000
,  // measure 65
0000
0000
0000
0001
,  // measure 66
0001
0000
0000
1000
,  // measure 67
1000
0000
0000
0010
,  // measure 68
0000
0010
0000
0010
,  // measure 69
0000
0000
0000
1000
,  // measure 70
1000
0000
0000
0001
,  // measure 71
0001
0000
0000
0100
,  // measure 72
0000
0100
0000
0100
,  // measure 73
0000
0000
0000
0001
,  // measure 74
0001
0000
0000
1000
,  // measure 75
1000
0000
0000
0010
,  // measure 76
0000
0010
0000
0010
,  // measure 77
0000
0000
0000
1000
,  // measure 78
1000
0000
0000
0001
,  // measure 79
0001
0000
0000
0100
,  // measure 80
0000
0100
0000
0100
,  // measure 81
0000
0000
0000
0010
,  // measure 82
0000
0010
0000
0010
;
