#VERSION:0.83;
#TITLE:The Whole Being Dead Thing Pt.2;
#SUBTITLE:;
#ARTIST:Beetlejuice the Musical;
#TITLETRANSLIT:;
#SUBTITLETRANSLIT:;
#ARTISTTRANSLIT:;
#GENRE:;
#ORIGIN:;
#CREDIT:;
#BANNER:The Whole Being Dead Thing Pt2 [danizom813].png;
#BACKGROUND:The Whole Being Dead Thing Pt2 [danizom813]-bg.png;
#PREVIEWVID:;
#JACKET:;
#CDIMAGE:;
#DISCIMAGE:;
#LYRICSPATH:;
#CDTITLE:;
#MUSIC:The Whole Being Dead Thing Pt2 [danizom813].ogg;
#OFFSET:-0.308000;
#SAMPLESTART:21.389000;
#SAMPLELENGTH:12.973000;
#SELECTABLE:YES;
#BPMS:0.000=148.000,
18.000=151.000,
19.000=148.000,
96.000=144.000,
98.000=158.000,
99.000=145.000,
104.000=150.000,
106.000=141.000,
107.000=146.000,
110.000=145.000,
114.000=148.000,
120.000=143.850,
124.000=149.000,
128.000=144.000,
130.000=139.000,
131.000=147.000,
134.000=140.500,
135.000=146.500,
143.000=140.000,
144.000=149.000,
146.000=145.000,
149.000=152.000,
151.000=145.000,
166.000=148.000,
167.000=145.000,
169.000=146.000,
172.000=151.000,
174.000=161.000,
175.000=151.000,
176.000=143.000,
179.000=144.000,
183.000=148.000,
193.000=151.000,
195.000=153.000,
198.000=151.000,
201.000=148.000,
203.000=152.000,
210.000=142.000,
211.000=151.000,
217.000=154.000,
220.000=150.000,
227.000=153.000,
229.000=151.000,
233.000=149.000,
237.000=154.000;
#STOPS:16.000=0.811,
89.000=1.216;
#DELAYS:;
#WARPS:37.000=8.000;
#TIMESIGNATURES:0.000=4=4;
#TICKCOUNTS:0.000=0;
#COMBOS:0.000=1;
#SPEEDS:0.000=1.000=0.000=0,
36.979=0.000=0.000=0,
45.000=1.000=4.000=0;
#SCROLLS:0.000=1.000;
#FAKES:;
#LABELS:0.000=Song Start;
#BGCHANGES:1.500=The Whole Being Dead Thing Pt2 [danizom813].avi=1.000=0=0=0=StretchNoLoop====,
99999=-nosongbg-=1.000=0=0=0 // don't automatically add -songbackground-
;
#KEYSOUNDS:;
#ATTACKS:
;

//---------------dance-single - danizom813----------------
#NOTEDATA:;
#CHARTNAME:;
#STEPSTYPE:dance-single;
#DESCRIPTION:danizom813;
#CHARTSTYLE:;
#DIFFICULTY:Hard;
#METER:10;
#RADARVALUES:0.490938,0.578837,0.479284,0.244741,0.112173,337.000000,290.000000,47.000000,24.000000,0.000000,0.000000,5.000000,0.000000,0.000000,0.490938,0.578837,0.479284,0.244741,0.112173,337.000000,290.000000,47.000000,24.000000,0.000000,0.000000,5.000000,0.000000,0.000000;
#CREDIT:danizom813;
#DISPLAYBPM:148.000000;
#NOTES:
0000
0000
0000
0000
,
0000
0000
0000
0000
,
1000
0000
0001
1000
0001
0000
1000
0000
0000
0000
0001
0000
1000
0000
0000
0000
,
0001
0000
1000
0001
1000
0000
0001
0000
0000
0000
1000
0000
0001
0000
0000
0000
,
1001
0000
1000
0010
1000
0000
0000
0000
0110
0000
0000
0000
0010
0000
0001
0000
,
0000
0010
0100
0000
1000
0000
0010
0100
,
0000
0000
0000
0000
0000
0000
1000
0000
0000
0000
0000
0000
0001
0000
0000
0000
0000
0000
0000
0000
0000
0000
0000
0000
1000
0000
0000
0000
0000
0000
0100
0000
0000
0000
0000
0000
0010
0000
0000
0000
0000
0000
0000
0001
0000
0000
0000
0000
,
0000
0010
0000
0000
0000
0000
0000
0000
0000
0000
0000
0000
0100
0000
0000
0000
0000
0000
1000
0000
0000
0000
0000
0000
0100
0000
0000
0000
0000
0000
0000
0000
0000
0000
0000
0000
0100
0000
0000
0000
0000
0000
0000
0000
0000
0000
0000
0000
,
1001
0000
0000
0000
0010
0000
0100
0000
0001
1000
0001
0000
0110
0000
0001
0000
,
1000
0001
0000
0000
0000
0000
0000
0000
,
0000
0000
0000
0000
,
0000
0000
0000
0000
,
0000
0000
0000
0010
1000
0001
0010
0010
,
1000
0100
0010
0000
1001
0000
0000
0000
,
0000
0000
0000
0010
1000
0000
0000
0000
0110
0000
0000
0000
1000
0000
0001
0000
,
0000
1000
0100
1000
1001
0000
0001
1000
,
1001
0000
1000
0001
1000
0000
0100
0000
0010
0000
0100
0000
1000
0000
0001
0000
,
1000
0000
0100
0010
0001
1000
1010
0000
,
0011
0000
0001
0000
0010
0000
0001
0000
1000
0000
0000
1000
0000
0000
0011
0000
,
0000
0000
1000
0000
0100
0000
1000
0100
1000
0000
0000
0000
1001
0000
1000
0000
,
0000
1100
0100
0000
0001
0010
0001
0001
,
0100
0010
1000
0100
0010
0100
1000
1000
,
0001
2002
3003
0004
,
0000
0000
0000
0003
0040
0000
0000
0000
0000
0000
0000
0000
0430
0000
0000
0000
,
0000
4300
0000
3100
,
1000
0010
0000
0000
2001
0000
3001
0000
,
0001
0100
0000
0000
0102
0000
1003
1000
,
1000
0100
0010
0010
0100
0000
1001
0000
,
1000
0000
0100
0000
1000
0000
0100
0000
0010
0000
0001
0000
1000
0100
0000
1000
,
0100
0010
1001
0000
1001
0000
0010
0001
,
1000
0001
0110
0000
0110
0000
1000
0100
,
1000
0400
0000
0300
,
1000
0100
1000
0000
1001
0000
0110
0000
,
0000
1010
0000
0000
0011
0000
1000
0001
,
0010
0100
1000
0100
0010
0000
0011
0000
,
0000
1010
0000
0000
1100
0000
0001
1000
,
0100
0010
0001
0010
0100
0000
1000
0100
,
1000
0100
2000
0000
3001
2000
0000
3001
,
0000
0000
0000
0001
0000
0000
0000
0000
0000
0000
0000
0000
0010
0000
0000
0100
0000
0000
0010
0000
0000
0000
0000
1100
,
0000
0000
0000
0000
0000
0000
0000
0000
2000
0000
0000
0200
0000
0000
0000
0000
,
0000
0000
3300
0000
0000
0000
0000
0010
,
0100
1000
0001
1000
0000
0000
0200
0000
,
0001
0000
0000
0000
0001
0000
0000
0000
0001
0000
0000
0300
0020
0000
0000
0000
,
0100
0000
0100
0000
0100
0030
0012
0000
,
0103
2010
3001
1100
,
0101
0011
1010
1001
,
0000
1000
0100
0000
1000
0000
0000
0000
0220
0000
0330
0000
0000
0002
0000
0003
,
0000
0200
0000
0000
0000
0000
0000
0000
0010
0000
0000
0000
0000
0000
0000
0000
0001
0000
0000
0000
0000
0000
0000
0000
1000
0000
0000
0000
0000
0000
0000
0000
,
0001
0000
0000
0000
0000
0000
0000
0000
0010
0000
0000
0000
0000
0300
0000
0000
0011
0000
0000
0000
0000
0000
0000
0000
0010
0000
0001
0000
0000
0000
0000
0000
,
0010
0001
0000
0000
0010
0001
0000
0000
0010
0001
0000
0000
0010
0000
0000
0000
,
1002
0000
1003
0000
0012
0000
0103
0100
,
0010
0001
1000
0010
0100
0000
0110
0000
,
0000
0000
0001
0010
0001
0000
0000
0000
1000
0000
0100
0000
1000
0000
0010
0000
,
0001
0010
0100
1000
0100
0000
0010
0001
,
0010
0000
1000
0100
1000
0010
0100
0000
,
1000
1000
0100
1000
0010
0100
0100
1000
,
0010
0010
0001
0100
0110
0000
1001
0000
,
0000
0000
0000
2010
,
3100
0021
0130
2002
,
3003
0000
0100
0100
2002
0000
3003
0000
;

//---------------dance-single - ----------------
#NOTEDATA:;
#CHARTNAME:;
#STEPSTYPE:dance-single;
#DESCRIPTION:;
#CHARTSTYLE:;
#DIFFICULTY:Medium;
#METER:7;
#RADARVALUES:0.308839,0.455065,0.193753,0.203951,0.000000,212.000000,193.000000,19.000000,20.000000,0.000000,0.000000,0.000000,0.000000,0.000000,0.308839,0.455065,0.193753,0.203951,0.000000,212.000000,193.000000,19.000000,20.000000,0.000000,0.000000,0.000000,0.000000,0.000000;
#CREDIT:benizom814;
#NOTES:
0000
0000
0000
0000
,
0000
0000
0000
0000
,
1000
0000
0001
0100
0000
0001
1000
0000
,
0001
0000
1000
0100
0000
1000
0001
0000
,
1001
0000
2020
3030
,
0000
1000
0010
0100
0002
0000
0003
0000
,
0000
0001
0100
0010
1000
0000
0001
0000
,
1000
0001
0200
0300
,
2002
3003
1000
0001
,
0100
0000
0000
0000
,
0000
0000
0000
0000
,
0000
0000
0000
0000
,
0000
0000
0000
0000
1000
0100
1000
0000
,
0001
0100
0001
0000
1000
0000
0000
0000
,
0000
0000
0000
0000
0101
0000
0000
0100
,
0000
0000
0010
0000
1010
0000
0000
1000
,
0000
0001
1000
0100
,
0010
0000
0001
1000
0001
1000
0001
0000
,
0000
0000
1000
0000
0010
0000
0100
0001
,
0000
0001
0100
0000
2002
0000
3003
0000
,
0001
1000
0001
0000
1000
0000
0100
0000
,
0010
0001
1000
0000
1001
0000
1100
0000
,
0101
1001
0000
2000
,
0000
3002
0000
0203
,
0000
0320
0000
1030
,
0000
0100
0000
0000
1000
0000
0001
0000
,
0000
0100
0000
0000
0001
0000
1000
0000
,
0000
0010
0000
0000
1000
0000
0001
0000
,
0010
0000
0001
1000
0001
0000
1000
0100
,
0010
0000
0110
0000
1001
0000
0001
0100
,
0010
0110
1001
2000
,
0000
0000
0000
0002
,
0000
0000
3003
0001
,
0000
0101
0000
0000
0100
0000
0001
0000
,
1000
0000
0100
1000
0100
0000
1000
0000
,
0000
1100
0000
0000
1000
0000
0001
0000
,
1000
0000
0001
0100
0001
0000
1000
0100
,
0000
0010
0001
0000
1000
0010
0000
0100
,
0001
2000
3002
0103
,
0000
0010
1000
0001
,
0000
0000
0000
1000
,
0000
0000
0000
0001
,
1000
0010
0100
0001
,
1000
0100
0000
1000
,
0100
0010
0001
1000
,
0010
0100
0000
0002
,
0000
0000
0000
0000
0003
0000
1000
0200
,
0000
0310
0010
0001
,
1000
0020
0000
0000
0030
0000
0100
0000
,
0100
0000
0010
1000
0010
0000
0100
0000
,
0100
0000
0001
0100
0001
0000
1000
0000
,
0010
0100
0001
2000
,
3000
0001
1000
0001
,
0010
0100
1000
0010
,
0100
0001
0000
1001
,
0000
1000
0000
0001
0000
0100
0000
0100
,
0000
0001
1000
0000
0010
0000
1001
0000
,
0000
0000
0000
0001
,
1000
0010
0100
0001
,
1000
0000
0100
0010
1001
0000
0000
0000
;

//---------------dance-single - ----------------
#NOTEDATA:;
#CHARTNAME:;
#STEPSTYPE:dance-single;
#DESCRIPTION:;
#CHARTSTYLE:;
#DIFFICULTY:Easy;
#METER:4;
#RADARVALUES:0.205407,0.242701,0.050988,0.081580,0.000000,141.000000,136.000000,5.000000,8.000000,0.000000,0.000000,0.000000,0.000000,0.000000,0.205407,0.242701,0.050988,0.081580,0.000000,141.000000,136.000000,5.000000,8.000000,0.000000,0.000000,0.000000,0.000000,0.000000;
#CREDIT:bnenizom813;
#NOTES:
// measure 0
0000
0000
0000
0000
,  // measure 1
0000
0000
0000
0000
,  // measure 2
0001
0001
0000
0000
,  // measure 3
1000
1000
0000
0000
,  // measure 4
1001
0000
1000
0000
,  // measure 5
0000
0100
0010
0000
,  // measure 6
0000
0001
1000
0010
,  // measure 7
0100
0001
1000
0000
,  // measure 8
0000
0000
0001
0000
,  // measure 9
0000
0000
0000
0000
,  // measure 10
0000
0000
0000
0000
,  // measure 11
0000
0000
0000
0000
,  // measure 12
0000
0000
1000
0000
,  // measure 13
0001
0000
0100
0100
,  // measure 14
0010
0000
1001
0000
,  // measure 15
0000
0001
0010
0000
,  // measure 16
0000
0100
1000
0010
,  // measure 17
0100
0001
1000
0000
,  // measure 18
0000
0000
0001
0000
,  // measure 19
1000
0010
0100
0000
,  // measure 20
0001
0000
1000
0100
,  // measure 21
0010
0001
0100
0100
,  // measure 22
0100
0100
0000
0002
,  // measure 23
0003
2000
3000
0020
,  // measure 24
0030
0200
0300
1000
,  // measure 25
0100
1000
0000
0001
,  // measure 26
1000
0001
0000
1000
,  // measure 27
0010
1000
0000
0001
,  // measure 28
0100
0001
0000
1000
,  // measure 29
0000
1000
0000
0001
,  // measure 30
0000
0001
0000
0100
,  // measure 31
0100
0010
0000
1000
,  // measure 32
0001
1000
0000
0001
,  // measure 33
0000
1000
0000
0100
,  // measure 34
0000
0100
0000
1000
,  // measure 35
0000
0001
0000
0100
,  // measure 36
0001
1000
0000
0010
,  // measure 37
0000
0010
0000
1000
,  // measure 38
0100
0010
0000
0001
,  // measure 39
1000
0010
0000
1000
,  // measure 40
0001
0100
0100
0001
,  // measure 41
0000
0000
0000
1000
,  // measure 42
0000
0001
0000
1000
,  // measure 43
0000
0001
0000
0100
,  // measure 44
0100
0010
0000
0010
,  // measure 45
0010
0100
0000
2002
,  // measure 46
0000
0000
3003
0001
,  // measure 47
0100
0010
1000
0001
,  // measure 48
1000
0001
0000
1000
,  // measure 49
0100
0010
0001
1000
,  // measure 50
0001
1000
0000
0001
,  // measure 51
1000
0010
0000
2002
,  // measure 52
3003
0000
0000
1000
,  // measure 53
0000
0001
0000
0010
,  // measure 54
0000
0100
0000
1000
,  // measure 55
0010
0100
0001
1000
,  // measure 56
1000
0001
0000
0001
,  // measure 57
0000
0000
0000
1000
,  // measure 58
0000
0010
0000
0100
,  // measure 59
0000
0100
1001
0000
;

//---------------dance-single - ----------------
#NOTEDATA:;
#CHARTNAME:;
#STEPSTYPE:dance-single;
#DESCRIPTION:;
#CHARTSTYLE:;
#DIFFICULTY:Beginner;
#METER:1;
#RADARVALUES:0.101975,0.151688,0.020395,0.000000,0.000000,70.000000,68.000000,2.000000,0.000000,0.000000,0.000000,0.000000,0.000000,0.000000,0.101975,0.151688,0.020395,0.000000,0.000000,70.000000,68.000000,2.000000,0.000000,0.000000,0.000000,0.000000,0.000000,0.000000;
#CREDIT:benizom813;
#NOTES:
// measure 0
0000
0000
0000
0000
,  // measure 1
0000
0000
0000
0000
,  // measure 2
1000
0000
0000
0000
,  // measure 3
0001
0000
0000
0000
,  // measure 4
0100
0000
0000
0000
,  // measure 5
0000
0010
0010
0000
,  // measure 6
0000
0000
1000
0000
,  // measure 7
1000
0000
1000
0000
,  // measure 8
0000
0000
0001
0000
,  // measure 9
0000
0000
0000
0000
,  // measure 10
0000
0000
0000
0000
,  // measure 11
0000
0000
0000
0000
,  // measure 12
0000
0000
0001
0000
,  // measure 13
0000
0000
0100
0000
,  // measure 14
0000
0000
0001
0000
,  // measure 15
0000
1000
1000
0000
,  // measure 16
0000
0000
0010
0000
,  // measure 17
0010
0000
0010
0000
,  // measure 18
0000
0000
1000
0000
,  // measure 19
0000
0000
0100
0000
,  // measure 20
0000
0000
1000
0000
,  // measure 21
1000
0000
1000
0000
,  // measure 22
1000
0000
0000
0000
,  // measure 23
0000
0000
0000
0000
,  // measure 24
0000
0000
0000
0001
,  // measure 25
0000
0001
0000
0001
,  // measure 26
0000
0000
0000
1000
,  // measure 27
0000
1000
0000
1000
,  // measure 28
0000
0000
0000
0010
,  // measure 29
0000
0000
0000
0010
,  // measure 30
0000
0000
0000
1000
,  // measure 31
0000
0000
0000
1000
,  // measure 32
0000
0000
0000
0001
,  // measure 33
0000
0000
0000
0100
,  // measure 34
0000
0000
0000
0010
,  // measure 35
0000
0010
0000
0010
,  // measure 36
0000
0000
0000
1000
,  // measure 37
0000
0000
0000
0001
,  // measure 38
0000
0000
0000
1000
,  // measure 39
0000
0000
0000
0100
,  // measure 40
0000
0000
0000
1000
,  // measure 41
0000
0000
0000
0001
,  // measure 42
0001
0000
0000
1000
,  // measure 43
1000
0000
0000
0001
,  // measure 44
0000
0001
0000
0001
,  // measure 45
0000
0000
0000
1001
,  // measure 46
0000
0000
0000
1000
,  // measure 47
0000
1000
0000
1000
,  // measure 48
0000
0000
0000
0010
,  // measure 49
0000
0010
0000
0010
,  // measure 50
0000
0000
0000
0100
,  // measure 51
0000
0100
0000
0100
,  // measure 52
0000
0000
0000
0001
,  // measure 53
0000
0000
0000
1000
,  // measure 54
0000
0000
0000
0010
,  // measure 55
0000
0010
0000
0010
,  // measure 56
0000
0000
0000
1000
,  // measure 57
0000
0000
0000
0001
,  // measure 58
0000
0000
0000
0000
,  // measure 59
0000
0000
1001
0000
;
