#TITLE:The Smiler;
#SUBTITLE:;
#ARTIST:IMAscore;
#TITLETRANSLIT:;
#SUBTITLETRANSLIT:;
#ARTISTTRANSLIT:;
#GENRE:;
#CREDIT:MrTwinkles;
#BANNER:The Smiler [MrTwinkles].png;
#BACKGROUND:The Smiler [MrTwinkles]-bg.png;
#LYRICSPATH:;
#CDTITLE:;
#MUSIC:The Smiler [MrTwinkles].ogg;
#OFFSET:-0.260000;
#SAMPLESTART:26.593000;
#SAMPLELENGTH:5.354000;
#SELECTABLE:YES;
#BPMS:0.000000=180.000000
;
#STOPS:
;
#BGCHANGES:-0.780=The Smiler [MrTwinkles].avi=1.000=0=0=0=StretchNoLoop====,
99999=-nosongbg-=1.000=0=0=0 // don't automatically add -songbackground-
;
#KEYSOUNDS:;
#ATTACKS:;

//---------------dance-single - MrTwinkles----------------
#NOTES:
     dance-single:
     MrTwinkles:
     Challenge:
     10:
     0.431233,0.624209,1.149954,0.258740,0.129370,210.000000,130.000000,80.000000,18.000000,22.000000,8.000000,0.431233,0.624209,1.149954,0.258740,0.129370,210.000000,130.000000,80.000000,18.000000,22.000000,8.000000:
0000
0000
0000
0000
,
0000
0000
0000
0000
,
0000
0000
0000
0000
,
0000
0000
0000
0000
0000
0000
0000
0000
0000
0000
0000
0000
0000
0000
0001
1000
,
0001
0000
0000
0000
1100
0000
0000
0000
1100
0000
0000
0000
0000
0000
1000
0001
,
1000
0000
0000
0000
0011
0000
0000
0000
0011
0000
0000
0000
0000
0000
1000
1000
,
1010
0101
0110
1100
,
0011
0000
0000
0000
0110
0000
0000
0000
1001
0000
0000
0000
0000
0000
0010
0100
,
0010
0000
0000
0000
1001
0000
0000
0000
1001
0000
0000
0000
0000
0000
0100
0010
,
0100
0000
0000
0000
1001
0000
0000
0000
1001
0000
0000
0000
0000
0000
0001
0100
,
0001
0101
1010
1001
,
0110
0000
0000
0000
,
1001
0000
0012
1203
,
0321
0030
2010
3000
,
0102
0003
2100
3021
,
2130
0000
0000
0000
3000
0000
0000
0000
0110
0000
0000
0000
0000
0000
1000
0001
,
1000
0000
0000
0000
0011
0000
0000
0000
0011
0000
0000
0000
0000
0000
0001
1000
,
0001
0000
0000
0000
1100
0000
0000
0000
1100
0000
0000
0000
0000
0000
0100
0100
,
0101
1010
0110
0011
,
1100
0110
1001
0000
,
0000
0M00
00M0
000M
,
00M0
0M00
M000
0M00
,
00M0
000M
00M0
0M00
,
M000
0000
0000
0000
0M00
0000
0000
0000
00M0
0000
0000
0000
0000
0000
1000
0001
,
1000
0000
0000
0000
0011
0000
0000
0000
0011
0000
0000
0000
0000
0000
0001
1000
,
0001
0000
0000
0000
1100
0000
0000
0000
1100
0000
0000
0000
0000
0000
0010
0010
,
0011
1010
0110
0011
,
1100
0000
0000
0000
0110
0000
0000
0000
1001
0000
0000
0000
0000
0000
0100
0010
,
0100
0000
0000
0000
1001
0000
0000
0000
1001
0000
0000
0000
0000
0000
0010
0100
,
0010
0000
0000
0000
1001
0000
0000
0000
1001
0000
0000
0000
0000
0000
1000
0010
,
1000
1010
0101
1001
,
0110
0000
0000
0000
,
1001
0000
2100
3021
,
1230
0300
0102
0003
,
2010
3000
0012
1203
,
0312
0000
0000
0000
0003
0000
0000
0000
0110
0000
0000
0000
0000
0000
0001
1000
,
0001
0000
0000
0000
1100
0000
0000
0000
1100
0000
0000
0000
0000
0000
1000
0001
,
1000
0000
0000
0000
0011
0000
0000
0000
0011
0000
0000
0000
0000
0000
1000
1000
,
1100
0101
0110
1100
,
0011
0110
2002
0000
,
0000
0000
0000
0000
,
0MM0
0000
0000
0000
,
0000
0000
0000
0000
,
0MM0
0000
0000
0000
,
0000
0000
0000
0MM0
,
0000
0000
0000
0000
,
0000
0000
0000
0000
,
0000
0000
0000
0000
,
3003
M00M
0000
0000
;

//---------------lights-cabinet - SMLightsBuilder----------------
#NOTES:
     lights-cabinet:
     SMLightsBuilder:
     Easy:
     1:
     0.784433,1.172953,1.351196,0.517479,0.129370,382.000000,130.000000,94.000000,36.000000,0.000000,94.000000,0.784433,1.172953,1.351196,0.517479,0.129370,382.000000,130.000000,94.000000,36.000000,0.000000,94.000000:
// measure 0
000000
000000
000000
000000
,  // measure 1
000000
000000
000000
000000
,  // measure 2
000000
000000
000000
000000
,  // measure 3
000000
000000
000000
000000
000000
000000
000000
000000
000000
000000
000000
000000
000000
000000
000100
100000
,  // measure 4
000111
000000
000000
000000
110011
000000
000000
000000
110011
000000
000000
000000
000000
000000
100000
000100
,  // measure 5
100011
000000
000000
000000
001111
000000
000000
000000
001111
000000
000000
000000
000000
000000
100000
100000
,  // measure 6
101011
010111
011011
110011
,  // measure 7
001111
000000
000000
000000
011011
000000
000000
000000
100111
000000
000000
000000
000000
000000
001000
010000
,  // measure 8
001011
000000
000000
000000
100111
000000
000000
000000
100111
000000
000000
000000
000000
000000
010000
001000
,  // measure 9
010011
000000
000000
000000
100111
000000
000000
000000
100111
000000
000000
000000
000000
000000
000100
010000
,  // measure 10
000111
010111
101011
100111
,  // measure 11
011011
000000
000000
000000
,  // measure 12
100111
000000
001222
120300
,  // measure 13
032100
003033
201022
300033
,  // measure 14
010222
000333
210022
302100
,  // measure 15
213000
000000
000000
000000
300033
000000
000000
000000
011011
000000
000000
000000
000000
000000
100000
000100
,  // measure 16
100011
000000
000000
000000
001111
000000
000000
000000
001111
000000
000000
000000
000000
000000
000100
100000
,  // measure 17
000111
000000
000000
000000
110011
000000
000000
000000
110011
000000
000000
000000
000000
000000
010000
010000
,  // measure 18
010111
101011
011011
001111
,  // measure 19
110011
011011
100111
000000
,  // measure 20
000000
000000
000000
000000
,  // measure 21
000000
000000
000000
000000
,  // measure 22
000000
000000
000000
000000
,  // measure 23
000000
000000
000000
000000
000000
000000
000000
000000
000000
000000
000000
000000
000000
000000
100000
000100
,  // measure 24
100011
000000
000000
000000
001111
000000
000000
000000
001111
000000
000000
000000
000000
000000
000100
100000
,  // measure 25
000111
000000
000000
000000
110011
000000
000000
000000
110011
000000
000000
000000
000000
000000
001000
001000
,  // measure 26
001111
101011
011011
001111
,  // measure 27
110011
000000
000000
000000
011011
000000
000000
000000
100111
000000
000000
000000
000000
000000
010000
001000
,  // measure 28
010011
000000
000000
000000
100111
000000
000000
000000
100111
000000
000000
000000
000000
000000
001000
010000
,  // measure 29
001011
000000
000000
000000
100111
000000
000000
000000
100111
000000
000000
000000
000000
000000
100000
001000
,  // measure 30
100011
101011
010111
100111
,  // measure 31
011011
000000
000000
000000
,  // measure 32
100111
000000
210022
302100
,  // measure 33
123000
030033
010222
000333
,  // measure 34
201022
300033
001222
120300
,  // measure 35
031200
000000
000000
000000
000333
000000
000000
000000
011011
000000
000000
000000
000000
000000
000100
100000
,  // measure 36
000111
000000
000000
000000
110011
000000
000000
000000
110011
000000
000000
000000
000000
000000
100000
000100
,  // measure 37
100011
000000
000000
000000
001111
000000
000000
000000
001111
000000
000000
000000
000000
000000
100000
100000
,  // measure 38
110011
010111
011011
110011
,  // measure 39
001111
011011
200222
000000
,  // measure 40
000000
000000
000000
000000
,  // measure 41
000000
000000
000000
000000
,  // measure 42
000000
000000
000000
000000
,  // measure 43
000000
000000
000000
000000
,  // measure 44
000000
000000
000000
000000
,  // measure 45
000000
000000
000000
000000
,  // measure 46
000000
000000
000000
000000
,  // measure 47
000000
000000
000000
000000
,  // measure 48
300333
000000
000000
000000
;

//---------------dance-single - ----------------
#NOTES:
     dance-single:
     :
     Hard:
     9:
     0.377842,0.586477,0.761845,0.416858,0.043123,184.000000,131.000000,53.000000,29.000000,0.000000,0.000000,0.377842,0.586477,0.761845,0.416858,0.043123,184.000000,131.000000,53.000000,29.000000,0.000000,0.000000:
0000
0000
0000
0000
,
0000
0000
0000
0000
,
0000
0000
0000
0000
,
0000
0000
0000
0000
0000
0000
0000
0000
0000
0000
0000
0000
0000
0000
0001
0100
,
0001
0000
0000
0000
0101
0000
0000
0000
1001
0000
0000
0000
0000
0000
1000
0100
,
1000
0000
0000
0000
1100
0000
0000
0000
1001
0000
0000
0000
0000
0000
0001
0010
,
0001
0011
0110
1100
,
1001
0000
0000
0000
1001
0000
0000
0000
0101
0000
0000
0000
0000
0000
1000
0010
,
1000
0000
0000
0000
1010
0000
0000
0000
1001
0000
0000
0000
0000
0000
0001
0010
,
0001
0000
0000
0000
0011
0000
0000
0000
1001
0000
0000
0000
0000
0000
1000
0100
,
1000
1100
0110
0011
,
2001
0000
0000
0001
3001
0000
0000
0000
,
0202
0303
2000
3020
,
2030
0000
3001
0000
,
2200
3300
0002
0023
,
0032
0000
1003
0000
,
1001
1001
0100
0000
,
1001
1001
0100
0000
,
1100
1100
0011
0011
,
1010
0101
1001
0000
,
0002
0000
0100
0000
,
0100
0000
0100
0000
,
2003
0000
0100
0000
,
0100
0000
0100
0000
,
3001
0100
0001
0000
0202
0000
0303
0000
,
1000
0100
1000
0000
2200
0000
3300
0000
,
1001
1001
0110
1001
,
1000
0100
0020
0000
0031
0000
0000
0000
,
0011
1100
0002
0003
,
1010
0101
2000
3000
,
0001
0000
1000
0000
0010
1000
0001
0000
,
0200
0000
0000
0010
0310
0000
0000
0000
,
0202
0000
0303
0000
0100
0010
1000
0000
,
2010
3001
0002
0003
,
2200
0000
3300
0000
0100
0010
0001
0000
,
0201
0000
0310
0000
,
0110
0000
0110
0000
0010
0100
0001
0000
,
0101
0000
0101
0000
0100
0010
1000
0000
,
1100
1100
0011
0011
,
1000
0100
0010
0001
0200
0000
0000
0000
,
0000
0000
0000
0000
,
0000
0000
0000
0000
,
0000
0000
0000
0000
,
0000
0000
0000
0000
,
0000
0000
0000
0000
,
0000
0000
0000
0000
,
0000
0000
0000
0000
,
0000
0000
0000
0000
,
0300
0000
0000
0000
;

//---------------dance-single - ----------------
#NOTES:
     dance-single:
     :
     Medium:
     6:
     0.269007,0.517479,0.416858,0.474356,0.000000,131.000000,102.000000,29.000000,33.000000,0.000000,0.000000,0.269007,0.517479,0.416858,0.474356,0.000000,131.000000,102.000000,29.000000,33.000000,0.000000,0.000000:
0000
0000
0000
0000
,
0000
0000
0000
0000
,
0000
0000
0000
0000
,
0000
0000
0000
0000
,
0001
0100
0020
0030
,
1000
0100
0020
0030
,
0001
0010
0100
1000
,
0001
0001
2000
3000
,
0001
1000
0020
0030
,
1000
0001
0200
0300
,
0001
1000
0100
0010
,
2002
0000
3003
0000
,
0202
0303
0010
1000
,
2020
3030
2002
3003
,
0202
0303
1000
0100
,
2200
3300
0022
0033
,
0101
0101
1010
0000
,
1100
1100
0011
0000
,
1000
1000
0001
0001
,
0101
0110
1001
0000
,
2000
0000
0000
0000
,
3002
0000
0000
0000
,
2003
0000
0000
0000
,
3002
0000
0000
0000
,
1003
0010
0100
0001
,
0010
0100
1000
0010
,
0100
0001
0010
0100
,
1000
0001
2000
3000
,
0001
1000
0010
0100
,
0001
0010
0100
1000
,
0010
0100
0010
1000
,
0200
0000
0300
0000
,
2002
3003
1000
0010
,
0200
0000
0301
0000
,
0202
0303
0100
0010
,
2000
0000
3100
0000
,
1100
1100
0001
0000
,
0101
0101
1000
0000
,
1001
0110
1001
1100
,
0011
1010
0202
0000
,
0000
0000
0000
0000
,
0000
0000
0000
0000
,
0000
0000
0000
0000
,
0000
0000
0000
0000
,
0000
0000
0000
0000
,
0000
0000
0000
0000
,
0000
0000
0000
0000
,
0000
0000
0000
0000
,
0303
0000
0000
0000
;

//---------------dance-single - ----------------
#NOTES:
     dance-single:
     :
     Easy:
     3:
     0.123209,0.172493,0.028749,0.028749,0.000000,60.000000,58.000000,2.000000,2.000000,0.000000,0.000000,0.123209,0.172493,0.028749,0.028749,0.000000,60.000000,58.000000,2.000000,2.000000,0.000000,0.000000:
// measure 0
0000
0000
0000
0000
,  // measure 1
0000
0000
0000
0000
,  // measure 2
0000
0000
0000
0000
,  // measure 3
0000
0000
0000
0000
,  // measure 4
1000
0000
0001
0000
,  // measure 5
1000
0000
0001
0000
,  // measure 6
0100
0000
0100
0000
,  // measure 7
0010
0000
0010
0000
,  // measure 8
1000
0000
0001
0000
,  // measure 9
1000
0000
0001
0000
,  // measure 10
0100
0000
0100
0000
,  // measure 11
0010
0000
0000
0000
,  // measure 12
1000
0000
0001
0000
,  // measure 13
1000
0000
1000
0000
,  // measure 14
0100
0000
1000
0000
,  // measure 15
0001
0000
0001
0000
,  // measure 16
1000
0000
0001
0000
,  // measure 17
0100
0000
0001
0000
,  // measure 18
1000
0000
0010
0000
,  // measure 19
0010
0000
0010
0000
,  // measure 20
1000
0000
0000
0000
,  // measure 21
1000
0000
0000
0000
,  // measure 22
0001
0000
0000
0000
,  // measure 23
0001
0000
0000
0000
,  // measure 24
1001
0000
0000
0000
,  // measure 25
0001
0000
0000
0000
,  // measure 26
0100
0000
0100
0000
,  // measure 27
0100
0000
0000
0000
,  // measure 28
0001
0000
0000
0000
,  // measure 29
1000
0000
0000
0000
,  // measure 30
0010
0000
0010
0000
,  // measure 31
0010
0000
0000
0000
,  // measure 32
1000
0000
1000
0000
,  // measure 33
0100
0000
0000
0000
,  // measure 34
0100
0000
1000
0000
,  // measure 35
0001
0000
0000
0000
,  // measure 36
0001
0000
0001
0000
,  // measure 37
0100
0000
0000
0000
,  // measure 38
0001
0000
1000
0000
,  // measure 39
0010
0000
2002
0000
,  // measure 40
0000
0000
0000
0000
,  // measure 41
0000
0000
0000
0000
,  // measure 42
0000
0000
0000
0000
,  // measure 43
0000
0000
0000
0000
,  // measure 44
0000
0000
0000
0000
,  // measure 45
0000
0000
0000
0000
,  // measure 46
0000
0000
0000
0000
,  // measure 47
0000
0000
0000
0000
,  // measure 48
3003
0000
0000
0000
;

//---------------dance-single - ----------------
#NOTES:
     dance-single:
     :
     Beginner:
     1:
     0.059551,0.141947,0.014374,0.000000,0.000000,29.000000,28.000000,1.000000,0.000000,0.000000,0.000000,0.059551,0.141947,0.014374,0.000000,0.000000,29.000000,28.000000,1.000000,0.000000,0.000000,0.000000:
// measure 0
0000
0000
0000
0000
,  // measure 1
0000
0000
0000
0000
,  // measure 2
0000
0000
0000
0000
,  // measure 3
0000
0000
0000
0000
,  // measure 4
1000
0000
0000
0000
,  // measure 5
0000
0000
0000
0000
,  // measure 6
0001
0000
0000
0000
,  // measure 7
0001
0000
0000
0000
,  // measure 8
0001
0000
0000
0000
,  // measure 9
0000
0000
0000
0000
,  // measure 10
0100
0000
0000
0000
,  // measure 11
0100
0000
0000
0000
,  // measure 12
0100
0000
0000
0000
,  // measure 13
0000
0000
0000
0000
,  // measure 14
0010
0000
0000
0000
,  // measure 15
0010
0000
0000
0000
,  // measure 16
0010
0000
0000
0000
,  // measure 17
0000
0000
0000
0000
,  // measure 18
1000
0000
1000
0000
,  // measure 19
1000
0000
0000
0000
,  // measure 20
1001
0000
0000
0000
,  // measure 21
0000
0000
0000
0000
,  // measure 22
0000
0000
0000
0000
,  // measure 23
0000
0000
0000
0000
,  // measure 24
0001
0000
0000
0000
,  // measure 25
0000
0000
0000
0000
,  // measure 26
0100
0000
0000
0000
,  // measure 27
0000
0000
0000
0000
,  // measure 28
0010
0000
0000
0000
,  // measure 29
0000
0000
0000
0000
,  // measure 30
1000
0000
0000
0000
,  // measure 31
0000
0000
0000
0000
,  // measure 32
0001
0000
0001
0000
,  // measure 33
0000
0000
0000
0000
,  // measure 34
1000
0000
1000
0000
,  // measure 35
0000
0000
0000
0000
,  // measure 36
0100
0000
0000
0000
,  // measure 37
0100
0000
0000
0000
,  // measure 38
1000
0000
1000
0000
,  // measure 39
0001
0000
0001
0000
;
