#TITLE:The Rainstorm;
#SUBTITLE:(from the movie "Psycho");
#ARTIST:Bernard Herrmann;
#TITLETRANSLIT:;
#SUBTITLETRANSLIT:;
#ARTISTTRANSLIT:;
#GENRE:;
#CREDIT:Jenro Jupitel;
#MUSIC:The Rainstorm [Jenro].mp3;
#BANNER:The Rainstorm [Jenro]-bn.png;
#BACKGROUND:The Rainstorm [Jenro]-bg.png;
#CDTITLE:;
#SAMPLESTART:65.234;
#SAMPLELENGTH:11.667;
#SELECTABLE:YES;
#OFFSET:-0.580;
#BPMS:0.000=144.000
,31.000=167.596
,32.000=144.000
,115.000=146.067
,136.000=144.190
,144.000=147.467
,164.000=142.266
,237.000=131.589
;
#STOPS:;
#DISPLAYBPM:144.000;
#BGCHANGES:00000=The Rainstorm [Jenro].avi;
#FGCHANGES:;

//--------------- dance-single - Jenro Jupitel (2020) ----------------
#NOTES:
     dance-single:
     Jenro Jupitel (2020):
     Beginner:
     1:
     0,0,0,0,0:
0000
0000
0000
0000
,
0000
0000
0000
0000
,
0000
0000
0000
0000
,
0000
0000
0000
0000
,
0001
0000
0000
0000
,
1000
0000
0000
0000
,
0001
0000
0000
0000
,
1000
0000
0000
0000
,
0010
0000
0000
0000
,
0010
0000
0000
0000
,
0100
0000
0000
0000
,
0000
0000
0000
0000
,
0001
0000
0000
0000
,
1000
0000
0000
0000
,
0010
0000
0000
0000
,
0001
0000
0000
0000
,
0100
0000
0000
0000
,
0001
0000
0000
0000
,
1000
0000
0000
0000
,
0010
0000
0000
0000
,
0100
0000
0000
0000
,
0001
0000
0000
0000
,
1000
0000
0000
0000
,
0001
0000
0000
0000
,
0010
0000
0000
0000
,
0100
0000
0000
0000
,
1000
0000
0000
0000
,
0001
0000
0000
0000
,
0000
0000
0000
0000
,
0010
0000
0000
0000
,
1000
0000
0000
0000
,
0010
0000
0000
0000
,
0001
0000
0000
0000
,
0100
0000
0000
0000
,
0010
0000
0000
0000
,
1001
0000
0000
0000
,
0100
0000
0000
0000
,
0001
0000
0000
0000
,
1000
0000
0000
0000
,
0010
0000
0000
0000
,
1000
0000
0000
0000
,
0001
0000
0000
0000
,
0100
0000
0100
0000
,
0100
0000
0100
0000
,
1000
0000
0000
0000
,
0001
0000
0000
0000
,
0010
0000
0000
0000
,
1000
0000
0000
0000
,
0001
0000
0000
0000
,
0100
0000
0000
0000
,
0010
0000
0000
0000
,
1001
0000
0000
0000
,
0100
0000
1000
0000
,
0100
0000
0001
0000
,
0100
0000
1000
0000
,
0000
0000
0000
0000
,
0000
0001
0001
0000
,
0000
0010
0010
0000
,
0000
0000
0000
1000
,
1000
0000
1001
0000
;

//--------------- dance-single - Jenro Jupitel (2020) ----------------
#NOTES:
     dance-single:
     Jenro Jupitel (2020):
     Easy:
     7:
     0,0,0,0,0:
0000
0000
0000
0000
,
0000
0000
0000
0000
,
0000
0000
0000
0000
,
0000
0000
0000
0000
,
1000
1000
1000
1000
,
0101
0011
1000
0100
,
0101
0011
1000
0100
,
0001
0001
0001
0001
,
1100
1010
0001
0100
,
1100
1010
0001
0100
,
1000
1000
1000
1000
,
0010
0100
0010
0100
,
1001
1100
0001
0010
,
1001
1100
0001
0010
,
1000
0001
0100
0010
,
1000
0100
1000
0100
,
0010
0001
0010
0001
,
0100
0001
0100
0001
,
1000
0010
1000
0010
,
0001
0010
0100
1000
,
1001
0000
0000
0000
,
1000
1000
1000
1000
,
0101
0011
1000
0100
,
0101
0011
1000
0100
,
0001
0001
0001
0001
,
0001
0001
0001
0001
,
1100
1010
0001
0100
,
1100
1010
0001
0100
,
1000
1000
1000
1000
,
0001
0010
0001
0010
,
0100
1000
0100
1000
,
0010
1000
0010
1000
,
0001
0100
0001
0100
,
1000
0100
0010
0001
,
1001
0000
0000
0000
,
1001
1001
0000
0110
,
1000
0001
0100
0010
,
1000
0000
0100
0010
,
0001
1000
0001
0001
,
2000
3002
0103
0100
,
0002
2003
3100
0100
,
0020
0032
2003
3200
,
1300
1010
0001
0101
,
0010
1001
0100
1001
,
1001
1100
0001
0010
,
1001
1100
0001
0010
,
1000
0001
0100
0010
,
1000
0100
1000
0100
,
0010
0001
0010
0001
,
0100
0001
0100
0001
,
1000
0010
1000
0010
,
1001
1001
0000
0110
,
1000
1000
2200
3300
,
0001
0001
0202
0303
,
1001
1001
2002
0000
,
0000
0000
0000
0000
,
0000
3003
0000
0010
,
0000
0000
0000
0000
,
0000
0000
0000
0000
,
0000
0002
2000
0000
,
0000
0000
0000
0000
,
0000
0000
0000
0000
,
0000
3003
0000
0000
;

//--------------- dance-single - Jenro Jupitel (2020) ----------------
#NOTES:
     dance-single:
     Jenro Jupitel (2020):
     Medium:
     10:
     0,0,0,0,0:
0000
0000
0000
0000
,
0000
0000
0000
0000
,
0000
0000
0000
0000
,
0000
0000
0000
0000
,
1000
0001
0010
0000
0001
0100
0001
0000
,
1010
0000
0110
0000
0100
0001
0010
0000
,
0011
0000
0110
0000
0100
1000
0010
0000
,
1000
0001
1000
0001
1000
0001
1000
0001
,
2000
0000
3010
0000
0100
0001
0100
0000
,
0002
0000
0013
0000
0100
1000
0100
0000
,
1000
0000
0000
0000
,
0001
1000
0010
0100
0001
1000
0010
0100
,
0001
0000
0001
0000
1000
0100
1000
0000
,
1000
0000
1000
0000
0001
0100
0001
0000
,
0120
0100
0100
0130
,
0002
2003
3200
0302
,
0203
2300
3020
0032
,
2003
3002
0023
2030
,
3020
0032
0203
2300
,
3001
0001
0001
0000
1000
1000
1000
0000
,
0020
0000
0000
0030
,
0001
0000
0000
0000
,
1000
0001
0100
0010
1000
0001
0100
0010
,
1000
0000
1000
0000
0001
0010
0001
0000
,
0001
0000
0001
0000
1000
0010
1000
0000
,
0200
0010
0010
0310
,
0101
0000
0110
0000
0010
1000
0100
0000
,
1100
0000
0110
0000
0010
0001
0100
0000
,
0001
0001
0001
0001
,
2000
3002
0023
2030
,
3020
0032
0203
2300
,
3002
2003
3200
0302
,
0203
2300
3020
0032
,
1003
1000
1000
0000
0001
0001
0001
0000
,
0200
0000
0000
0300
,
1001
0000
1001
0000
0000
0110
0110
0000
,
0001
0100
0001
0100
0001
0100
0001
0100
,
0001
0001
0000
0001
1000
0100
1000
0100
,
1000
0100
1000
0100
1000
1000
0010
0000
,
1010
0000
0110
0000
0100
0001
0010
0000
,
0011
0000
0110
0000
0100
1000
0010
0000
,
1000
0001
1000
0001
1000
0001
1000
0000
,
1010
0101
0101
0011
,
1100
1010
1001
0110
,
0001
0001
1000
0000
0010
1000
0100
0000
,
1000
1000
0001
0000
0010
0001
0100
0000
,
0002
2003
3200
0302
,
0203
2300
3020
0032
,
2003
3002
0023
2030
,
3020
0032
0203
2300
,
3001
0001
0001
0000
1000
1000
1000
0000
,
1001
0000
1001
0000
0000
0110
0110
0000
,
2001
3001
2000
3000
,
1002
1003
0002
0003
,
1000
0010
0100
0001
2002
0000
0000
0000
,
0000
0000
0000
0000
,
0000
0000
0000
3003
0000
0010
0010
0000
,
0000
0000
0000
0000
0000
1000
1000
0000
,
0000
0000
0000
0000
0000
0001
0001
0000
,
0000
0011
2200
0000
,
0000
0000
0000
0000
,
0000
0000
0000
0000
,
0000
3300
0000
0000
;

//--------------- dance-single - Jenro Jupitel (2020) ----------------
#NOTES:
     dance-single:
     Jenro Jupitel (2020):
     Hard:
     13:
     0,0,0,0,0:
0000
0000
0000
0000
,
0000
0000
0000
0000
,
0000
0000
0000
0000
,
0000
0000
0000
0000
,
0100
1000
0100
1000
,
0011
0000
0011
0000
0001
0010
0100
0000
,
1100
0000
1100
0000
0100
0010
0001
0000
,
0002
0023
0230
0320
,
0031
0010
0100
0010
0002
0000
1003
0000
,
0001
0010
0100
0010
0002
0000
1003
0000
,
2000
0001
0001
0001
,
3001
0100
0001
0100
0001
0010
0001
0010
,
1100
0000
1100
0000
1000
0100
0010
0000
,
0011
0000
0011
0000
0010
0100
1000
0000
,
2000
0000
0200
3000
0020
0300
0002
0030
,
2003
3020
2030
3002
,
0203
0000
0302
0000
4003
0000
0000
3000
,
0002
0203
0302
2003
,
3020
0000
2030
0000
3004
0000
0000
0003
,
2000
0100
0010
3001
,
2000
0001
0001
0001
,
3001
0100
0001
0100
0010
1000
0010
1000
,
0100
1000
0100
0000
1000
0100
1000
0000
0001
0000
0010
0000
0001
0000
0010
0000
,
0010
0001
0010
0000
0001
0010
0001
0000
1000
0000
0100
0000
1000
0000
0100
0000
,
0020
0032
2003
3200
,
0302
0023
2030
3200
,
0310
0001
0010
0000
0001
0010
0001
0000
1000
0000
0100
0000
1000
0000
0100
0000
,
0100
1000
0100
0000
1000
0100
1000
0000
0001
0000
0010
0000
0001
0000
0010
0000
,
0100
1000
0001
0010
0100
1000
0001
0010
,
0002
0203
0302
2003
,
3020
2030
3002
1000
,
2003
3020
2030
3002
,
0203
0302
2003
0001
,
3002
0010
0100
1003
,
1002
0000
1000
0000
1000
0000
1000
0003
,
1001
0000
1001
0000
0000
0110
0110
0000
,
0011
0001
1000
1000
0010
0010
1000
0001
,
0100
0101
0000
1100
0001
1000
1000
0010
,
1000
1000
0001
0001
0100
0100
1001
0000
,
0010
1000
0100
0000
0010
0001
0100
0000
0001
0000
1000
0000
0001
0000
0001
0000
,
0100
0001
0010
0000
0100
1000
0010
0000
1000
0000
0001
0000
0001
0000
0000
0000
,
0010
0001
0100
0000
0010
1000
0100
0000
1000
0000
0001
0000
1000
0001
1000
0000
,
1001
0000
0000
0010
0100
0000
0000
0000
1001
0000
0000
0100
0010
0000
0000
0000
,
1001
0000
0000
0010
0100
0000
0000
0000
1001
0000
0000
0100
0010
0000
0000
0000
,
0010
1000
0100
0000
0010
0001
0100
0000
0001
0000
1001
0000
0001
1000
0001
0000
,
0100
0001
0010
0000
0100
1000
0010
0000
1000
0000
1001
0000
1000
0001
1000
0000
,
0001
1000
0010
0100
0001
1000
0100
0010
,
0001
0100
0001
1000
0100
0010
0100
1000
,
0010
0100
0001
1000
0100
0010
0001
1000
,
0010
0100
0001
0010
0100
1000
0010
0100
,
0020
1000
1030
0000
0200
0001
0301
0000
,
1001
0000
1001
0000
0000
0110
0110
0000
,
0010
1000
0100
0000
0010
0001
0100
0000
0001
0000
1001
0000
0011
0000
1001
0000
,
0100
0001
0010
0000
0100
1000
0010
0000
1000
0000
1001
0000
1100
0000
1001
0000
,
0100
0001
0010
0000
0100
1000
0010
0000
1000
0000
1001
0000
1010
0000
1001
0000
,
0100
1001
0101
1001
0200
0000
0000
0000
,
0000
0301
0001
0001
0002
1000
1000
1000
,
2003
0000
0000
0000
0000
3010
0010
0010
,
0020
0000
0000
0000
0000
0130
0100
0100
,
0100
0011
2200
0000
,
0000
0000
0000
0000
,
0000
0000
0000
0000
,
0000
3300
0000
0000
;
