#VERSION:0.83;
#TITLE:Shia LaBeouf;
#SUBTITLE:;
#ARTIST:Rob Cantor;
#TITLETRANSLIT:;
#SUBTITLETRANSLIT:;
#ARTISTTRANSLIT:;
#GENRE:;
#CREDIT:HellKiteChaos;
#MUSIC:Shia LaBeouf [HellKiteChaos].mp3;
#BANNER:Shia LaBeouf [HellKiteChaos].png;
#BACKGROUND:Shia LaBeouf [HellKiteChaos]-BG.png;
#CDTITLE:;
#SAMPLESTART:66.651;
#SAMPLELENGTH:12.000;
#SELECTABLE:YES;
#OFFSET:-0.219;
#BPMS:0.000=96.000
,43.000=192.000
,107.000=96.000
,135.000=192.000
,233.000=96.000
,244.000=77.000
,245.000=192.000
,341.000=96.000
,377.000=192.000
,473.000=96.000
;
#STOPS:14.000=2.188
,26.500=2.188
;
#WARPS:135.500=8.000,
144.000=8.000,
152.500=8.000,
161.000=8.000,
169.500=8.000,
178.000=8.000,
186.250=8.000,
194.500=8.000,
202.750=8.000,
211.000=8.000,
219.250=8.000,
227.500=8.000,
235.750=8.000,
354.000=20.000
;
#SPEEDS:0.000=1.000=0.000=0;
#SCROLLS:0.000=0.100,
12.000=0.200,
12.125=0.300,
12.250=0.400,
12.375=0.500,
12.500=0.600,
12.625=0.700,
12.750=0.800,
12.875=0.900,
13.000=1.000,
13.125=1.300,
13.250=1.500,
13.375=1.700,
13.500=2.000,
14.000=0.500,
16.000=0.550,
17.500=0.600,
19.500=0.650,
21.500=0.700,
22.500=0.750,
23.500=0.800,
24.500=0.850,
25.500=0.900,
26.000=0.950,
26.500=1.000,
28.000=1.100,
29.000=1.150,
30.000=1.200,
31.000=1.250,
32.000=1.300,
33.000=1.350,
34.000=1.400,
35.000=1.450,
36.000=1.500,
37.000=1.550,
38.000=1.600,
39.000=1.650,
40.000=1.700,
40.500=1.750,
41.000=1.800,
41.500=1.850,
42.000=1.900,
42.500=1.950,
43.000=1.000,
61.000=0.900,
61.500=0.800,
62.000=0.700,
62.500=0.600,
63.000=0.500,
63.500=0.400,
64.000=0.300,
64.500=3.000,
65.000=1.000,
99.000=0.900,
100.000=0.850,
101.000=0.800,
102.000=0.750,
103.000=0.700,
104.000=0.650,
105.000=0.600,
106.000=0.550,
107.000=1.000,
121.000=0.800,
121.250=0.700,
121.500=0.600,
121.750=0.500,
122.000=0.400,
122.250=0.300,
122.500=0.200,
122.750=0.100,
123.250=0.200,
123.500=0.300,
123.750=0.400,
124.000=0.500,
124.250=0.600,
124.500=0.700,
124.750=0.900,
125.000=1.000,
125.500=0.900,
125.750=0.700,
126.000=0.500,
126.250=0.400,
126.500=0.300,
126.750=0.200,
127.000=0.100,
127.250=0.200,
127.500=0.300,
127.750=0.400,
128.000=0.500,
128.250=0.600,
128.500=0.700,
128.750=0.800,
129.000=1.000,
129.500=0.900,
129.750=0.800,
130.000=0.700,
130.250=0.500,
130.500=0.300,
130.750=0.200,
131.000=0.100,
131.250=0.200,
131.500=0.300,
131.750=0.400,
132.000=0.500,
132.250=0.600,
132.500=0.700,
132.750=0.800,
133.000=0.900,
133.500=1.000,
134.000=2.000,
134.250=2.500,
134.500=3.000,
134.750=3.500,
135.000=0.000,
135.500=1.000,
143.500=0.000,
144.000=1.000,
152.000=0.000,
152.500=1.000,
160.500=0.000,
161.000=1.000,
169.000=0.000,
169.500=1.000,
177.500=0.000,
178.000=1.000,
186.000=0.000,
186.250=1.000,
194.250=0.000,
194.500=1.000,
202.500=0.000,
202.750=1.000,
210.750=0.000,
211.000=1.000,
219.000=0.000,
219.250=1.000,
227.250=0.000,
227.500=1.000,
235.500=0.000,
235.750=1.000,
244.000=1.100,
244.125=1.300,
244.250=1.400,
244.375=1.500,
244.500=1.600,
244.625=1.700,
244.750=1.800,
244.875=1.900,
245.000=1.000,
247.000=0.900,
247.500=0.800,
248.000=0.700,
248.500=0.600,
249.000=0.500,
251.000=0.600,
251.500=0.700,
252.000=0.800,
252.500=0.900,
253.000=1.000,
255.000=0.900,
255.500=0.800,
256.000=0.700,
256.500=0.600,
257.000=0.500,
259.000=0.600,
259.500=0.700,
260.000=0.800,
260.500=0.900,
261.000=1.000,
265.000=0.900,
265.250=0.800,
265.500=0.700,
265.750=0.600,
266.000=0.500,
267.000=0.600,
267.250=0.700,
267.500=0.800,
267.750=0.900,
268.000=1.000,
297.000=0.900,
297.500=0.800,
298.000=0.700,
298.500=0.600,
299.000=0.500,
307.000=0.600,
307.500=0.700,
308.000=0.800,
308.500=0.900,
309.000=1.000,
336.500=0.950,
337.000=0.900,
337.500=0.850,
338.000=0.800,
338.500=0.750,
339.000=0.700,
339.500=0.650,
340.000=0.600,
340.500=0.550,
341.000=1.000,
376.000=4.000,
377.000=1.000,
460.000=1.100,
460.250=1.200,
460.500=1.300,
460.750=1.400,
461.000=1.500,
461.250=1.600,
461.500=1.700,
461.750=1.800,
462.000=1.900,
462.250=2.000,
462.500=1.700,
462.750=1.300,
463.000=1.000,
463.250=0.900,
463.500=0.800,
463.750=0.700,
464.000=0.600,
464.250=0.500,
465.000=0.600,
466.000=0.700,
467.000=0.800,
468.000=0.900,
469.000=1.000,
471.000=0.900,
471.500=0.800,
472.000=0.700,
472.500=0.600,
473.000=1.000,
481.000=0.700,
483.000=0.400,
485.000=0.100,
494.000=1.000,
540.000=0.500
;
#TICKCOUNTS:0.000=0;
#TIMESIGNATURES:0.000=4=4;
#LABELS:0.000=Song Start;
#COMBOS:0.000=1;
#ORIGIN:;
#PREVIEWVID:;
#JACKET:Shia LaBeouf [HellKiteChaos]-jacket.png;
#CDIMAGE:;
#DISCIMAGE:;
#BGCHANGES:-1.550=Shia LaBeouf [HellKiteChaos].avi=1.000=0=0=0=StretchNoLoop====,
99999.000=-nosongbg-=1.000=0=0=0=StretchNoLoop====
;
#FGCHANGES:;

//--------------- dance-single - HellKiteChaos ----------------
#NOTEDATA:;
#STEPSTYPE:dance-single;
#DESCRIPTION:HellKiteChaos;
#DIFFICULTY:Challenge;
#METER:11;
#RADARVALUES:0,0,0,0,0,0,0,0,0,0,0,0,0,0,0,0,0,0,0,0,0,0,0,0,0,0,0,0;
#CHARTNAME:;
#CHARTSTYLE:;
#CREDIT:;
#NOTES:
0000
0000
0000
0000
,
0000
0000
0000
0000
,
0000
0000
0000
0000
,
0000
0000
0000
0000
0000
1002
0000
1003
,
0000
1000
0010
0000
0100
0000
0001
0000
0000
0000
2001
0000
0000
0000
3001
0000
,
0000
0001
0010
0000
0100
0000
1000
0000
0001
0000
1002
0000
0000
0000
1003
0000
,
0000
0010
0100
0000
0001
0000
1000
0000
0000
0000
0000
0000
1001
0000
1000
0000
,
0100
0000
0000
0010
0100
0000
0010
0000
0002
0000
0000
0000
1003
0000
1000
0000
,
0001
0000
0000
0100
0010
0000
1000
0000
0020
0000
0100
0000
0130
0000
0100
0000
,
0001
0000
0000
1000
0100
0000
1000
0000
0001
0000
0100
0000
0010
0000
1000
0000
,
1001
0000
0000
0001
0010
0000
0100
0000
1000
0001
1000
0001
1000
0000
0100
0000
,
0010
0000
0000
0000
0000
0000
0000
0000
0000
0000
0000
0000
0000
0000
0000
0000
0000
0000
0000
0000
0000
0000
0000
0000
0001
0000
0000
0000
0000
0000
0000
0000
0000
0000
0000
0000
0000
0000
0000
0000
0000
0000
0000
0000
0000
0000
0000
0000
1000
0000
0000
0000
0000
0000
0000
0000
0000
0000
0000
0000
0000
0000
0000
0000
0000
0000
0000
0000
0000
0000
0000
0000
0000
0000
0000
0000
0000
0000
0000
0000
0000
0000
0000
0000
0000
0000
0000
0000
0000
0000
0000
0000
0000
0000
0000
0000
0001
0000
0000
0000
0000
0000
0000
0000
0000
0000
0000
0000
0000
0000
0000
0000
0000
0000
0000
0000
0000
0000
0000
0000
0000
0000
0000
0000
0000
0100
0000
0000
0000
0000
0000
0000
0000
0000
0000
0000
0000
0000
0000
0000
0000
0000
0000
0000
0010
0000
0000
0000
0000
0000
0000
0000
0000
0000
0000
0000
0000
0000
0000
0000
0000
0000
0000
0000
0000
0000
0000
0000
0000
0000
0000
0000
0000
0000
0000
0000
0000
0000
0000
0000
0000
0000
0000
0000
0000
0000
0000
0000
0000
0000
0000
0000
,
0100
0000
0010
0000
1000
0000
0001
0010
,
0100
0000
0000
0000
0000
0000
0000
0000
0000
0000
0000
0000
0000
0000
0000
0000
0000
0000
0000
0000
0000
0000
0000
0000
1000
0000
0000
0000
0000
0000
0000
0000
0000
0000
0000
0000
0000
0000
0000
0000
0000
0000
0000
0000
0000
0000
0000
0000
0001
0000
0000
0000
0000
0000
0000
0000
0000
0000
0000
0000
0000
0000
0000
0000
0000
0000
0000
0000
0000
0000
0000
0000
0000
0000
0000
0000
0000
0000
0000
0000
0000
0000
0000
0000
0000
0000
0000
0000
0000
0000
0000
0000
0000
0000
0000
0000
1000
0000
0000
0000
0000
0000
0000
0000
0000
0000
0000
0000
0000
0000
0000
0000
0000
0000
0000
0000
0000
0000
0000
0000
0000
0000
0000
0000
0000
0001
0000
0000
0000
0000
0000
0000
0000
0000
0000
0000
0000
0000
0000
0000
0000
0000
0000
0000
1000
0000
0000
0000
0000
0000
0000
0000
0000
0000
0000
0000
0000
0000
0000
0000
0000
0000
0000
0000
0000
0000
0000
0000
0000
0000
0000
0000
0000
0000
0000
0000
0000
0000
0000
0000
0000
0000
0000
0000
0000
0000
0000
0000
0000
0000
0000
0000
,
0010
0000
0100
0000
0001
0000
1000
0100
,
1000
0100
0020
0000
0002
0000
0000
0000
,
0030
0000
1003
0000
0000
0000
0001
1000
,
0001
0000
0100
0010
0100
0000
0010
0000
,
0100
0010
0000
0000
0000
0000
1000
0100
,
1000
0000
0000
0000
0000
0000
0000
0000
0000
0000
0000
0000
0000
0000
0000
0000
0000
0000
0000
0000
0000
0000
0000
0000
0100
0000
0000
0000
0000
0000
0000
0000
0000
0000
0000
0000
0000
0000
0000
0000
0000
0000
0000
0000
0000
0000
0000
0000
1000
0000
0000
0000
0000
0000
0000
0000
0000
0000
0000
0000
0000
0000
0000
0000
0000
0000
0000
0000
0000
0000
0000
0000
0000
0000
0000
0000
0000
0000
0000
0000
0000
0000
0000
0000
0000
0000
0000
0000
0000
0000
0000
0000
0000
0000
0000
0000
0000
0000
0000
0000
0000
0000
0000
0000
0000
0000
0000
0000
0000
0000
0000
0000
0000
0000
0000
0000
0000
0000
0000
0000
0000
0000
0000
0000
0000
0001
0000
0000
0000
0000
0000
0000
0000
0000
0000
0000
0000
0000
0000
0000
0000
0000
0000
0000
0100
0000
0000
0000
0000
0000
0000
0000
0000
0000
0000
0000
0000
0000
0000
0000
0000
0000
0000
0000
0000
0000
0000
0000
0000
0000
0000
0000
0000
0000
0000
0000
0000
0000
0000
0000
0000
0000
0000
0000
0000
0000
0000
0000
0000
0000
0000
0000
,
0001
0000
0101
0000
0000
0000
0001
0010
,
0000
0000
0000
0000
0000
0000
0000
0000
0000
0000
0000
0000
0000
0000
0000
0000
0000
0000
0000
0000
0000
0000
0000
0000
0001
0000
0000
0000
0000
0000
0000
0000
0000
0000
0000
0000
0000
0000
0000
0000
0000
0000
0000
0000
0000
0000
0000
0000
0010
0000
0000
0000
0000
0000
0000
0000
0000
0000
0000
0000
0000
0000
0000
0000
0000
0000
0000
0000
0000
0000
0000
0000
0000
0000
0000
0000
0000
0000
0000
0000
0000
0000
0000
0000
0000
0000
0000
0000
0000
0000
0000
0000
0000
0000
0000
0000
0100
0000
0000
0000
0000
0000
0000
0000
0000
0000
0000
0000
0000
0000
0000
0000
0000
0000
0000
0000
0000
0000
0000
0000
0000
0000
0000
0000
0000
1000
0000
0000
0000
0000
0000
0000
0000
0000
0000
0000
0000
0000
0000
0000
0000
0000
0000
0000
0100
0000
0000
0000
0000
0000
0000
0000
0000
0000
0000
0000
0000
0000
0000
0000
0000
0000
0000
0000
0000
0000
0000
0000
0000
0000
0000
0000
0000
0000
0000
0000
0000
0000
0000
0000
0000
0000
0000
0000
0000
0000
0000
0000
0000
0000
0000
0000
,
1000
0000
1100
0000
0000
0000
0001
0010
,
0100
0010
0001
0000
2000
0000
0001
0000
,
3001
0000
1001
0000
0000
0000
1000
0100
,
1000
0000
0001
0100
0001
0000
2000
0000
,
0000
3200
0000
0320
,
0032
0000
0103
0100
0020
0000
2030
0000
,
3002
0000
0013
0100
1000
0010
0200
0000
,
0302
0000
0023
0000
0230
0000
1300
0001
,
1000
0001
0000
0000
0000
0000
0000
0000
0000
0000
0000
0000
2000
0000
0000
0000
,
0000
0000
3001
0001
0000
0000
0002
0000
,
0000
0000
1003
1000
0000
0000
0020
0000
,
0000
0000
0130
0200
0000
0000
0000
0000
,
0001
0010
0001
1000
0000
1000
0010
0001
,
0000
0010
0001
0000
0000
0000
0000
0000
,
0000
1000
0000
0001
0010
1000
0000
0010
,
0001
1000
0000
0000
,
0000
0000
1000
0001
0010
0000
0001
0000
,
1000
0001
0010
0000
1000
0000
0000
0000
,
0000
0000
0000
0001
0010
0001
0000
0010
,
1000
0000
1000
0001
0010
0000
0000
0000
,
0000
0000
0000
0000
0001
0010
0000
1000
,
0010
0000
0001
0010
0000
1000
0001
0000
,
0000
0000
0000
0000
0000
1000
0001
0010
,
0000
1000
0001
1000
0000
1000
0001
0000
,
0000
0000
0000
0000
0000
1000
0001
0000
,
1000
0010
0001
1000
0001
0010
0000
0001
,
0010
1000
0000
0000
0000
0000
0000
1000
,
0010
1000
0001
0000
0001
0010
0000
0001
,
1000
0001
0000
0000
0000
0000
0001
0000
,
1000
0001
0010
1000
0010
1000
0001
0000
,
0010
1000
0001
0000
0000
0000
0000
0000
,
0001
1000
0010
0001
0010
0000
1000
0001
,
0010
0000
0010
0000
0000
0000
0000
0010
,
0000
0001
1000
0000
0001
1000
0001
0000
,
0010
1000
0000
0000
0000
0000
0000
0000
,
0000
1000
0001
0010
1000
0001
0010
0001
,
0000
1000
0010
0000
0000
0000
0000
0000
,
1000
0001
0010
0001
1000
0000
1000
0001
,
0010
0000
0001
1000
0000
0000
0000
0000
,
0300
0000
0001
1000
0001
1000
0001
0000
,
0000
0102
0000
2003
,
0000
0000
3001
1000
0001
1000
0001
0000
,
1000
2100
0000
3002
,
0000
0000
1003
0100
0010
0001
1000
0000
,
0002
0203
0000
0320
,
0000
0000
1030
0100
0010
0001
1000
0000
,
0000
0000
0101
0000
1000
1100
0000
0000
,
0000
0000
0001
0100
1000
0100
0001
0000
,
1000
0000
1100
0000
0001
0101
0000
0000
,
0001
0100
1000
0100
0001
0100
1000
0000
,
0100
0000
1001
0000
1000
1100
0000
0000
,
1000
0000
0001
0010
0001
0100
0001
0000
,
2000
3200
0000
0320
,
0000
0000
0031
1000
0001
0000
1000
0001
,
1000
0000
0110
0000
0100
0002
0000
0000
,
0003
0000
0001
0010
0001
0010
0001
0000
,
1000
1100
0001
0101
,
1000
0000
0010
1000
0010
1000
0010
0000
,
1000
0101
0001
1100
,
1000
0000
0001
0010
0100
1000
0001
0000
,
2000
3002
0000
0203
,
0000
0000
0310
0000
0100
0010
0000
0000
,
1000
0002
0000
0023
,
0000
0000
0130
0000
1000
0000
0100
0100
,
0010
0001
0001
0000
0100
0000
0010
0010
,
1000
1000
0001
0000
0100
0000
0010
1000
,
0001
2002
3003
0000
,
0000
0000
0000
0000
,
0000
0000
0000
0000
,
0000
0000
0000
0000
,
0000
0000
0000
0000
,
0000
0000
0000
0000
,
0000
0000
0000
1000
0001
1000
0001
0000
,
0000
0000
0100
0010
0100
0001
0000
0000
,
1000
0100
0010
0001
1000
0001
0000
0000
,
0000
0001
0100
0010
1000
0001
0000
0000
,
0000
0001
1000
0100
0010
0001
0100
0000
,
0100
0010
0010
0100
,
0100
0110
1001
0101
,
1010
1100
0101
1001
,
0000
0000
1000
0100
0001
0100
1000
0000
,
0000
0101
1000
1100
,
0000
0000
0001
0100
1000
0100
0001
0000
,
0000
0101
0001
1100
,
0000
0000
0010
0001
0010
0001
1000
0000
,
0010
0110
0100
1001
,
0000
0000
0001
0100
0001
0100
0010
0000
,
1000
0100
1000
0000
0100
0000
1100
0000
,
0000
0000
0010
0001
0100
0001
0010
0000
,
0000
0000
0100
1000
0010
1000
0100
0000
,
0000
0000
0010
0001
1000
0001
0100
0000
,
0000
0000
0010
1000
0001
1000
0100
0000
,
0000
0000
0010
0001
1000
0001
0100
0000
,
0020
0000
0000
0030
,
0000
0000
0100
0001
1000
0010
0100
0001
,
1000
0010
0100
0000
0001
1000
0000
0000
,
0000
1002
0000
0000
,
0103
0200
0000
0000
,
0301
0002
0000
2003
,
0000
3200
0000
0000
,
0000
0000
0000
0000
,
0300
0000
0000
0000
,
0000
0000
0000
0000
,
0000
0000
0000
0000
,
0000
0000
0000
0000
,
0000
0000
0000
0000
,
0000
0000
0000
0000
,
0000
0000
0000
0000
,
0000
0000
0000
0000
,
0000
0000
0000
0000
,
0000
0000
0000
0000
,
0000
0000
0000
0000
,
0000
0000
0000
0000
,
0000
0000
0000
0000
,
0MM0
0000
M00M
0MM0
0000
0000
0000
0000
;
