#VERSION:0.83;
#TITLE:Parasite Eve;
#SUBTITLE:;
#ARTIST:Bring Me The Horizon;
#TITLETRANSLIT:;
#SUBTITLETRANSLIT:;
#ARTISTTRANSLIT:;
#GENRE:;
#ORIGIN:;
#CREDIT:;
#BANNER:Parasite Eve [Ben Fears].png;
#BACKGROUND:Parasite Eve [Ben Fears]-bg.png;
#PREVIEWVID:;
#JACKET:jacket.png;
#CDIMAGE:;
#DISCIMAGE:;
#LYRICSPATH:;
#CDTITLE:;
#MUSIC:Parasite Eve [Ben Fears].ogg;
#OFFSET:-0.467000;
#SAMPLESTART:47.307751;
#SAMPLELENGTH:15.014001;
#SELECTABLE:YES;
#DISPLAYBPM:102.000000:205.000000;
#BPMS:0.000=102.500,
77.000=205.000,
205.000=102.500,
251.000=51.250,
252.000=205.000,
284.000=102.500,
300.000=51.250;
#STOPS:76.000=1.756;
#DELAYS:;
#WARPS:;
#TIMESIGNATURES:0.000=4=4;
#TICKCOUNTS:0.000=4;
#COMBOS:0.000=1;
#SPEEDS:0.000=1.000=0.000=0,
31.000=1.500=0.750=0,
31.750=1.000=0.250=0;
#SCROLLS:0.000=1.000;
#FAKES:;
#LABELS:0.000=Song Start;
#BGCHANGES:0.000=Parasite Eve [Ben Fears].avi=1.000=0=0=0=StretchNoLoop====,
99999=-nosongbg-=1.000=0=0=0 // don't automatically add -songbackground-
;
#KEYSOUNDS:;
#ATTACKS:
;

//---------------dance-single - ----------------
#NOTEDATA:;
#CHARTNAME:;
#STEPSTYPE:dance-single;
#DESCRIPTION:;
#CHARTSTYLE:;
#DIFFICULTY:Hard;
#METER:14;
#RADARVALUES:0.547069,0.911901,0.170515,0.255773,0.539964,539.000000,515.000000,24.000000,36.000000,0.000000,0.000000,0.000000,0.000000,0.000000,0.547069,0.911901,0.170515,0.255773,0.539964,539.000000,515.000000,24.000000,36.000000,0.000000,0.000000,0.000000,0.000000,0.000000;
#CREDIT:Ben Speirs;
#DISPLAYBPM:102.000000:205.000000;
#NOTES:
0000
0000
0000
0000
,
0000
0000
0000
0000
,
1001
0000
0000
0000
,
0000
0000
0000
0000
,
1000
0000
0000
0001
0100
0001
1000
0010
1000
0001
0010
0001
,
1000
0000
0000
1000
0100
1000
0001
0100
0001
1000
0010
1000
,
0001
0000
0000
1000
0100
0010
0001
0010
0100
1000
0001
1000
,
0001
0000
0000
0001
0100
0010
1000
0010
0100
0002
0000
0000
,
1003
0000
0000
0001
0100
0001
0100
0010
0100
0010
1000
0010
,
1000
0000
0000
1000
0100
1000
0100
0010
0100
0010
0001
0010
,
0001
0000
0000
0001
1000
0001
0100
0010
0100
0002
0000
0000
,
0103
0000
0000
0001
0100
0010
1000
0100
0010
0002
0000
0000
,
1003
0000
0010
0000
0100
0000
0001
0000
1000
0100
0010
0000
0002
0000
0000
0000
,
0103
0000
0001
0000
1000
0000
0010
1000
0001
0000
0010
0001
0200
0000
0000
0000
,
0310
0000
0100
0000
0001
0000
1000
0000
0001
0010
0100
0000
1000
0000
1000
0000
,
0001
0000
1000
0000
0010
0000
0100
0010
0100
0001
0010
0100
2000
0000
0000
0000
,
3001
0000
0000
0000
0000
0000
0000
0000
0000
1000
0000
0000
0010
0000
0000
0000
0000
0000
0100
0000
0000
0001
0000
0000
1000
0000
0000
0000
0100
0000
0000
0000
0010
0000
0000
0000
0002
0000
0000
0000
0000
0000
2003
0000
0000
0000
0000
0000
,
3010
0000
0000
0000
0000
0000
0100
0000
0000
0001
0000
0000
1000
0000
0000
0000
0000
0000
0001
0000
0000
1000
0000
0000
0001
0000
0000
0000
0010
0000
0000
0000
0100
0000
0000
0000
1000
0000
0000
0000
0000
0000
0001
0000
0000
0100
0000
0000
,
0001
0000
0000
0000
0000
0000
0000
0000
0000
0001
0000
0000
1000
0000
0000
0000
0000
0000
0100
0000
0000
0010
0000
0000
0001
0000
0000
0000
0100
0000
0000
0000
0010
0000
0000
0000
2000
0000
0000
0000
0000
0000
3002
0000
0000
0000
0000
0000
,
0103
0000
1001
0000
0001
0010
0100
1000
,
0010
2020
0000
3030
,
1000
0010
0200
0000
0301
0010
0100
0100
,
1000
0010
0200
0000
0310
1000
0001
0001
,
0010
0001
1000
0000
0100
1000
0010
0100
,
0001
0202
0000
0303
,
0100
0001
0100
0000
0010
1000
0010
0000
,
0100
0001
0101
0100
,
0110
0000
0000
2002
0000
0000
3003
0000
0000
0001
0000
0100
,
0000
1000
0000
0100
0000
0001
0000
0010
0000
0200
0000
0000
,
2300
0000
0000
3001
0000
0000
0000
0000
0000
1000
0000
0100
,
0000
0001
0000
0100
0000
1000
0000
0010
0000
0200
0000
0000
,
0302
0000
0000
1003
0000
0000
0000
0000
0000
0001
0000
0100
,
0000
0010
0000
1000
0000
0100
0000
0010
0000
0002
0000
0000
,
2003
0000
3001
0100
0020
0000
0130
0000
,
0100
0001
0100
0010
0000
0000
1000
0010
1000
0001
0000
0000
,
1000
0000
1001
0000
0001
0010
0100
1000
,
0010
0000
1010
0000
1000
0010
0100
0001
,
1000
0001
0100
0100
0010
1000
0100
0100
,
0010
0001
1000
1000
0010
1000
0001
0001
,
0010
0001
0100
0000
0001
0100
0010
1000
,
0100
0010
0001
0000
1000
0100
1000
0001
,
0100
0001
1000
0000
0001
1000
0010
0000
,
0100
0001
1000
0100
1100
0000
0001
0100
,
0101
0000
0000
0000
0000
0000
1001
0000
0000
0000
0000
0000
1000
0000
0000
0100
0000
0000
1000
0000
0000
0000
0100
0000
,
0000
0000
0010
0000
0000
0000
0001
0000
0000
0000
0100
0000
0000
0000
0010
0000
0000
0000
1000
0000
0000
0001
0000
0000
,
1000
0000
0000
0001
0000
0000
0100
0000
0000
0000
0000
0000
0001
0000
0000
0010
0000
0000
0001
0000
0000
0000
0010
0000
,
0000
0000
0100
0000
0000
0000
1000
0000
0000
0000
0010
0000
0000
0000
0100
0000
0000
0000
0001
0000
0000
1000
0000
0000
,
0001
0000
0000
1000
0000
0000
0010
0000
0000
0000
0000
0000
1000
0000
0000
0100
0000
0000
0010
0000
0000
0000
0001
0000
,
0000
0000
0100
0000
0000
0000
0010
0000
0000
0000
1000
0000
0000
0000
0001
0000
0000
0000
0100
0000
0000
0010
0000
0000
,
0100
0010
1000
0001
1000
0100
0010
0001
,
0100
0000
0000
0010
0000
0000
1000
0000
0000
0000
0010
0000
0000
0000
1010
0000
0000
0000
0001
0000
0000
0000
0100
0000
,
0000
0101
0000
1000
0000
0000
0000
0000
0000
0000
0000
0000
,
0000
0000
0000
0000
,
0000
0000
0000
0000
0001
0100
0000
0000
0001
0000
0001
0000
1000
0100
0000
0000
,
1000
1000
0000
0000
0001
0010
0000
0000
0001
0000
0001
0000
1000
0010
0000
0000
,
1000
1000
0000
0000
0001
0000
0100
0000
1000
0000
0010
0000
0002
0000
0000
0000
,
1003
0000
1000
0100
0001
0010
2000
0000
,
3001
0000
0001
0100
1000
0010
0002
0000
,
1003
0000
1000
0100
0001
0010
2000
0000
,
3001
0000
0000
0001
0001
0001
1000
1000
1000
0010
1000
0001
,
0200
0000
0000
0310
0010
0010
1000
1000
1000
0001
0010
0100
,
2000
0000
0000
3001
0010
0001
1000
0010
1000
0001
0100
0010
,
2000
0000
0000
0000
0000
0000
3001
0000
0010
0000
0100
0000
1000
0000
0000
0001
0000
0000
1001
0000
0000
0000
0000
0000
,
1000
0000
0010
0000
0100
0000
0001
0100
0001
0000
1000
0000
0010
0000
0100
0000
,
0001
0000
0010
0000
0100
0000
1000
0100
1000
0000
0001
0000
0100
0000
0000
0000
,
0010
0000
0100
0000
0001
0000
1000
0100
1000
0000
0010
0000
0100
0000
0001
0000
,
1000
0000
0100
0000
0010
0000
0001
1000
0001
0000
1000
0000
0010
0000
0000
0000
,
1000
0000
0010
0000
0100
0000
0001
0100
0001
0000
1000
0000
0010
0000
0100
0000
,
0001
0000
0010
0000
0100
0000
1000
0100
1000
0000
0010
0000
0100
0000
0000
0000
,
0001
0100
0101
0000
1000
0010
1010
0000
,
0100
2001
3010
1002
,
0103
0000
0000
0000
0000
0000
0000
0000
0000
0000
0000
0000
0000
0000
0001
0100
0001
0000
0000
0000
0000
0000
0000
0000
0000
0000
0000
0000
0000
0000
1000
0100
,
1000
0000
0000
0100
0000
1000
0000
0001
0101
0000
0000
0101
0000
1000
0000
0010
,
0100
0000
0001
0000
0100
0000
0010
0000
0100
0000
0001
0000
0100
0000
0010
1000
0010
0000
0100
0000
0010
0000
1000
0000
0010
0000
0100
0000
0010
0000
1000
0100
,
1000
0001
1000
0100
1000
0001
1000
0010
1010
0000
0000
1001
0000
0102
0000
0000
,
2003
0000
3000
0000
;

//---------------dance-single - ----------------
#NOTEDATA:;
#CHARTNAME:;
#STEPSTYPE:dance-single;
#DESCRIPTION:;
#CHARTSTYLE:;
#DIFFICULTY:Medium;
#METER:10;
#RADARVALUES:0.416138,0.536412,0.177620,0.206039,0.156306,410.000000,385.000000,25.000000,29.000000,0.000000,0.000000,0.000000,0.000000,0.000000,0.416138,0.536412,0.177620,0.206039,0.156306,410.000000,385.000000,25.000000,29.000000,0.000000,0.000000,0.000000,0.000000,0.000000;
#CREDIT:Ben Speirs;
#DISPLAYBPM:102.000000:205.000000;
#NOTES:
0000
0000
0000
0000
,
0000
0000
0000
0000
,
1001
0000
0000
0000
,
0000
0000
0000
0000
,
0001
0000
1000
0100
0010
0001
0100
0010
,
1000
0000
0001
0100
0010
1000
0100
0010
,
0001
0000
1000
0010
1000
0001
0100
0001
,
1000
0000
0001
0010
0001
1000
2100
0000
,
3001
0000
0000
0000
0000
0000
0001
0000
0100
0000
0001
0000
0100
0000
0000
0010
0000
0000
1000
0000
0000
0001
0000
0000
,
1000
0000
0000
0000
0000
0000
1000
0000
0100
0000
1000
0000
0100
0000
0000
0010
0000
0000
0001
0000
0000
1000
0000
0000
,
0001
0000
0000
0000
0000
0000
1000
0000
0010
0000
0100
0000
0001
0000
0000
1000
0000
0000
0001
0000
0000
0000
0000
0000
,
1000
0000
0000
0000
0000
0000
0001
0000
0010
0000
0100
0000
1000
0000
0000
0001
0000
0000
1000
0000
0000
0000
0000
0000
,
1002
0000
0000
0000
0103
0000
0000
0000
0001
0100
0001
0000
0100
0000
0000
0000
,
0020
0000
0000
0000
1030
0000
0000
0000
1000
0000
0100
1000
0100
0000
0000
0000
,
2000
0000
0000
0000
3001
0000
0000
0000
0001
0100
0001
0000
1000
0000
1000
0000
,
0020
0000
0000
0000
0130
0000
0000
0000
0010
0100
0010
0000
2000
0000
0000
0000
,
3001
1000
0010
0100
0001
1000
1100
1100
,
0100
0010
0001
1000
0010
0100
2001
0000
,
3001
1000
0010
0100
0001
0100
0101
0101
,
1000
0000
1001
0000
0001
0100
0010
0000
,
1000
2200
0000
3300
,
1000
0100
1000
0000
0100
0010
0100
0000
,
0010
0001
0010
0000
0001
1000
0001
0000
,
1000
0000
0001
0000
0100
0010
1000
0000
,
0001
0202
0000
0303
,
1000
0100
1000
0000
0001
0100
0001
0000
,
1000
0010
0200
0310
,
0200
0000
0000
0310
0000
0000
0000
0000
0000
1000
0000
0001
,
0000
1000
0000
0001
0000
1000
0000
0001
0000
0100
0000
0000
,
0100
0000
0000
0100
0000
0000
0000
0000
0000
0001
0000
1000
,
0000
0001
0000
1000
0000
0001
0000
1000
0000
0100
0000
0000
,
0100
0000
0000
0100
0000
0000
0000
0000
0000
1000
0000
0001
,
0000
1000
0000
0001
0000
1000
0000
0001
0000
0010
0000
0000
,
0010
0000
0001
0010
0100
0000
1000
0000
,
0010
0100
0110
0010
,
1001
0000
1001
0000
0001
0010
0001
0000
,
1000
0000
2200
0000
0000
3300
0000
0000
,
0001
0100
0001
0000
1000
0010
1000
0000
,
0001
0010
0001
0000
1000
0100
1000
0100
,
0010
0001
1000
0000
0001
1000
0001
0000
,
0100
0202
0000
0303
,
0100
0001
0100
0000
0010
1000
0010
0000
,
0100
0001
1001
1000
,
1100
0000
0000
0202
0000
0000
0303
0000
0000
1000
0000
0100
,
0000
1000
0000
0100
0000
0010
0000
0100
0000
0010
0000
0000
,
0001
0000
0000
1000
0000
0000
0000
0000
0000
0001
0000
0100
,
0000
0001
0000
0100
0000
0010
0000
0100
0000
0010
0000
0000
,
1000
0000
0000
0001
0000
0000
0000
0000
0000
1000
0000
0100
,
0000
0010
0000
0001
0000
0010
0000
0100
0000
1000
0000
0000
,
0001
0000
1000
0100
1000
0000
0010
0000
,
0100
0000
0000
0001
0000
0100
0000
0010
0000
1000
0000
0001
,
0000
1000
0000
0100
0000
0000
0000
0000
0000
0000
0000
0000
,
0000
0000
0000
0000
,
0000
0000
2000
0000
0100
0100
3002
0000
,
0103
0000
0002
0000
0100
0100
2003
0000
,
3100
0000
0001
0010
0100
1000
0020
0000
,
0030
0000
1000
0100
0010
0001
0200
0000
,
0300
0000
0001
0100
0010
1000
0002
0000
,
0003
0000
1000
0100
0010
0001
2000
0000
,
3000
0000
0001
0100
0010
0100
0001
0100
,
1001
0000
1000
0100
0010
0100
1000
0100
,
1001
0000
1000
0010
0100
0001
0010
0100
,
1001
0000
1000
0010
0100
0001
1000
0000
,
0001
0100
0000
0001
1000
0001
1000
0000
,
1000
0100
0000
1000
0001
1000
0001
0000
,
0001
0010
0000
0001
1000
0001
1000
0000
,
1000
0010
0000
1000
0001
1000
0001
0000
,
1000
0100
0000
0010
0001
0010
0001
0000
,
0001
0100
0000
0010
1000
0010
1000
0000
,
1000
0100
0000
0010
0001
0010
0001
0000
,
1000
1001
0110
1001
,
0002
0000
0103
0000
,
0001
0000
0000
1000
0000
0000
0010
0000
0100
0000
0010
0000
1000
0000
0000
0000
,
0001
0100
0010
0010
1000
0100
0010
0010
,
0001
0000
1000
0000
0100
0000
0100
0000
1000
0100
0010
0001
1000
0001
0000
0000
,
0200
0000
0300
0000
;

//---------------dance-single - ----------------
#NOTEDATA:;
#CHARTNAME:;
#STEPSTYPE:dance-single;
#DESCRIPTION:;
#CHARTSTYLE:;
#DIFFICULTY:Easy;
#METER:7;
#RADARVALUES:0.311596,0.482771,0.234458,0.085258,0.000000,307.000000,274.000000,33.000000,12.000000,0.000000,0.000000,0.000000,0.000000,0.000000,0.311596,0.482771,0.234458,0.085258,0.000000,307.000000,274.000000,33.000000,12.000000,0.000000,0.000000,0.000000,0.000000,0.000000;
#CREDIT:Ben Speirs;
#DISPLAYBPM:102.000000:205.000000;
#NOTES:
0000
0000
0000
0000
,
0000
0000
0000
0000
,
1001
0000
0000
0000
,
0000
0000
0000
0000
,
1000
0001
0100
0100
,
0001
1000
0010
0010
,
1000
0100
0010
0010
,
0001
1000
0010
0200
,
0301
1000
0020
0130
,
0001
1000
0200
0310
,
0001
1000
0002
0103
,
0001
1000
2000
3010
,
1001
0000
1000
0000
0001
0100
0001
0000
,
1000
0000
0001
0000
1000
0100
1000
0000
,
0001
0000
1000
0000
0010
0010
0010
0000
,
1000
0000
0001
0000
0010
0010
0010
0000
,
1001
0000
1001
0000
1000
0100
0010
0000
,
0011
0000
0011
0000
0001
0100
0010
0000
,
1010
0000
1010
0000
1000
0010
0100
0000
,
1001
1001
0000
0001
,
0100
0101
0000
0100
,
0010
1000
1000
0001
,
0001
1000
0100
0010
,
0001
1000
0000
0100
,
1000
1001
0000
1000
,
0010
0100
0100
0001
,
1000
0000
1001
0000
,
1001
0000
0000
0001
,
0100
0010
1000
1100
,
0000
0001
0000
1000
,
0100
0010
0001
0011
,
0000
1000
0000
0001
,
1000
0010
0100
0110
,
0000
0000
0001
1000
0001
0000
1000
0000
,
0000
0000
1100
0000
,
0101
0000
0000
0000
1000
0100
1000
0000
,
0001
0202
0000
0303
,
0000
0001
0100
0010
,
1000
0000
0100
0000
0010
0000
0001
1000
,
0001
1000
0000
0000
0000
0000
0001
0000
,
1000
2020
0000
3030
,
0000
0010
1000
0001
,
0001
0000
1001
0000
,
1001
1000
0000
0001
,
0100
0010
1000
0100
,
0010
1001
0000
0001
,
1000
0010
0100
0001
,
0100
1001
0000
0001
,
0010
0100
1000
0010
,
0010
0000
1000
0001
1000
0000
0001
0000
,
0000
1000
0100
0010
,
0001
0100
0000
0000
,
0000
0000
0000
0000
,
0000
0001
0001
1000
,
1000
0001
0001
1000
,
1000
0000
0010
0000
1000
0010
1010
0000
,
0000
0000
1000
0000
0001
0100
0101
0000
,
0000
0000
1000
0000
1000
0100
1100
0000
,
0000
0000
0001
0000
0001
0010
0011
0000
,
0000
0000
1000
1000
1000
1000
1000
1000
,
0100
0000
0001
0001
0001
0001
0001
0001
,
0100
0000
1000
1000
1000
1000
1000
1000
,
0010
0000
0001
1000
0001
1000
1001
0000
,
0001
0000
0000
0000
0100
0010
0100
0000
,
0010
0000
0000
0000
1000
0010
1000
0000
,
0010
0000
0000
0000
1000
0100
1000
0000
,
0100
0000
0000
0000
1000
0001
1000
0000
,
0001
0000
0000
0000
0001
0100
0001
0000
,
0100
0000
0000
0000
0001
1000
0001
0000
,
1000
0000
0000
0000
1000
0010
1000
0000
,
0000
0010
0000
0010
,
0200
0000
0301
0000
,
0100
0010
1000
0001
1000
0000
0000
0000
,
0001
0010
0100
0100
1000
1001
1000
0000
,
0001
1000
0010
0010
0100
0101
0100
0000
,
2002
0000
3003
0000
;

//---------------dance-single - ----------------
#NOTEDATA:;
#CHARTNAME:;
#STEPSTYPE:dance-single;
#DESCRIPTION:;
#CHARTSTYLE:;
#DIFFICULTY:Beginner;
#METER:4;
#RADARVALUES:0.150216,0.268206,0.092362,0.014210,0.000000,148.000000,135.000000,13.000000,2.000000,0.000000,0.000000,0.000000,0.000000,0.000000,0.150216,0.268206,0.092362,0.014210,0.000000,148.000000,135.000000,13.000000,2.000000,0.000000,0.000000,0.000000,0.000000,0.000000;
#CREDIT:Ben Speirs;
#DISPLAYBPM:102.000000:205.000000;
#NOTES:
// measure 0
0000
0000
0000
0000
,  // measure 1
0000
0000
0000
0000
,  // measure 2
1001
0000
0000
0000
,  // measure 3
0000
0000
0000
0000
,  // measure 4
0001
0000
0001
0000
,  // measure 5
1000
0000
1000
0000
,  // measure 6
0010
0000
0010
0000
,  // measure 7
0100
0000
0100
0100
,  // measure 8
0100
0000
0001
0000
,  // measure 9
1000
0000
0010
0000
,  // measure 10
1000
0000
0001
0000
,  // measure 11
1000
0000
0100
0000
,  // measure 12
1001
0000
0001
0001
,  // measure 13
0000
0000
1000
1000
,  // measure 14
0000
0000
0010
0010
,  // measure 15
0000
0000
0010
0010
,  // measure 16
0010
0000
1000
0100
,  // measure 17
0000
0000
0010
0001
,  // measure 18
0000
0000
1000
0010
,  // measure 19
0100
1001
0000
0000
,  // measure 20
0000
0001
0000
0000
,  // measure 21
0000
1000
0000
1000
,  // measure 22
0000
0010
0000
0010
,  // measure 23
0000
0100
0000
0000
,  // measure 24
0000
0001
0000
0000
,  // measure 25
0000
1000
0000
1000
,  // measure 26
0000
1000
0000
0000
,  // measure 27
0000
1001
0000
0000
,  // measure 28
0000
0001
0000
0001
,  // measure 29
0000
0100
0000
0000
,  // measure 30
0000
0100
0000
0100
,  // measure 31
0000
0010
0000
0000
,  // measure 32
0000
0010
0000
0010
,  // measure 33
0000
1000
0000
1000
,  // measure 34
0000
0001
0000
0000
,  // measure 35
0000
1001
0000
1000
,  // measure 36
0000
0001
0000
0000
,  // measure 37
0000
1000
0000
0100
,  // measure 38
0000
1000
0000
0000
,  // measure 39
0000
0001
0000
1000
,  // measure 40
0000
0001
0000
0000
,  // measure 41
0000
1000
0000
0010
,  // measure 42
0000
1000
0000
0000
,  // measure 43
0000
0001
0000
0001
,  // measure 44
0000
0001
0000
0001
,  // measure 45
0000
1000
0000
1000
,  // measure 46
0000
1000
0000
1000
,  // measure 47
0000
0010
0000
0010
,  // measure 48
0000
0010
0000
0010
,  // measure 49
0000
0100
0000
0100
,  // measure 50
0000
0001
0000
1000
,  // measure 51
0000
1001
0000
0000
,  // measure 52
0000
0000
0000
0000
,  // measure 53
0000
0001
0000
0001
,  // measure 54
0000
1000
0000
1000
,  // measure 55
0000
0000
0010
0010
,  // measure 56
0000
0000
0100
0100
,  // measure 57
0000
0000
0001
0001
,  // measure 58
0000
0000
1000
1000
,  // measure 59
0000
0001
0100
0001
,  // measure 60
0100
0001
0100
0001
,  // measure 61
0000
1000
0100
1000
,  // measure 62
0100
1000
0100
1000
,  // measure 63
1001
0000
0000
0000
,  // measure 64
0001
0000
1000
0000
,  // measure 65
0010
0000
0000
0000
,  // measure 66
1000
0000
0010
0000
,  // measure 67
0010
0000
0000
0000
,  // measure 68
1000
0000
0001
0000
,  // measure 69
0100
0000
0000
0000
,  // measure 70
0001
0000
1000
0000
,  // measure 71
0100
0000
1001
0000
,  // measure 72
0010
0000
1001
0000
,  // measure 73
1000
0000
0110
0000
,  // measure 74
0001
0000
0110
0110
,  // measure 75
2002
0000
3003
0000
;
