#TITLE:MACARON;
#SUBTITLE:;
#ARTIST:ATOLS;
#TITLETRANSLIT:;
#SUBTITLETRANSLIT:;
#ARTISTTRANSLIT:;
#GENRE:;
#CREDIT:;
#BANNER:MACARON [Kikoia].png;
#BACKGROUND:MACARON [Kikoia]-bg.png;
#LYRICSPATH:;
#CDTITLE:;
#MUSIC:MACARON [Kikoia].ogg;
#OFFSET:0.888000;
#SAMPLESTART:60.000000;
#SAMPLELENGTH:10.000000;
#SELECTABLE:YES;
#BPMS:0.000000=139.975998
;
#STOPS:
;
#BGCHANGES:;
#KEYSOUNDS:;
#ATTACKS:;

//---------------dance-single - Kik----------------
#NOTES:
     dance-single:
     Kik:
     Beginner:
     3:
     0.123642,0.167376,0.050070,0.000000,0.000000,121.000000,114.000000,7.000000,0.000000,0.000000,0.000000,0.123642,0.167376,0.050070,0.000000,0.000000,121.000000,114.000000,7.000000,0.000000,0.000000,0.000000:
// measure 0
0000
0000
0000
0000
,  // measure 1
0000
0000
0000
0000
,  // measure 2
0000
0000
0000
0000
,  // measure 3
0000
0000
0000
0000
,  // measure 4
1000
0000
0000
0000
,  // measure 5
1000
0000
0000
0000
,  // measure 6
0001
0000
0000
0000
,  // measure 7
0001
0000
0000
0000
,  // measure 8
0010
0000
0000
0000
,  // measure 9
0010
0000
0000
0000
,  // measure 10
0100
0000
0000
0000
,  // measure 11
0100
0000
0000
0000
,  // measure 12
0010
0000
0010
0000
,  // measure 13
0010
0000
0000
0000
,  // measure 14
0001
0000
0001
0000
,  // measure 15
0001
0000
0000
0000
,  // measure 16
0100
0000
0100
0000
,  // measure 17
0010
0000
0000
0000
,  // measure 18
1000
0000
1000
0000
,  // measure 19
0001
0000
0000
0000
,  // measure 20
0010
0000
0000
0000
,  // measure 21
0010
0000
1000
0000
,  // measure 22
0010
0000
0000
0000
,  // measure 23
0100
0000
1000
0000
,  // measure 24
0100
0000
0000
0000
,  // measure 25
0010
0000
0001
0000
,  // measure 26
0010
0000
0000
0000
,  // measure 27
0100
0000
0001
0000
,  // measure 28
0100
0000
0000
0000
,  // measure 29
1000
0000
1000
0000
,  // measure 30
0010
0000
0000
0000
,  // measure 31
0001
0000
0001
0000
,  // measure 32
0010
0000
0000
0000
,  // measure 33
0100
0000
0100
0000
,  // measure 34
0010
0000
0000
0000
,  // measure 35
0000
0000
0000
0000
,  // measure 36
0010
0000
0010
0000
,  // measure 37
0001
0000
0001
0000
,  // measure 38
0010
0000
0010
0000
,  // measure 39
1000
0000
0000
0000
,  // measure 40
1000
0000
1000
0000
,  // measure 41
0010
0000
0010
0000
,  // measure 42
0100
0000
0100
0000
,  // measure 43
0001
0000
0000
0000
,  // measure 44
1000
0000
0001
0000
,  // measure 45
1000
0000
0001
0000
,  // measure 46
0010
0000
0100
0000
,  // measure 47
0010
0000
0100
0000
,  // measure 48
0010
0000
0010
0000
,  // measure 49
0100
0000
0100
0000
,  // measure 50
0001
0000
0001
0000
,  // measure 51
1000
0000
1000
0000
,  // measure 52
1001
0000
0000
0000
,  // measure 53
0000
0000
0000
0000
,  // measure 54
1000
0000
1000
0000
,  // measure 55
0001
0000
0001
0000
,  // measure 56
0010
0000
0010
0000
,  // measure 57
0001
0000
0001
0000
,  // measure 58
1000
0000
1000
0000
,  // measure 59
0001
0000
0001
0000
,  // measure 60
0100
0000
0100
0000
,  // measure 61
1000
0000
1000
0000
,  // measure 62
0001
0000
1000
0000
,  // measure 63
0001
0000
1000
0000
,  // measure 64
0010
0000
0000
0000
,  // measure 65
1000
0000
0001
0000
,  // measure 66
0010
0000
0000
0000
,  // measure 67
0001
0000
1000
0000
,  // measure 68
0010
0000
0000
0000
,  // measure 69
0110
0000
0000
0000
,  // measure 70
1001
0000
0000
0000
,  // measure 71
1001
0000
0000
0000
,  // measure 72
0110
0000
0000
0000
,  // measure 73
0110
0000
0000
0000
,  // measure 74
1000
0000
1000
0000
,  // measure 75
0001
0000
0001
0000
,  // measure 76
0010
0000
0010
0000
,  // measure 77
0100
0000
0100
0000
,  // measure 78
0110
0000
0000
0000
;

//---------------dance-single - Kik----------------
#NOTES:
     dance-single:
     Kik:
     Easy:
     5:
     0.149187,0.172741,0.035764,0.000000,0.000000,146.000000,141.000000,5.000000,0.000000,0.000000,0.000000,0.149187,0.172741,0.035764,0.000000,0.000000,146.000000,141.000000,5.000000,0.000000,0.000000,0.000000:
// measure 0
0000
0000
0000
0000
,  // measure 1
0000
0000
0000
0000
,  // measure 2
0000
0000
0000
0000
,  // measure 3
0000
0000
0000
0000
,  // measure 4
0001
1000
0001
1000
,  // measure 5
0010
0100
0010
0000
,  // measure 6
0001
1000
0001
1000
,  // measure 7
0100
1000
0100
0000
,  // measure 8
0001
1000
0001
0010
,  // measure 9
0100
0010
0100
1000
,  // measure 10
0001
0100
0001
1000
,  // measure 11
0100
0010
0100
0010
,  // measure 12
0100
1000
0001
1000
,  // measure 13
0100
1000
0010
0100
,  // measure 14
0010
0100
0010
1000
,  // measure 15
0100
0010
0001
0100
,  // measure 16
0010
1000
0100
0010
,  // measure 17
0001
0100
0010
1000
,  // measure 18
0010
1000
0010
0100
,  // measure 19
0001
1000
0010
1000
,  // measure 20
0010
0100
0001
0010
,  // measure 21
0001
0100
0010
1000
,  // measure 22
0001
0100
0010
1000
,  // measure 23
0100
1000
0001
0010
,  // measure 24
0100
0010
0100
1000
,  // measure 25
0010
1000
0010
0100
,  // measure 26
0001
0010
0001
1000
,  // measure 27
0010
1000
0100
0010
,  // measure 28
0001
0100
0010
0100
,  // measure 29
0001
0100
0001
1000
,  // measure 30
0001
0100
0010
1000
,  // measure 31
0001
0010
0001
0100
,  // measure 32
0001
1000
0010
1000
,  // measure 33
0001
0100
0001
0100
,  // measure 34
0010
0100
0010
0100
,  // measure 35
0110
0000
0000
0000
,  // measure 36
1001
0001
1000
1001
,  // measure 37
0010
0100
0110
0100
,  // measure 38
0010
1000
0010
1000
,  // measure 39
0001
0010
0001
0010
,  // measure 40
0011
0010
0000
0000
;

//---------------dance-single - Kik----------------
#NOTES:
     dance-single:
     Kik:
     Hard:
     13:
     0.530331,0.629448,0.293266,0.221737,0.089410,519.000000,478.000000,41.000000,31.000000,21.000000,0.000000,0.530331,0.629448,0.293266,0.221737,0.089410,519.000000,478.000000,41.000000,31.000000,21.000000,0.000000:
// measure 0
0000
0000
0000
0000
,  // measure 1
0000
0000
0000
0000
,  // measure 2
0000
0000
0000
0000
,  // measure 3
0000
0000
0000
0000
,  // measure 4
0001
1000
0001
1000
0010
0000
1000
0000
,  // measure 5
0001
0100
0001
0100
,  // measure 6
0010
0000
0100
0000
0010
1000
0010
0000
,  // measure 7
0100
1000
0100
0000
0010
0001
0010
0001
,  // measure 8
1000
0001
1000
0001
1000
0000
1000
0000
,  // measure 9
0001
0000
0001
0000
0010
0010
0100
0000
,  // measure 10
1000
0000
0100
0000
1000
0010
0100
0000
,  // measure 11
0100
0001
0010
0001
0100
0001
0010
0001
,  // measure 12
1000
0001
1000
0001
1001
0000
1100
0000
,  // measure 13
0011
0101
1010
0110
,  // measure 14
0100
0010
0100
0000
0001
1000
0001
1000
,  // measure 15
0100
0010
0100
0010
0001
1000
0001
1000
,  // measure 16
0001
1000
0001
1000
1001
0000
0110
0000
,  // measure 17
1001
0011
1100
1010
,  // measure 18
0101
0000
1010
0000
1000
0010
1000
0000
,  // measure 19
1000
0100
1000
0100
1000
0100
0010
0100
,  // measure 20
1000
0100
1000
0200
0000
0000
0000
0000
1300
0000
1000
0000
0100
0000
0100
0000
,  // measure 21
0010
0001
0100
0001
,  // measure 22
0100
0001
0100
0002
0000
0000
0000
0003
0100
0000
0100
0000
0001
0000
0001
0000
,  // measure 23
1000
0100
0010
0100
1000
0010
1000
0010
,  // measure 24
0100
0010
0100
0020
0000
0000
0000
0000
0230
0000
0000
0000
0302
0000
0000
0000
,  // measure 25
2003
3200
0320
0230
,  // measure 26
0310
0100
0010
0200
0000
0000
0000
0000
0310
0000
0001
0000
0010
0000
0001
0000
,  // measure 27
1000
0001
1000
0001
1000
0100
0010
0001
,  // measure 28
0100
0010
1000
0020
0000
0000
0000
0000
0031
0000
0001
0000
1000
0000
1000
0000
,  // measure 29
0010
0010
1000
1000
0100
0100
0010
0010
,  // measure 30
0001
0010
0100
2000
0000
0000
3000
0000
0100
0000
1000
0000
0010
0000
1000
0000
,  // measure 31
0100
1000
0001
0100
0001
0010
0001
0100
,  // measure 32
0001
0010
0100
2000
0000
0000
3000
0000
1000
0000
1000
0000
0010
0000
0010
0000
,  // measure 33
0001
0001
1000
1000
0100
0100
0001
0001
,  // measure 34
0001
0100
0010
2000
0000
0000
0000
0000
0000
0000
0000
0000
0000
0000
0000
3000
,  // measure 35
0000
0000
0000
0000
,  // measure 36
1000
0001
0100
0001
1000
0000
0100
0000
,  // measure 37
0011
0001
0101
1000
,  // measure 38
1010
0000
0010
0000
1000
0100
0010
0001
,  // measure 39
0100
0010
1000
0100
0010
0100
1000
0001
,  // measure 40
0100
0001
1000
0010
1000
0000
1010
0000
,  // measure 41
0110
0000
0101
0000
0010
0010
0010
0000
,  // measure 42
1001
0000
0101
0000
0100
0010
1000
0010
,  // measure 43
0100
0001
0100
0010
1000
0100
0010
0001
,  // measure 44
0011
0001
0010
0001
1000
0000
1100
0000
,  // measure 45
1100
0000
1000
0100
M100
0000
0001
0000
,  // measure 46
0102
0000
0100
0000
0103
0010
1000
0100
,  // measure 47
0010
0001
0010
0100
1000
0010
0100
0001
,  // measure 48
10M0
1000
20M0
0000
3M01
0001
0M02
0000
,  // measure 49
M013
0010
M020
0000
013M
0100
020M
0000
,  // measure 50
13M0
1000
20M0
0000
3100
1000
0100
1000
,  // measure 51
0001
0010
0001
0010
0100
1000
0010
0100
,  // measure 52
0001
0000
0000
0000
,  // measure 53
0000
0000
0000
0000
,  // measure 54
1001
0000
0001
0000
1000
0000
0100
1000
0100
0000
1000
0000
0100
0000
0010
0001
,  // measure 55
0010
0000
0001
0000
0010
0000
0100
0010
0100
0000
0010
0000
0100
0000
0001
0000
,  // measure 56
0100
0010
0100
0010
0100
1000
0100
0010
,  // measure 57
0100
0000
0010
0000
0100
0000
1000
0000
0100
0000
1000
0000
0001
0000
1000
0001
,  // measure 58
1000
0000
0001
0000
1000
0000
0010
0000
0100
0000
0010
1000
0010
0000
1000
0000
,  // measure 59
0001
0000
0010
0001
0010
0000
0001
0000
1000
0000
0010
0100
0010
0000
1000
0000
,  // measure 60
0100
0010
0001
1000
0010
0100
0001
0010
,  // measure 61
0001
0100
0010
0100
0001
0100
0010
1000
,  // measure 62
1001
1000
0001
0000
0101
0001
0011
0001
,  // measure 63
1001
0001
0101
0001
0010
0100
1100
1000
,  // measure 64
20M0
3000
20M0
3000
1000
0100
1001
1000
,  // measure 65
0110
0001
0011
0001
1000
0010
0100
0010
,  // measure 66
000M
0000
020M
0300
0100
0100
0110
0010
,  // measure 67
1010
1000
1001
0001
0011
0010
0110
0001
,  // measure 68
0M02
0003
0M02
0003
0001
0010
0100
1000
,  // measure 69
0100
0000
0010
0000
0001
0000
0100
0000
0010
0000
1000
0000
0100
1000
0100
0010
,  // measure 70
0001
0010
0002
0000
1003
0000
0200
0000
,  // measure 71
0301
0200
0310
1000
,  // measure 72
0001
0000
0100
0000
0010
0100
0001
0100
,  // measure 73
0010
1000
0100
0010
0001
0100
0010
1000
,  // measure 74
0010
1000
0020
0000
0130
0000
0002
0000
,  // measure 75
0013
0002
1003
0100
,  // measure 76
0001
0000
0100
0000
1000
0010
0100
0001
,  // measure 77
1000
0001
0010
0100
1000
0100
0010
0001
,  // measure 78
1000
0000
0000
0000
,  // measure 79
0000
0000
0000
0000
,  // measure 80
MMMM
0000
0000
0000
;

//---------------dance-single - ----------------
#NOTES:
     dance-single:
     :
     Medium:
     10:
     0.418951,0.502128,0.236043,0.221737,0.014306,410.000000,377.000000,33.000000,31.000000,0.000000,0.000000,0.418951,0.502128,0.236043,0.221737,0.014306,410.000000,377.000000,33.000000,31.000000,0.000000,0.000000:
// measure 0
0000
0000
0000
0000
,  // measure 1
0000
0000
0000
0000
,  // measure 2
0000
0000
0000
0000
,  // measure 3
0000
0000
0000
0000
,  // measure 4
1000
0001
1000
0001
0100
0000
0100
0000
,  // measure 5
0010
0010
1000
0001
,  // measure 6
1000
0100
0010
0001
,  // measure 7
1000
0010
0100
0100
,  // measure 8
0001
1000
0001
1000
0100
0000
0100
0000
,  // measure 9
0010
0000
0010
0000
0001
1000
0001
0000
,  // measure 10
1000
0001
0100
0100
,  // measure 11
0010
1000
0001
0010
,  // measure 12
0001
0010
0100
1000
0001
0000
0100
0000
,  // measure 13
0010
1000
0001
1000
,  // measure 14
0010
0000
0100
0000
0001
1000
0001
1000
,  // measure 15
0100
0010
0001
0001
,  // measure 16
1000
0010
0100
0001
1000
0000
1000
0000
,  // measure 17
0001
0001
0100
0010
,  // measure 18
0100
0000
0001
0000
1000
0010
1000
0010
,  // measure 19
0100
0001
1000
1000
,  // measure 20
0001
0100
0020
0000
1000
0000
1000
0000
,  // measure 21
0100
0100
1000
1030
,  // measure 22
1000
0100
0020
0000
0001
0000
0001
0000
,  // measure 23
0100
0100
0001
0031
,  // measure 24
0010
0001
2000
0000
0001
0000
0001
0000
,  // measure 25
0100
0100
0001
3001
,  // measure 26
0001
1000
0002
0000
0100
0000
0100
0000
,  // measure 27
1000
1000
0010
0013
,  // measure 28
1000
0000
0100
2000
0000
0000
0000
0000
0100
0000
0000
0000
0100
0000
0000
0000
,  // measure 29
0001
0001
0010
3010
,  // measure 30
0001
0000
0100
0002
0000
0000
0000
0000
0100
0000
0000
0000
0100
0000
0000
0000
,  // measure 31
1000
1000
0010
0013
,  // measure 32
1000
0000
0010
2000
0000
0000
0000
0000
0010
0000
0000
0000
0010
0000
0000
0000
,  // measure 33
0001
0001
0100
3100
,  // measure 34
0001
0000
0010
0002
0000
0000
0000
0000
0010
0000
0000
0000
0010
0000
0000
0000
,  // measure 35
1000
1000
0100
0103
,  // measure 36
0001
1000
0001
1000
0010
0000
0100
0000
,  // measure 37
0201
0310
1020
0130
,  // measure 38
0001
0000
1000
0000
0001
0010
0100
1000
,  // measure 39
0010
0010
0100
0100
,  // measure 40
0001
1000
0001
1000
0100
0000
1000
0000
,  // measure 41
1020
0000
0130
0000
0100
0001
1000
0000
,  // measure 42
0002
0000
1003
0000
0001
0010
0100
1000
,  // measure 43
0010
0010
0100
0100
,  // measure 44
0001
1000
0001
1000
0100
0000
1200
0000
,  // measure 45
0310
0000
0012
0000
1003
0001
0100
0000
,  // measure 46
0002
0000
1003
0000
0010
1000
0001
0100
,  // measure 47
0010
0000
0100
0000
0001
1000
0001
0000
,  // measure 48
1100
1100
0101
0101
,  // measure 49
1100
0101
1100
0101
,  // measure 50
1010
1010
0011
0011
,  // measure 51
1001
0110
1001
0110
,  // measure 52
2002
0000
0000
0000
,  // measure 53
0000
0000
0000
3003
,  // measure 54
0001
0100
1000
0100
0001
1000
0001
1000
,  // measure 55
0010
0100
0001
0010
0100
1000
0010
0000
,  // measure 56
1000
0100
0001
0100
1000
0010
0100
0010
,  // measure 57
0100
0001
0010
0100
1000
0001
1000
0000
,  // measure 58
0001
0010
0100
1000
0010
0100
0010
1000
,  // measure 59
0100
0010
0001
1000
0001
1000
0010
0000
,  // measure 60
1000
0010
0100
0001
0100
0010
1000
0001
,  // measure 61
0010
0100
1000
0001
1000
0000
1001
0000
,  // measure 62
0101
0000
1100
0000
0001
0010
0100
1000
,  // measure 63
0010
0100
0010
0100
0001
0100
0001
0000
,  // measure 64
0101
0000
1100
0000
0001
1000
0001
1000
,  // measure 65
0100
0010
0001
0010
0100
1000
0010
0000
,  // measure 66
1010
0000
0101
0000
1000
0010
0100
0010
,  // measure 67
0100
0001
0100
0001
1000
0001
1000
0000
,  // measure 68
1100
0000
0101
0000
1000
0100
1000
0100
,  // measure 69
0010
0001
1000
0010
0100
0001
1000
0000
,  // measure 70
1002
0203
0320
2030
,  // measure 71
3200
0320
0032
1000
,  // measure 72
2003
3020
0230
0302
,  // measure 73
2000
0003
3200
0000
0320
0000
0001
0000
,  // measure 74
0031
1000
0001
0000
1000
0000
0100
0000
,  // measure 75
1100
0001
1000
0010
,  // measure 76
0100
0000
0001
0000
0100
0010
1000
0001
,  // measure 77
0010
0000
0100
0000
1000
0000
1000
0001
,  // measure 78
0100
0000
0000
0000
;
