#VERSION:0.83;
#TITLE:Kooky Spooky;
#SUBTITLE:;
#ARTIST:Scream Team;
#TITLETRANSLIT:;
#SUBTITLETRANSLIT:;
#ARTISTTRANSLIT:;
#GENRE:Eurobeat;
#ORIGIN:;
#CREDIT:djfipu;
#BANNER:Kooky Spooky [djfipu].png;
#BACKGROUND:Kooky Spooky [djfipu]-bg.png;
#PREVIEWVID:;
#JACKET:Kooky Spooky [djfipu]-jacket.jpg;
#CDIMAGE:;
#DISCIMAGE:;
#LYRICSPATH:;
#CDTITLE:Kooky Spooky [djfipu]-cdtitle.png;
#MUSIC:Kooky Spooky [djfipu].ogg;
#OFFSET:0.000000;
#SAMPLESTART:52.500000;
#SAMPLELENGTH:24.000000;
#SELECTABLE:YES;
#BPMS:0.000=160.000;
#STOPS:276.000=2.250;
#DELAYS:;
#WARPS:;
#TIMESIGNATURES:0.000=4=4;
#TICKCOUNTS:0.000=4;
#COMBOS:0.000=1;
#SPEEDS:0.000=1.000=0.000=0;
#SCROLLS:0.000=1.000,
34.000=0.000,
34.500=6.000,
35.250=4.000,
35.500=3.000,
35.750=2.000,
36.000=1.000,
50.750=2.000,
51.000=2.500,
51.250=3.000,
51.500=3.500,
51.750=4.000,
52.000=1.000,
65.750=2.000,
66.000=2.500,
66.250=3.000,
66.500=3.500,
66.750=4.000,
67.000=1.000,
112.500=0.900,
112.750=0.800,
113.000=0.700,
113.250=0.600,
113.500=5.000,
114.000=1.000,
218.750=2.000,
219.000=2.500,
219.250=3.000,
219.500=3.500,
219.750=4.000,
220.000=1.000,
233.750=2.000,
234.000=2.500,
234.250=3.000,
234.500=3.500,
234.750=4.000,
235.000=1.000,
248.500=0.900,
248.750=0.800,
249.000=0.700,
249.250=0.600,
249.500=5.000,
250.000=1.000,
276.000=5.000,
276.500=1.000,
316.750=2.000,
317.000=2.500,
317.250=3.000,
317.500=3.500,
317.750=4.000,
318.000=1.000,
331.750=2.000,
332.000=2.500,
332.250=3.000,
332.500=3.500,
332.750=4.000,
333.000=1.000;
#FAKES:35.000=1.000;
#LABELS:0.000=Song Start;
#BGCHANGES:;
#KEYSOUNDS:;
#ATTACKS:
;

//---------------dance-single - djfipu----------------
#NOTEDATA:;
#CHARTNAME:;
#STEPSTYPE:dance-single;
#DESCRIPTION:djfipu;
#CHARTSTYLE:;
#DIFFICULTY:Beginner;
#METER:3;
#RADARVALUES:0.126371,0.192111,0.207688,0.215380,0.000000,115.000000,88.000000,27.000000,28.000000,0.000000,0.000000,0.000000,0.000000,0.000000,0.126371,0.192111,0.207688,0.215380,0.000000,115.000000,88.000000,27.000000,28.000000,0.000000,0.000000,0.000000,0.000000,0.000000;
#CREDIT:djfipu;
#NOTES:
// measure 0
0000
0000
0000
0000
,  // measure 1
0000
0000
0000
0000
,  // measure 2
0000
0000
0000
0000
,  // measure 3
0000
0000
0000
0000
,  // measure 4
0000
0000
0000
0000
,  // measure 5
0000
0000
0000
0000
,  // measure 6
0000
0000
0000
0000
,  // measure 7
0000
0000
0000
0000
,  // measure 8
0000
0000
0000
0000
,  // measure 9
1001
0000
0000
0000
,  // measure 10
1000
0000
0000
0000
,  // measure 11
0001
0000
0000
0000
,  // measure 12
0100
0000
0100
0000
,  // measure 13
0010
0000
0000
0000
,  // measure 14
0100
0000
0000
0000
,  // measure 15
0001
0000
0001
0000
,  // measure 16
1000
0000
0000
0000
,  // measure 17
0110
0000
0000
0000
,  // measure 18
0010
0000
0000
0000
,  // measure 19
0200
0000
0020
0330
,  // measure 20
0220
0000
0000
0330
,  // measure 21
1001
0000
0000
0000
,  // measure 22
1000
0000
0000
0000
,  // measure 23
0002
0000
2000
3003
,  // measure 24
2002
0000
0000
3003
,  // measure 25
1000
0000
0000
0000
,  // measure 26
0001
0000
0000
0000
,  // measure 27
0001
0000
0000
0000
,  // measure 28
0020
0000
0000
0030
,  // measure 29
0100
0000
0000
0000
,  // measure 30
0100
0000
0000
0000
,  // measure 31
2000
0000
0000
0000
,  // measure 32
3020
0000
0000
0000
,  // measure 33
0230
0000
0000
0000
,  // measure 34
0302
0000
0000
0000
,  // measure 35
1003
0000
1000
0000
,  // measure 36
1001
0000
0000
0000
,  // measure 37
0001
0000
0001
0000
,  // measure 38
1001
0000
0000
0000
,  // measure 39
0010
0000
0010
0000
,  // measure 40
0110
0000
0000
0000
,  // measure 41
0100
0000
0100
0000
,  // measure 42
0110
0000
0000
0000
,  // measure 43
0001
0000
0001
0000
,  // measure 44
1001
0000
0000
0000
,  // measure 45
1000
0000
1000
0000
,  // measure 46
1001
0000
0000
0000
,  // measure 47
0100
0000
0100
0000
,  // measure 48
0110
0000
0000
0000
,  // measure 49
0010
0000
0010
0000
,  // measure 50
0110
0000
0000
0000
,  // measure 51
0001
0000
0000
0000
,  // measure 52
0100
0000
0000
0000
,  // measure 53
0010
0000
0000
0000
,  // measure 54
1000
0000
0000
0000
,  // measure 55
1001
0000
0000
0000
,  // measure 56
0110
0000
0000
0000
,  // measure 57
0110
0000
0000
0000
,  // measure 58
1001
0000
0000
0000
,  // measure 59
2000
0000
0000
0000
,  // measure 60
3200
0000
0000
0000
,  // measure 61
0310
0000
0000
0000
,  // measure 62
0002
0000
0003
0000
,  // measure 63
0001
0000
0000
0000
,  // measure 64
0100
0000
0000
0000
,  // measure 65
2002
0000
0000
3003
,  // measure 66
0220
0000
0000
0330
,  // measure 67
2002
0000
0000
3003
,  // measure 68
0220
0000
0000
0330
,  // measure 69
0110
0000
1001
0000
,  // measure 70
0000
0000
0001
0000
,  // measure 71
0000
0000
1000
0000
,  // measure 72
0000
0000
0010
0000
,  // measure 73
0000
0000
1000
0000
,  // measure 74
0000
0000
0100
0000
,  // measure 75
0000
0000
0110
0000
,  // measure 76
0000
0000
0010
0000
,  // measure 77
0000
0000
0010
0000
,  // measure 78
0000
0000
2002
0000
,  // measure 79
0000
3003
1001
0000
,  // measure 80
0000
0000
1000
0000
,  // measure 81
0000
0000
0010
0000
,  // measure 82
0000
0000
0100
0000
,  // measure 83
0220
0330
0000
0000
;

//---------------dance-single - djfipu----------------
#NOTEDATA:;
#CHARTNAME:;
#STEPSTYPE:dance-single;
#DESCRIPTION:djfipu;
#CHARTSTYLE:;
#DIFFICULTY:Easy;
#METER:6;
#RADARVALUES:0.307685,0.351146,0.453836,0.338454,0.000000,280.000000,221.000000,59.000000,44.000000,0.000000,0.000000,0.000000,0.000000,0.000000,0.307685,0.351146,0.453836,0.338454,0.000000,280.000000,221.000000,59.000000,44.000000,0.000000,0.000000,0.000000,0.000000,0.000000;
#CREDIT:djfipu;
#NOTES:
// measure 0
0000
0000
0000
0000
,  // measure 1
0000
0000
0000
0000
,  // measure 2
0000
0000
0000
0000
,  // measure 3
0000
0000
0000
0000
,  // measure 4
0000
0000
0000
0000
,  // measure 5
0000
0000
0000
0000
,  // measure 6
0000
0000
0000
0000
,  // measure 7
0000
0000
0000
0000
,  // measure 8
0000
0000
0000
0000
,  // measure 9
0001
0100
0001
0000
,  // measure 10
1000
0100
0010
0000
,  // measure 11
0100
0010
0100
0000
,  // measure 12
0110
0000
1001
0000
,  // measure 13
0100
1000
0001
0000
,  // measure 14
0010
0001
0001
0000
,  // measure 15
1100
0000
0011
0000
,  // measure 16
0101
0000
1100
0000
,  // measure 17
1000
1000
0001
0001
,  // measure 18
1000
1000
0010
0010
,  // measure 19
2000
0000
3200
0000
,  // measure 20
0310
0010
0010
0110
,  // measure 21
0100
0100
0010
0010
,  // measure 22
0100
0100
0001
0001
,  // measure 23
0002
0000
0023
0000
,  // measure 24
0130
0100
0100
0110
,  // measure 25
1000
1000
1100
0000
,  // measure 26
0001
0001
0011
0000
,  // measure 27
0002
0013
0020
0130
,  // measure 28
2002
0000
3003
0000
,  // measure 29
0100
0100
0101
0000
,  // measure 30
0010
0010
1010
0000
,  // measure 31
2002
3003
0220
0330
,  // measure 32
0022
0033
0202
0303
,  // measure 33
2002
3003
2200
3300
,  // measure 34
0220
0330
2020
3030
,  // measure 35
1001
0100
0010
1000
,  // measure 36
0001
0100
0001
0000
,  // measure 37
0011
1000
0010
0100
,  // measure 38
0001
1000
0100
0000
,  // measure 39
1100
0010
0001
0010
,  // measure 40
0100
1000
0010
0000
,  // measure 41
0110
1000
0001
0010
,  // measure 42
0001
0001
0011
0000
,  // measure 43
1010
0100
0010
0100
,  // measure 44
0001
0010
0100
0000
,  // measure 45
0110
0100
0001
1000
,  // measure 46
0010
1000
0001
0000
,  // measure 47
1100
1000
0001
1000
,  // measure 48
0010
0100
0001
0000
,  // measure 49
0110
0010
0100
0010
,  // measure 50
1000
1000
1100
0000
,  // measure 51
0001
1000
0100
0000
,  // measure 52
0100
1000
0010
0000
,  // measure 53
0001
1000
0001
0000
,  // measure 54
1001
0000
0110
0000
,  // measure 55
0110
0100
0001
0000
,  // measure 56
1001
1000
0001
0000
,  // measure 57
0010
0001
1000
0000
,  // measure 58
0010
1000
0001
0000
,  // measure 59
1000
1000
1010
0000
,  // measure 60
0001
0001
0101
0000
,  // measure 61
0002
0103
0200
0310
,  // measure 62
2002
0000
3003
0000
,  // measure 63
0010
0010
0011
0000
,  // measure 64
0100
0100
1100
0000
,  // measure 65
2002
3003
0220
0330
,  // measure 66
0202
0303
0022
0033
,  // measure 67
2002
3003
2020
3030
,  // measure 68
0220
0330
2200
3300
,  // measure 69
1001
0000
1100
0001
,  // measure 70
0100
0010
1000
0001
,  // measure 71
0010
0000
0011
0100
,  // measure 72
1000
0100
0010
0001
,  // measure 73
0100
0000
0110
0001
,  // measure 74
1000
0100
1000
1000
,  // measure 75
1100
0000
1000
0010
,  // measure 76
1000
0000
0001
0010
,  // measure 77
0100
0000
0010
0100
,  // measure 78
0010
0000
0110
0000
,  // measure 79
1001
0000
0010
0001
,  // measure 80
1000
0000
0100
1000
,  // measure 81
1000
0000
0011
0000
,  // measure 82
1100
0000
1010
0000
,  // measure 83
1001
0000
0000
0000
;

//---------------dance-single - djfipu----------------
#NOTEDATA:;
#CHARTNAME:;
#STEPSTYPE:dance-single;
#DESCRIPTION:djfipu;
#CHARTSTYLE:;
#DIFFICULTY:Medium;
#METER:10;
#RADARVALUES:0.475813,0.576333,0.515373,0.507681,0.092306,433.000000,366.000000,67.000000,66.000000,0.000000,1.000000,0.000000,0.000000,4.000000,0.475813,0.576333,0.515373,0.507681,0.092306,433.000000,366.000000,67.000000,66.000000,0.000000,1.000000,0.000000,0.000000,4.000000;
#CREDIT:djfipu;
#NOTES:
// measure 0
0000
0000
0000
0000
,  // measure 1
0000
0000
0000
0000
,  // measure 2
0000
0000
0000
0000
,  // measure 3
0000
0000
0000
0000
,  // measure 4
0000
0000
0000
0000
,  // measure 5
0000
0000
0000
0000
,  // measure 6
0000
0000
0000
0000
,  // measure 7
0000
0000
0000
0000
,  // measure 8
0000
0000
0000
MMMM
,  // measure 9
0001
0000
0010
0000
0001
0000
0000
0000
0001
0000
0000
0001
0000
0000
0000
0000
,  // measure 10
1000
0000
0100
0000
1000
0000
0000
0000
1000
0000
0000
1000
0000
0000
0000
0000
,  // measure 11
1000
0000
0010
0000
1000
0000
0000
0000
0010
0000
0000
0010
0000
0000
0000
0000
,  // measure 12
0100
0000
0001
0000
0100
0000
0000
0000
0100
0000
0000
0100
0000
0000
0000
0000
,  // measure 13
0001
0000
0001
0000
0001
0000
0002
0000
1000
0000
0000
1000
0003
0000
0000
0000
,  // measure 14
0100
0000
0100
0000
0100
0000
0200
0000
0010
0000
0000
0010
0300
0000
0000
0000
,  // measure 15
0001
0000
0100
0000
0010
0000
1000
0000
1000
0000
0100
2000
0000
0000
0001
0000
,  // measure 16
3001
0000
0010
0000
0001
0000
0010
0002
0000
0000
0000
0000
1003
0000
0000
0000
,  // measure 17
1000
1001
0000
1100
0000
0110
0000
0011
,  // measure 18
0000
0110
0000
0101
0000
0110
0000
1010
,  // measure 19
2000
0000
3002
0000
,  // measure 20
0103
0010
0100
0010
0220
0330
0220
0330
,  // measure 21
0001
0101
0000
1010
0000
1100
0000
1010
,  // measure 22
0000
0110
0000
1001
0000
0011
0000
0101
,  // measure 23
0200
0000
0320
0000
,  // measure 24
2032
0000
0000
3003
,  // measure 25
2100
0100
0100
0100
0000
0100
3100
0000
,  // measure 26
0102
0100
0100
0100
0000
0100
0103
0000
,  // measure 27
2000
3020
0032
0023
,  // measure 28
2030
0000
3001
0000
,  // measure 29
0012
0010
0010
0010
0000
0010
0013
0000
,  // measure 30
2010
0010
0010
0010
0000
0010
3010
0000
,  // measure 31
0002
0023
0230
2300
,  // measure 32
3200
2300
3020
0230
,  // measure 33
0302
1003
0002
0103
,  // measure 34
0002
0000
0013
0000
0001
1000
0001
1000
,  // measure 35
1001
0110
1010
0101
,  // measure 36
0001
0010
0000
0020
0000
0000
0030
0000
,  // measure 37
1010
0110
1100
0011
,  // measure 38
1100
1000
0100
2000
0000
0000
3000
0000
,  // measure 39
0001
0100
1000
0010
,  // measure 40
0001
0001
0000
1001
0000
1000
1000
2000
,  // measure 41
0000
0001
3001
0001
0101
0000
0001
0010
,  // measure 42
0001
0001
1000
1000
1001
0000
1001
0000
,  // measure 43
1001
0110
0011
1100
,  // measure 44
1000
0010
0000
0020
0000
0000
0030
0000
,  // measure 45
0011
0110
0101
1010
,  // measure 46
0101
0001
0100
0002
0000
0000
0003
0000
,  // measure 47
1000
0100
0001
0010
,  // measure 48
1000
1000
0000
1001
0000
0001
0001
0002
,  // measure 49
0000
1000
1003
1000
1100
0000
1000
0010
,  // measure 50
1000
1000
0001
0001
1001
0000
1001
0000
,  // measure 51
1000
0000
0010
0000
1000
0000
0000
0000
1000
0000
0000
1000
0000
0000
0000
0000
,  // measure 52
0001
0000
0100
0000
0001
0000
0000
0000
0001
0000
0000
0001
0000
0000
0000
0000
,  // measure 53
0001
0000
0010
0000
0001
0000
0000
0000
0010
0000
0000
0010
0000
0000
0000
0000
,  // measure 54
0100
0000
1000
0000
0100
0000
0000
0000
0100
0000
0000
0100
0000
0000
0000
0000
,  // measure 55
1000
0000
1000
0000
1000
0000
2000
0000
0001
0000
0000
0001
3000
0000
0000
0000
,  // measure 56
0100
0000
0100
0000
0100
0000
0200
0000
0010
0000
0000
0010
0300
0000
0000
0000
,  // measure 57
1000
0000
0100
0000
0010
0000
0001
0000
0001
0000
0100
0002
0000
0000
1000
0000
,  // measure 58
1003
0000
0010
0000
1000
0000
0010
2000
0000
0000
0000
0000
3001
0000
0000
0000
,  // measure 59
0100
0110
0000
0101
0000
0100
0100
0000
,  // measure 60
1000
1001
0000
1100
0000
1000
1000
0000
,  // measure 61
0002
0203
2300
3200
,  // measure 62
0302
0000
1003
0000
,  // measure 63
0010
0110
0000
1010
0000
0010
0010
0000
,  // measure 64
0001
1001
0000
0011
0000
0001
0001
0000
,  // measure 65
2000
3200
0320
0032
,  // measure 66
0023
0032
0203
0320
,  // measure 67
2030
3001
2000
3010
,  // measure 68
2000
0000
3100
0000
1000
0001
1000
0001
,  // measure 69
1001
0010
0010
0000
1100
0000
0110
0000
,  // measure 70
1010
0000
0101
0000
1010
1000
0010
2000
,  // measure 71
0000
3000
0001
0010
,  // measure 72
1000
0000
0100
0000
0001
0001
0000
1001
,  // measure 73
0000
1000
1000
2000
0000
0001
3001
0001
,  // measure 74
0011
0000
0001
0100
0001
0001
1000
1000
,  // measure 75
1001
0000
1001
0000
1000
0100
1000
0000
,  // measure 76
1000
0000
0000
1000
0000
0000
0000
0000
0001
0000
0010
0000
0001
0000
0000
0000
,  // measure 77
0001
0000
0000
0001
0000
0000
0000
0000
0001
0000
0100
0000
0001
0000
0000
0000
,  // measure 78
0100
0000
0000
0100
0000
0000
0000
0000
0010
0000
1000
0000
0010
0000
0000
0000
,  // measure 79
0010
0000
0000
0010
0000
0000
0000
0000
1000
0000
1000
0000
1000
0000
2000
0000
,  // measure 80
0001
0000
0000
0001
3000
0000
0000
0000
0010
0000
0010
0000
0010
0000
0020
0000
,  // measure 81
0100
0000
0000
0100
0030
0000
0000
0000
1000
0000
0010
0000
0100
0000
0001
0000
,  // measure 82
0001
0000
0010
0002
0000
0000
1000
0000
1003
0000
0100
0000
1000
0000
0100
2000
,  // measure 83
0000
3001
0000
0000
;

//---------------dance-single - djfipu----------------
#NOTEDATA:;
#CHARTNAME:;
#STEPSTYPE:dance-single;
#DESCRIPTION:djfipu;
#CHARTSTYLE:;
#DIFFICULTY:Hard;
#METER:14;
#RADARVALUES:0.628557,0.864499,0.523065,0.553833,0.219226,572.000000,504.000000,68.000000,72.000000,0.000000,9.000000,0.000000,6.000000,2.000000,0.628557,0.864499,0.523065,0.553833,0.219226,572.000000,504.000000,68.000000,72.000000,0.000000,9.000000,0.000000,6.000000,2.000000;
#CREDIT:djfipu;
#NOTES:
0000
0000
0000
0000
,
0000
0000
0000
0000
,
0000
0000
0000
0000
,
0000
0000
0000
0000
,
0000
0000
0000
0000
,
0000
0000
0000
0000
,
0000
0000
0000
0000
,
0000
0000
0000
0000
,
0000
0000
0000
0110
,
1001
0000
1000
0000
0010
0000
1000
0000
0200
1000
0000
1000
0300
0000
0010
0000
,
0010
0000
0001
0000
0010
0000
1000
0000
0110
0000
0000
1001
0000
0000
0000
0000
,
1000
0000
0010
0000
0100
0000
0001
0000
0010
0100
0000
1000
0000
0000
0001
0000
,
0001
0000
0010
0000
0100
0000
0010
0000
0020
0000
0000
2000
0000
0000
3030
0000
,
0110
0000
0001
0000
0010
0000
0001
0000
0020
0001
0000
0001
0030
0000
0010
0000
,
0010
0000
1000
0000
0010
0000
0001
0000
1001
0000
0000
0110
0000
0000
0000
0000
,
0001
0000
0001
0000
0010
0000
0010
0000
0100
0000
0100
1000
0000
0000
1000
0000
,
0100
0000
0100
0000
1000
0000
1000
0010
0000
0000
0000
0000
1001
0000
0000
0000
,
0001
0100
1000
0100
0001
0100
1000
0100
,
0001
0010
1000
0010
0001
0010
1000
0010
,
0002
0000
0010
0013
0020
0000
0100
0130
,
1000
1000
0100
0100
1100
0000
0101
0000
,
1000
0100
1000
0010
1000
0100
1000
0001
,
0001
0001
0010
0001
0100
0001
1000
0001
,
0200
0000
0010
0310
0020
0000
1000
1030
,
1000
1100
0000
0110
0000
0011
0110
0000
,
0001
0100
1000
0200
0000
0001
0301
0000
,
0001
0100
0001
0020
0000
0001
0031
0000
,
2001
0000
0100
3100
1002
0000
0100
0003
,
2000
0000
0200
3300
,
1000
0010
0001
0020
0000
1000
1030
0000
,
1000
0100
1000
0020
0000
0100
0130
0000
,
0002
0000
0100
0103
0200
0000
1000
1300
,
2000
0000
0100
3100
0200
0000
0001
0301
,
0010
0010
1000
1000
0010
0010
0100
0100
,
0100
0010
0100
0010
0100
0010
0100
0010
0100
0010
0100
0010
0100
0010
0100
0010
,
0002
1000
2003
0010
3020
1000
2030
0010
,
3010
0000
0020
0000
0000
0000
0130
0000
0000
0001
0100
0001
0100
0001
0100
0001
,
0200
0010
0320
0100
0230
0001
0302
1000
,
2003
0100
0010
0002
3003
1001
1001
0000
,
2000
0200
3002
0320
,
1003
1000
0030
1010
0000
0110
0110
0001
,
0000
0001
0010
1000
0010
0000
0001
0001
,
0100
0100
0010
0010
0110
0000
0LL0
0000
,
2000
0001
3002
0010
0023
0001
0032
0010
,
0013
0000
0020
0000
0000
0000
0130
0000
0000
1000
0100
1000
0100
1000
0100
1000
,
0200
0010
0320
0100
0230
1000
2300
0001
,
3002
0100
0010
2000
3003
1001
1001
0000
,
0002
0200
2003
0320
,
3001
0001
0030
0011
0000
0110
0110
1000
,
0000
1000
0010
0001
0010
0000
1000
1000
,
0100
0100
0010
0010
0110
0000
0LL0
0000
,
1001
0000
0001
0000
0010
0000
0001
0000
0200
0001
0000
0001
0300
0000
0010
0000
,
0010
0000
1000
0000
0010
0000
0001
0000
0110
0000
0000
1001
0000
0000
0000
0000
,
0001
0000
0010
0000
0100
0000
1000
0000
0010
0100
0000
0001
0000
0000
1000
0000
,
1000
0000
0010
0000
0100
0000
0010
0000
0020
0000
0000
0002
0000
0000
0033
0000
,
0110
0000
1000
0000
0010
0000
1000
0000
0020
1000
0000
1000
0030
0000
0010
0000
,
0010
0000
0001
0000
0010
0000
1000
0000
1001
0000
0000
0110
0000
0000
0000
0000
,
1000
0000
1000
0000
0010
0000
0010
0000
0100
0000
0100
0001
0000
0000
0001
0000
,
0100
0000
0100
0000
0001
0000
0001
0010
0000
0000
0000
0000
1001
0000
0000
0000
,
0100
0110
0000
1100
0000
0011
1001
0000
,
0100
0110
0000
0101
0000
1100
1001
0000
,
0200
0000
0010
0310
2000
0000
3010
0000
,
0002
0000
0020
0033
,
0100
1100
0000
0101
0000
0110
0101
0000
,
1000
1100
0000
1010
0000
0110
1010
0000
,
1000
0100
1000
0100
0001
0100
0001
0100
,
1000
0100
1000
0100
0001
0100
1000
0100
,
0100
0100
0001
0001
0100
0100
0010
0010
,
0010
0100
0010
0100
0010
0100
0010
0100
0010
0100
0010
0100
0010
0100
0010
0100
,
0010
1001
1001
0000
0020
0100
0230
0010
,
0320
1000
2030
0001
3002
0010
0100
2000
,
3003
1001
1001
0000
0002
0000
0020
0000
,
2003
0000
0230
0000
3001
0001
0300
0101
,
0000
0110
0110
1000
0000
1000
0100
0001
,
0100
0000
1000
1000
0010
0010
0100
0100
,
0110
0000
0LL0
0000
1001
0001
0100
0001
,
0020
0001
0000
0001
0030
0000
0100
0000
0100
0000
1000
0000
0100
0000
0001
0000
,
0110
0000
0000
1001
0000
0000
0000
0000
0001
0000
0100
0000
0010
0000
1000
0000
,
0100
0010
0000
0001
0000
0000
1000
0000
1000
0000
0100
0000
0010
0000
0100
0000
,
0200
0000
0000
0002
0000
0000
0303
0000
0110
0000
1000
0000
0100
0000
1000
0000
,
0200
1000
0000
1000
0300
0000
0100
0000
0100
0000
0001
0000
0100
0000
1000
0000
,
1001
0000
0000
0110
0000
0000
0000
0000
1000
0000
1000
0000
0100
0000
0100
0000
,
0010
0000
0010
0001
0000
0000
0001
0000
0010
0000
0010
0000
0001
0000
0001
0100
,
0000
1001
0000
0000
;

//---------------dance-single - djfipu----------------
#NOTEDATA:;
#CHARTNAME:;
#STEPSTYPE:dance-single;
#DESCRIPTION:djfipu;
#CHARTSTYLE:;
#DIFFICULTY:Challenge;
#METER:16;
#RADARVALUES:0.801080,0.928536,0.599986,0.269225,0.599986,729.000000,651.000000,78.000000,35.000000,99.000000,8.000000,4.000000,0.000000,2.000000,0.801080,0.928536,0.599986,0.269225,0.599986,729.000000,651.000000,78.000000,35.000000,99.000000,8.000000,4.000000,0.000000,2.000000;
#CREDIT:djfipu;
#NOTES:
0000
0000
0000
0000
,
M0M0
0M0M
00MM
0MMM
,
M000
0M00
0000
00M0
0000
00M0
000M
0M00
,
0MM0
0MMM
MMM0
0MMM
,
MM00
0MM0
0000
0MMM
0000
MMMM
0M00
00M0
,
M000
0M00
00M0
000M
,
0MM0
0MM0
0000
M00M
0000
M000
0M00
0M00
,
00M0
000M
00M0
000M
M000
0M00
M000
0M00
,
M000
M000
000M
000M
00M0
0000
1001
0000
,
1100
0000
1000
0000
0010
0000
0010
0000
1000
0010
0000
0010
0000
0100
1000
0100
,
0001
0000
0001
0000
0010
0000
0010
0000
0210
0000
0000
0010
0300
0000
0000
0000
,
0011
0000
0001
0000
0010
0000
0010
0000
0100
1000
0000
1000
0000
0010
0001
0010
,
0100
0000
0100
0000
0010
0000
0010
0000
2001
0000
0000
0002
0000
0000
3003
0000
,
0010
0000
0010
0000
1000
0000
1000
0000
0100
1000
0000
0010
0000
1000
0100
0010
,
0100
0000
0010
0000
0100
0000
0010
0000
0012
0000
0000
0020
0000
0000
0033
0000
,
1000
0000
1000
0000
0010
0000
0010
0000
0100
0000
0100
0001
0000
0000
0001
0000
,
0010
0000
0100
0000
1000
0000
0010
2000
0000
0000
0000
0000
3001
0000
0000
0000
,
1000
0001
1000
0010
0001
1000
0100
0001
,
0001
0010
0100
0010
0001
1000
0100
1000
,
0022
0000
0133
0100
2200
0000
0001
3301
,
0001
0100
1000
0100
0201
0000
0301
0000
,
0100
0010
0100
0010
1000
0010
0100
0001
,
0010
0100
0010
1000
0010
0001
0010
0001
,
2200
0000
3310
0010
0022
0000
1000
1033
,
0100
0010
0100
0100
0010
0100
0010
0010
,
0110
0100
0101
0100
MMMM
0110
0110
MMMM
,
0011
0010
0110
0010
MMMM
1001
1001
MMMM
,
0012
0000
0103
0001
2100
0000
3001
0000
,
0004
0000
4003
0000
,
3101
0001
1001
0001
MMMM
1001
1001
MMMM
,
1001
1000
1010
1000
MMMM
0110
0110
MMMM
,
2001
0000
0100
3100
1002
0000
0100
0103
,
2001
0000
0100
3100
1002
0000
0100
0103
,
0001
0001
0001
0001
0001
0001
0001
0001
,
0001
0100
0001
0100
0010
0100
0010
0100
1000
0100
1000
0100
0010
0100
0010
0100
,
0010
1000
0001
0000
0010
0001
0010
0000
0001
0100
0010
0000
1000
0010
1000
0000
,
0010
1000
0010
0000
1000
0100
1000
0000
0001
0100
0001
0010
0100
1000
0010
1000
,
0010
0100
0001
0000
0001
0100
0010
0000
0100
0010
1000
0000
0010
1000
0100
0000
,
1000
0010
0100
0000
0010
0100
0010
0000
1001
0000
1100
0000
1100
0000
0001
0010
,
0001
0010
0001
0000
0100
1000
0100
0000
0010
0100
0001
0000
0010
0100
1000
0000
,
0100
0010
0001
0000
0100
0010
1000
0000
0100
0000
1001
0000
1001
0000
0001
1000
,
0001
0100
0010
0000
1000
0100
1000
0000
0100
0010
0100
0000
1000
0100
0010
0000
,
0001
0010
0000
0010
0001
0000
0100
0010
0000
0010
0100
0000
1001
0000
1001
0000
,
0100
1000
0010
0000
0100
0010
0100
0000
0001
0010
0001
0000
0010
0100
1000
0000
,
0001
0100
0010
0000
0100
0001
0100
0000
0001
0010
0100
1000
0100
0010
0001
1000
,
0100
0010
0001
0000
0010
0001
1000
0000
0001
1000
0001
0000
1000
0001
1000
0000
,
0010
1000
0010
0000
0010
0100
0010
0000
1001
0000
1100
0000
1100
0000
0001
0100
,
0010
0100
0001
0000
0100
0010
1000
0000
0001
0010
0100
0000
0010
0100
0010
0000
,
0100
0010
0001
0000
0010
0001
1000
0000
0100
0000
1001
0000
1001
0000
1000
0100
,
1000
0010
0100
0000
0001
0010
0100
0000
1000
0100
1000
0000
0010
1000
0001
0000
,
0100
0001
0000
0100
1000
0000
0100
0001
0000
0010
0100
0000
1001
0000
1001
0000
,
0101
0000
0001
0000
0010
0000
0010
0000
0001
0010
0000
0010
0000
0100
0001
0100
,
1000
0000
1000
0000
0010
0000
0010
0000
0210
0000
0000
0010
0300
0000
0000
0000
,
1010
0000
1000
0000
0010
0000
0010
0000
0100
0001
0000
0001
0000
0010
1000
0010
,
0100
0000
0100
0000
0010
0000
0010
0000
1002
0000
0000
2000
0000
0000
3003
0000
,
0010
0000
0010
0000
0001
0000
0001
0000
0100
0001
0000
0010
0000
0001
0100
0010
,
0100
0000
0010
0000
0100
0000
0010
0000
2010
0000
0000
0020
0000
0000
3030
0000
,
0001
0000
0001
0000
0010
0000
0010
0000
0100
0000
0100
1000
0000
0000
1000
0000
,
0010
0000
0100
0000
0001
0000
0010
0002
0000
0000
0000
0000
1003
0000
0000
0000
,
1100
0010
0001
1000
0110
1001
1001
0100
,
0011
0100
1000
0010
0110
1010
1010
0100
,
0020
0000
0100
0130
0200
0000
0310
0000
,
0040
0000
0430
0000
,
1301
0100
0001
0010
0011
0110
0110
0010
,
1100
1000
0100
0001
0101
0110
0110
1000
,
0100
1000
0010
0100
0001
0010
0001
0100
,
0001
0010
0100
1000
0001
0100
0010
0100
,
1000
1000
1000
1000
1000
1000
1000
1000
,
1000
0100
1000
0100
1000
0010
1000
0010
1000
0001
1000
0001
0100
0010
0100
0010
,
0100
0000
0110
0000
1001
0000
0000
0000
0010
0100
1000
0000
0100
1000
0001
0000
,
1000
0001
1000
0000
0001
1000
0001
0000
0100
0001
0100
0000
0100
0010
0100
0000
,
0001
0100
0010
1000
0010
0100
0001
1000
0010
0100
0001
0000
0010
0100
0001
0000
,
1000
0100
0010
0000
0100
0010
0100
0000
0010
0100
1000
0000
0100
1000
0001
0000
,
0010
0000
1001
0000
1001
0000
0001
0010
0001
0100
0010
0000
1000
0100
0010
0000
,
0001
0010
0001
0000
0100
0001
1000
0000
0010
1000
0000
0010
0001
0000
0010
1000
,
0000
0100
0010
0000
1001
0000
1001
0000
1010
0000
1000
0000
0100
0000
0100
0000
,
1000
0100
0000
0100
0000
0010
1000
0010
0001
0000
0001
0000
0100
0000
0100
0000
,
0120
0000
0000
0100
0030
0000
0000
0000
0101
0000
0001
0000
0100
0000
0100
0000
,
0010
1000
0000
1000
0000
0100
0001
0100
0010
0000
0010
0000
0100
0000
0100
0000
,
2001
0000
0000
0002
0000
0000
3003
0000
0100
0000
0100
0000
1000
0000
1000
0000
,
0010
1000
0000
0100
0000
1000
0010
0100
0010
0000
0100
0000
0010
0000
0100
0000
,
0102
0000
0000
0200
0000
0000
0303
0000
1000
0000
1000
0000
0100
0000
0100
0000
,
0010
0000
0010
0001
0000
0000
0001
0000
0100
0000
0010
0000
1000
0000
0001
2000
,
0000
0000
0000
3000
M00M
0000
0000
0000
0000
0000
0000
0000
0000
0000
0000
0000
;
