#TITLE:I Sawed The Demons;
#SUBTITLE:(feat. Adrian de Leon);
#ARTIST:Andrew Hulshult;
#TITLETRANSLIT:;
#SUBTITLETRANSLIT:;
#ARTISTTRANSLIT:;
#GENRE:;
#CREDIT:;
#BANNER:I Sawed The Demons [Ben Fears].png;
#BACKGROUND:I Sawed The Demons [Ben Fears]-bg.png;
#LYRICSPATH:;
#CDTITLE:;
#MUSIC:I Sawed The Demons [Ben Fears].ogg;
#OFFSET:-0.050000;
#SAMPLESTART:58.620041;
#SAMPLELENGTH:13.994001;
#SELECTABLE:YES;
#BPMS:0.000000=180.000000
,144.000000=90.000000
,160.000000=180.000000
;
#STOPS:
;
#BGCHANGES:0.000=I Sawed The Demons [Ben Fears].avi=1.000=0=0=0=StretchNoLoop====,
99999=-nosongbg-=1.000=0=0=0 // don't automatically add -songbackground-
;
#KEYSOUNDS:;
#ATTACKS:;

//---------------dance-single - ----------------
#NOTES:
     dance-single:
     :
     Hard:
     14:
     0.650321,0.756394,0.171592,0.343185,0.211967,451.000000,434.000000,17.000000,34.000000,0.000000,0.000000,0.650321,0.756394,0.171592,0.343185,0.211967,451.000000,434.000000,17.000000,34.000000,0.000000,0.000000:
// measure 0
0000
0000
0000
0000
,  // measure 1
0000
0000
0000
0000
,  // measure 2
0000
0000
0000
0000
,  // measure 3
0000
0000
0000
0000
,  // measure 4
0001
1000
0000
0000
0000
0000
0000
0000
,  // measure 5
0000
0000
0000
0000
,  // measure 6
1000
0001
0000
0000
0000
0000
0000
0000
,  // measure 7
0100
0001
0100
1000
0100
0010
0110
0000
,  // measure 8
1001
0000
0002
0000
1003
0010
0100
0001
,  // measure 9
2000
0000
3010
0200
0000
0301
0100
0010
,  // measure 10
1000
0001
0200
0000
0310
1000
0001
0010
,  // measure 11
0002
0000
1003
0200
0000
1300
0010
0100
,  // measure 12
0001
1000
0200
0000
0310
0002
0000
1003
,  // measure 13
0020
0000
0130
0002
0000
1003
0100
0100
,  // measure 14
1000
0010
0200
0000
0301
2000
0000
3001
,  // measure 15
0200
0000
0310
1000
0010
0100
0101
0000
,  // measure 16
1001
0000
1000
0100
0001
0100
1000
0001
,  // measure 17
1000
0000
0001
0100
1000
0100
0010
1000
,  // measure 18
0001
0000
1000
0100
0010
0001
0100
0010
,  // measure 19
1000
0001
1000
0010
0100
0001
1000
0001
,  // measure 20
1001
0000
0001
0100
0100
0010
0100
0001
,  // measure 21
1000
0000
1000
0010
0010
1000
0100
0010
,  // measure 22
0001
0000
0010
0100
0100
0010
0001
1000
,  // measure 23
0010
0100
0001
0101
0000
1000
0100
0010
,  // measure 24
0001
1000
0010
0010
1000
0001
0001
1000
,  // measure 25
0100
0100
1000
0010
0010
1000
0100
0010
,  // measure 26
0001
1000
0001
0001
0100
0010
0010
0100
,  // measure 27
0001
0001
1000
0200
0000
1300
0010
0100
,  // measure 28
0001
0000
1010
0000
0001
1000
0010
0100
,  // measure 29
0101
0000
1000
0010
0100
0001
0010
0100
,  // measure 30
1000
0000
0011
0000
1000
0010
0100
0001
,  // measure 31
1001
0000
1000
0010
0100
0001
0010
0000
,  // measure 32
0101
0000
0001
0100
0001
0100
1000
0000
,  // measure 33
1010
0000
1000
0010
1000
0010
0001
0000
,  // measure 34
0101
0000
2000
0100
3000
0002
0010
0003
,  // measure 35
2000
0010
3000
0002
0200
0003
0320
0000
,  // measure 36
1030
1000
0000
0000
0000
0000
0000
0000
0000
0000
0000
0000
0000
0000
0000
0000
,  // measure 37
0001
0001
0000
0000
0000
0000
0000
0000
0000
0000
0000
0000
0000
0000
0000
0000
,  // measure 38
1000
1000
0000
0000
0000
0000
0000
0000
0000
0000
0000
0000
0000
0000
0000
0000
,  // measure 39
0001
1000
0020
0000
0000
0030
0000
0000
0100
0001
0100
1000
0100
0010
0110
0000
,  // measure 40
1001
0000
1000
0100
0001
0100
0010
0001
,  // measure 41
0100
1000
0100
0020
0000
1030
0001
1000
,  // measure 42
0001
0000
1000
0100
0010
0001
1000
0020
,  // measure 43
0000
0100
0100
0130
0010
0100
0001
1000
,  // measure 44
0001
0000
1000
0100
0001
0100
1000
0001
,  // measure 45
0100
1000
0100
0020
0000
1030
0010
0100
,  // measure 46
0001
0000
1000
0010
0100
0001
0010
0100
,  // measure 47
1000
0100
1000
0000
0001
0100
0001
0000
1000
0000
0010
0000
0100
0000
0001
0000
,  // measure 48
1000
0000
0001
0100
0010
2000
0000
3001
,  // measure 49
1000
0100
1000
0000
0010
0000
0100
0000
0001
0100
0001
0000
1000
0000
0010
0000
,  // measure 50
0100
0000
0001
0100
0010
1000
0100
0010
,  // measure 51
0001
1000
0010
2000
0000
3001
0010
0100
,  // measure 52
1000
0000
0000
0000
0102
0000
0000
0000
1003
0000
0010
0100
0010
0000
1000
0000
,  // measure 53
0100
0000
0010
0000
0001
0000
1000
0000
0001
0100
0001
0000
1000
0000
0000
0000
,  // measure 54
0001
0000
1000
0100
1000
0000
0100
0010
0100
0000
0010
0001
0010
0000
0001
1000
,  // measure 55
0001
1000
0010
0100
0001
0010
0100
1000
,  // measure 56
0001
0000
0100
0000
0001
0000
0100
0000
0001
0000
0100
0000
0010
0000
0000
1000
0000
0000
0000
0000
0000
0000
0000
0000
,  // measure 57
1000
0000
0100
0000
1000
0000
0100
0000
1000
0000
0100
0000
0010
0000
0000
0001
0000
0000
1000
0000
0000
1000
0000
0000
,  // measure 58
0001
0000
0100
0000
0010
0000
0100
0000
0001
0000
0100
0000
0010
0000
0000
1000
0000
0000
0000
0000
0000
0000
0000
0000
,  // measure 59
1000
0000
0010
0000
0100
0000
0010
0000
1000
0000
0010
0000
0100
0000
0000
0001
0000
0000
1000
0000
0000
1000
0000
0000
,  // measure 60
0001
0000
0000
0000
1000
0100
1000
0000
0001
0000
1000
0000
0000
0000
0001
0000
,  // measure 61
0100
0001
0100
0000
0001
0000
1000
0000
0000
0000
0001
0000
1000
0000
0010
0000
,  // measure 62
0100
0000
0001
0000
0010
0000
0100
0000
0010
0000
0001
0000
1000
0000
0010
0100
,  // measure 63
0010
1000
0100
0010
0001
1000
0020
0000
,  // measure 64
0130
0000
0001
0100
0001
0000
0100
0010
0100
0000
0010
1000
0010
0000
0000
0000
,  // measure 65
1000
0000
0100
1000
0100
0000
0010
0100
0010
0000
0001
0010
0001
0000
0000
0000
,  // measure 66
0011
0000
2000
0010
3000
0002
0010
0003
,  // measure 67
2000
0100
3000
0002
0200
0003
0320
0000
,  // measure 68
1030
0001
0000
0000
0000
0000
0000
0000
;

//---------------dance-single - ----------------
#NOTES:
     dance-single:
     :
     Medium:
     10:
     0.429702,0.550105,0.272529,0.090843,0.000000,298.000000,271.000000,27.000000,9.000000,0.000000,0.000000,0.429702,0.550105,0.272529,0.090843,0.000000,298.000000,271.000000,27.000000,9.000000,0.000000,0.000000:
0000
0000
0000
0000
,
0000
0000
0000
0000
,
0000
0000
0000
0000
,
0000
0000
0000
0000
,
1000
0001
0000
0000
0000
0000
0000
0000
,
0000
0000
0000
0000
,
0001
1000
0000
0000
0000
0000
0000
0000
,
0010
0010
0010
1001
,
1000
0100
0010
0001
,
0100
0000
0010
0000
1000
0000
0001
0100
,
0001
0100
0010
1000
,
0001
0000
0010
0000
0100
0000
1000
0100
,
1000
0100
1000
0001
,
0100
0000
0010
0000
1000
0000
0001
1000
,
0001
1000
0001
0100
,
0010
1000
0100
0000
,
1000
0100
1000
0000
0000
0001
0000
0000
,
1000
0000
0000
0001
0000
0000
1000
0000
,
0001
0100
0001
0000
0000
1000
0000
0000
,
0001
0000
0000
1000
0000
0000
0001
0000
,
1000
0010
0100
0000
0000
0010
0000
0000
,
0100
0000
0000
0001
0000
0000
1000
0000
,
0001
0010
0100
0000
0000
0010
0000
0000
,
0100
0000
0000
1000
0000
0000
0001
0000
,
1000
0000
0010
0000
0100
0001
0100
0000
,
0010
0000
1000
0100
1000
0000
0001
0000
,
0010
0000
0001
0000
1000
0100
1000
0000
,
0010
0000
1000
0010
1000
0000
0001
0000
,
1000
0000
0001
0000
0100
0001
0100
0000
,
0010
0000
1000
0010
1000
0000
0010
0000
,
0100
0000
0001
0000
1000
0100
1000
0000
,
0001
0000
0010
0100
0010
0000
0001
0000
,
2002
3003
0010
0100
,
2002
3003
0010
0100
,
0101
0000
0000
1100
0000
0000
1010
0000
,
0000
0011
0000
0000
1001
0000
0110
0000
,
2002
3003
0000
0000
,
0001
0000
0000
0000
,
1000
0000
0000
0000
,
0110
0000
0000
0000
0010
0010
0010
0110
,
1001
0000
0001
0100
0001
0000
1000
0000
,
0010
1000
0010
2000
0000
0000
3001
0100
,
0001
0000
1000
0100
1000
0000
0001
0010
,
0000
0010
0000
0010
0001
0000
1000
0000
,
0001
0000
1000
0010
1000
0000
0010
0000
,
0100
0001
0100
0002
0000
0000
1003
0000
,
0001
0000
1000
0100
1000
0000
0001
0000
,
0010
0010
0100
0100
,
0110
0000
1001
0000
0001
0100
0001
0000
,
1000
0100
1000
0000
0001
0000
0100
0000
,
0010
0000
1000
0000
0010
1000
0010
0000
,
1000
0001
1000
0000
0001
0000
1000
0000
,
0010
0200
0301
1000
,
0010
0100
0010
0000
1000
0000
0001
0000
,
1000
0100
1000
0000
0001
0010
0001
0000
,
1000
0010
1000
0000
0001
0100
0001
0000
,
1000
0100
1000
0100
0010
0000
0000
0000
,
0001
0100
0001
0100
0010
0000
0000
0000
,
1000
0010
1000
0010
0100
0000
0000
0000
,
0001
1000
0001
1000
0100
0000
1001
0000
,
0101
0000
1000
0100
0010
0001
0000
0000
,
1000
0100
0010
0001
0000
0000
1000
0000
,
0010
0000
1000
0001
1000
0001
0000
0000
,
1000
0010
0100
0000
0001
0010
0100
0000
,
0110
0000
0011
0000
1000
0001
0100
0000
,
0101
0000
1010
0000
0010
1000
0100
0000
,
1100
0000
0000
0011
0000
0000
1010
0000
,
0000
0101
0000
0000
0110
0000
1001
0000
,
0001
1000
0000
0000
0000
0000
0000
0000
;

//---------------dance-single - ----------------
#NOTES:
     dance-single:
     :
     Easy:
     6:
     0.314346,0.446960,0.131218,0.111030,0.000000,218.000000,205.000000,13.000000,11.000000,0.000000,0.000000,0.314346,0.446960,0.131218,0.111030,0.000000,218.000000,205.000000,13.000000,11.000000,0.000000,0.000000:
0000
0000
0000
0000
,
0000
0000
0000
0000
,
0000
0000
0000
0000
,
0000
0000
0000
0000
,
1000
1000
0000
0000
0000
0000
0000
0000
,
0000
0000
0000
0000
,
0001
0001
0000
0000
0000
0000
0000
0000
,
0100
0100
0100
0000
,
0001
0100
0000
0010
,
0000
1000
0000
0010
,
1000
0100
0000
1000
,
0000
0001
0000
1000
,
0100
0010
0000
0001
,
0000
1000
0000
0010
,
1000
0001
0000
0100
,
0000
0001
0000
1000
,
0001
0100
0010
0100
,
0001
0000
1001
0000
,
1000
0100
0010
0100
,
1000
0000
1001
0000
,
1000
0010
0100
0010
,
1000
0000
1001
0000
,
0001
0010
0100
0010
,
0001
0000
1001
0000
,
0001
0000
0100
0000
0000
0100
0000
0000
,
0010
0000
0000
0010
0000
0000
1000
0000
,
0001
0000
1000
0000
0000
1000
0000
0000
,
0001
0000
0000
0001
0000
0000
1000
0000
,
0100
0000
0010
0000
0000
0010
0000
0000
,
0001
0000
0000
0001
0000
0000
0010
0000
,
0001
0000
1000
0000
0000
1000
0000
0000
,
0010
0000
0000
0010
0000
0000
0100
0000
,
0002
0003
0100
0010
,
2000
3000
0010
1000
,
1010
0000
0000
0001
0000
0000
0101
0000
,
0000
1000
0000
0000
1001
0000
0110
0000
,
1001
0000
0000
0000
,
0001
0000
0000
0000
,
1000
0000
0000
0000
,
0010
0000
0000
0000
0100
0100
0100
0000
,
0001
1000
0010
0100
,
0001
0000
1000
0000
0010
0000
1000
0100
,
1000
0010
1000
0001
,
0100
0000
0100
0000
0100
0000
0001
1000
,
0001
1000
0010
0100
,
0001
0000
0010
0000
0100
0000
1000
0100
,
1000
0010
1000
0001
,
0200
0320
2030
3000
,
0001
0100
0010
1000
,
0001
0010
0100
0010
,
0001
1000
0100
0010
,
0001
1000
0010
1001
,
0001
0100
0010
1000
,
0001
0010
0001
1000
,
0001
0100
0001
0000
0100
0000
0010
0000
,
1000
0100
1000
0000
0010
0000
0100
0000
,
0002
0000
0103
0000
,
2000
0000
3100
0000
,
0002
0000
0013
0000
,
2000
3000
1001
0110
,
1001
0001
1000
0010
,
0100
0001
0100
0000
0001
0000
0100
0000
,
0010
1000
0001
0010
,
0100
1000
0100
0000
1000
0000
0010
0000
,
0200
0000
0300
0000
0001
1000
0001
0000
,
0200
0000
0300
0000
0001
1000
0001
0000
,
1000
0000
0000
0100
0000
0000
0001
0000
,
0000
0100
0000
0000
1000
0000
0001
0000
,
1000
0001
0000
0000
0000
0000
0000
0000
;

//---------------dance-single - ----------------
#NOTES:
     dance-single:
     :
     Beginner:
     3:
     0.134102,0.205911,0.030281,0.000000,0.000000,93.000000,90.000000,3.000000,0.000000,0.000000,0.000000,0.134102,0.205911,0.030281,0.000000,0.000000,93.000000,90.000000,3.000000,0.000000,0.000000,0.000000:
0000
0000
0000
0000
,
0000
0000
0000
0000
,
0000
0000
0000
0000
,
0000
0000
0000
0000
,
1000
0000
0000
0000
,
0000
0000
0000
0000
,
0001
0000
0000
0000
,
0000
0000
0000
0000
,
0001
0000
0001
0000
,
0001
0000
0000
0000
,
0100
0000
0100
0000
,
0100
0000
0000
0000
,
0010
0000
0010
0000
,
0010
0000
0000
0000
,
1000
0000
1000
0000
,
1000
0000
0000
0000
,
0000
0001
0000
0001
,
0000
0000
0000
0000
,
0000
1000
0000
1000
,
0000
0000
0000
0000
,
0000
0010
0000
0010
,
0000
0000
0000
0000
,
0000
0100
0000
0100
,
0000
0000
0000
0000
,
1001
0000
0000
0000
,
1000
0000
1000
0000
,
0010
0000
0000
0000
,
0010
0000
0010
0000
,
0100
0000
0000
0000
,
0100
0000
0100
0000
,
0001
0000
0000
0000
,
0001
0000
0001
0000
,
1000
0000
0000
0001
,
0001
0000
0000
1000
,
1000
0000
0000
0000
,
0001
0000
0000
0000
,
0100
0000
0000
0000
,
0010
0000
0000
0000
,
1000
0000
0000
0000
,
0001
0000
0000
0000
,
1000
0000
0000
0000
,
0010
0000
0010
0000
,
1000
0000
0000
0000
,
0001
0001
0000
0001
,
0001
0000
0000
0000
,
1000
0000
1000
0000
,
0100
0000
0000
0000
,
1000
1000
0000
1000
,
1000
0000
0000
0000
,
0010
0000
0010
0000
,
1000
0000
0000
0000
,
0001
0000
0001
0000
,
0100
0000
0000
0000
,
0001
0000
0000
0000
,
1000
0000
1000
0000
,
1000
0000
0000
0000
,
0001
0001
0000
0000
,
0001
0001
0000
0000
,
1000
1000
0000
0000
,
1000
1000
0000
0000
,
1001
0000
0000
0000
,
1000
0000
1000
0000
,
0010
0000
0000
0000
,
0010
0000
0000
0000
,
1000
0000
0000
0001
,
0001
0000
0000
1000
,
1000
0000
0000
0000
,
0010
0000
0010
0000
,
1001
0000
0000
0000
;
