#VERSION:0.83;
#TITLE:I Put A Spell On You;
#SUBTITLE:;
#ARTIST:Bette Midler;
#TITLETRANSLIT:;
#SUBTITLETRANSLIT:;
#ARTISTTRANSLIT:;
#GENRE:;
#ORIGIN:;
#CREDIT:;
#BANNER:I Put A Spell On You [Nowhere Dance Club].png;
#BACKGROUND:I Put A Spell On You [Nowhere Dance Club]-bg.png;
#PREVIEWVID:;
#JACKET:I Put A Spell On You [Nowhere Dance Club]-jacket.png;
#CDIMAGE:;
#DISCIMAGE:;
#LYRICSPATH:;
#CDTITLE:;
#MUSIC:I Put A Spell On You [Nowhere Dance Club].mp3;
#OFFSET:-0.000000;
#SAMPLESTART:58.280880;
#SAMPLELENGTH:12.000000;
#SELECTABLE:YES;
#BPMS:0.000=120.000,
36.625=121.000,
39.333=120.000,
48.979=150.000,
118.604=151.360;
#STOPS:;
#DELAYS:;
#WARPS:;
#TIMESIGNATURES:0.000=4=4;
#TICKCOUNTS:0.000=4;
#COMBOS:0.000=1;
#SPEEDS:0.000=1.000=0.000=0;
#SCROLLS:0.000=1.000;
#FAKES:;
#LABELS:0.000=Song Start;
#BGCHANGES:2.000=I Put A Spell On You [Nowhere Dance Club].avi=1.000=0=0=1=====,
99999=-nosongbg-=1.000=0=0=0 // don't automatically add -songbackground-
;
#KEYSOUNDS:;
#ATTACKS:
;

//---------------dance-single - NOWHERE DANCE CLUB----------------
#NOTEDATA:;
#CHARTNAME:;
#STEPSTYPE:dance-single;
#DESCRIPTION:NOWHERE DANCE CLUB;
#CHARTSTYLE:;
#DIFFICULTY:Challenge;
#METER:8;
#RADARVALUES:0.283648,0.415408,0.239501,0.355388,0.274267,257.000000,226.000000,31.000000,46.000000,4.000000,0.000000,0.000000,0.000000,0.000000,0.283648,0.415408,0.239501,0.355388,0.274267,257.000000,226.000000,31.000000,46.000000,4.000000,0.000000,0.000000,0.000000,0.000000;
#CREDIT:Nowhere Dance Club;
#NOTES:
0000
0000
0000
0000
,
0000
0000
0000
0000
,
0000
0000
0000
0000
,
0000
0000
0000
0000
,
1000
0000
0000
0000
0000
0000
0000
0000
0000
0000
0000
0000
0000
0000
0000
0000
0000
0000
0000
0000
0000
0000
0000
0000
0000
0000
0000
0000
0000
0000
0000
0000
0000
0000
0000
0000
0000
0000
0000
0000
0000
0000
0000
0000
0000
0000
0000
0000
1000
0000
0000
0000
0000
0000
0000
0000
0000
0000
0000
0000
0000
0000
0000
0000
0000
0000
0000
0000
0000
0000
0000
0000
0000
0000
0000
0000
0000
0000
0000
0000
0000
0000
0000
0000
0000
0000
0000
0000
0000
0000
0000
0000
0000
0000
0000
0000
0200
0000
0000
0000
0000
0000
0000
0000
0000
0000
0000
0000
0000
0000
0000
0000
0000
0000
0000
0000
0000
0000
0000
0000
0000
0000
0000
0000
0000
0000
0000
0000
0000
0000
0000
0000
0000
0000
0000
0000
0000
0000
0000
0000
0000
0000
1000
0000
1000
0000
0000
0000
0000
0000
0000
0000
0000
0000
0000
0000
0000
0000
0000
0000
0000
0000
0000
0000
0000
0000
0000
0000
1300
0000
0000
0000
0000
0000
0000
0000
0000
0000
0000
0000
0000
0000
0000
0000
0000
0000
0000
0000
0000
0000
0000
0000
,
0000
0000
0000
0000
,
1000
0000
0001
0000
0000
0000
0000
0000
0100
0000
0000
0001
0000
0000
0000
0000
,
0000
0000
0000
0000
,
0000
1000
0001
0000
0020
0000
0000
0000
,
0000
0000
0000
0030
0000
0000
0000
0000
,
0000
0001
0200
0000
,
0000
0000
0000
0000
,
0000
0300
0000
0000
,
0000
0000
0000
0000
1000
0000
0000
0000
1000
0000
0000
0000
0000
0000
0000
1000
,
0100
0000
0000
0000
0000
2200
0000
0000
,
3300
0000
0000
0000
0000
0100
0010
0000
0000
0000
0000
0000
0000
0000
0000
0000
,
0000
0000
0000
0000
0100
0000
0000
0000
0000
0001
0010
0000
0000
0000
0000
0000
,
0000
1000
0000
0000
0002
0000
0000
0000
0000
0000
0203
0000
0000
0000
0000
0000
,
0000
0000
0000
0301
0000
0000
0000
0000
,
0000
0000
1000
0001
,
2000
0000
3000
0100
0000
0000
0000
0000
,
0000
0000
0000
0000
0000
0000
0000
0000
0000
0000
2002
0000
3003
0000
0000
0202
,
0000
0000
0303
0000
0022
0000
0033
0000
0000
1001
0000
0000
0000
0000
0000
0000
,
0000
0000
2000
0000
0000
0000
0000
0000
3000
0000
0000
0002
0000
0000
0000
0000
,
0000
0000
0003
0000
0000
0000
0000
0000
0020
0000
0000
0000
0000
0030
0000
0000
,
0000
0000
0000
0000
0000
0010
0010
0000
,
0001
0001
0000
0011
0000
0001
0001
0000
,
0100
0100
0000
0101
0000
0100
0100
0000
,
0010
0010
0000
0110
0000
0001
1000
0000
,
0100
0010
0000
0100
0000
1001
0000
1000
,
0000
0001
1000
0000
0100
1000
0000
0001
,
0000
1000
0010
0000
0001
1000
0000
0001
,
0000
0010
0022
0000
,
0000
0000
0033
0000
0000
0000
1000
0000
0000
0000
0000
0200
0000
0000
0000
0000
,
0000
1300
0000
0000
0000
0000
0000
0000
0000
0001
0000
0200
0000
0000
0000
0000
,
0300
0001
0000
1000
0000
0000
0000
0000
0000
0000
0000
1100
0000
0000
0000
0000
,
0000
0101
0000
0000
0000
0000
0000
1100
0000
0000
0000
0000
0000
0000
0000
0020
,
0000
0002
0000
0000
0033
0000
0000
0000
0000
0000
0000
0000
0000
0101
0000
0000
,
0000
0000
0000
1000
0000
0000
0000
0000
0000
1000
0000
0200
0000
0000
0000
0000
,
0000
1300
0000
1000
0000
0000
0000
0000
0000
0000
0000
0100
0000
0000
0000
0001
,
0000
0100
0000
0000
0000
0000
0000
0000
0001
0000
1000
0000
0000
0000
0000
0000
,
0001
0010
0000
0000
0001
0000
0020
0000
,
0030
0001
0000
0000
0000
1000
0200
0000
,
0000
0300
0010
0000
0000
0000
0000
0000
0001
0000
0000
0000
0001
0000
0000
0000
,
0000
0100
0000
0002
0000
0000
0003
1000
,
0001
1000
0000
0001
1000
0000
0200
0000
,
1300
0000
0000
0001
0100
0001
0000
0000
,
0000
1000
0000
0000
0010
0000
0000
0000
2000
0000
0000
0000
0200
0000
0000
0000
,
0000
0000
0000
0000
3300
0000
0000
0000
0000
0000
0000
0000
0000
0001
0010
0001
,
0000
0000
0000
0000
0000
0000
0000
1000
0000
0001
0000
0000
0000
0000
0000
0000
,
0000
0001
0000
0100
0000
0000
0000
0001
0000
0100
0000
0000
0000
1000
0000
0100
,
0000
0000
0000
1000
0000
0100
0000
0000
0000
0000
0000
0000
0000
1000
0000
0100
,
0000
0000
0000
0001
0000
0000
0000
2000
0000
0000
0000
0200
0000
0000
0000
0000
,
0000
0000
3300
0000
0000
0010
0000
0000
0000
0000
0000
0000
0000
0000
1000
0000
,
0000
1100
0000
0110
0000
0011
0000
1100
,
0000
0010
0000
0001
1000
0000
0000
0000
,
0010
0000
1000
0001
1000
0000
0000
0000
,
0000
0011
0000
0000
0000
0000
1100
0000
0000
0000
0000
0000
0000
0000
MM11
0000
,
0000
0000
M11M
0000
0000
0000
0000
2000
,
0000
0000
0002
0000
3000
0000
0000
0003
0001
0000
0000
0000
0000
1000
0000
0100
,
0000
0000
0000
0100
0000
0000
0000
0000
0000
0000
0000
1000
0000
0000
0000
0000
,
0000
0000
0000
1001
0000
0000
0000
0000
0000
0001
0000
0000
0000
2200
0000
0000
,
0000
0000
3300
0000
0000
0001
0000
0000
0000
1000
0000
0200
0000
0000
0000
0000
,
0300
0000
0000
1000
0000
0000
0200
0000
0000
0000
1300
0000
0000
0000
0000
0000
,
0000
0020
0030
0000
,
0010
0000
0001
0000
1000
0100
0010
0000
,
0100
1000
0001
0010
0100
1000
0100
0000
,
0001
0000
1000
0000
0001
0010
0100
0000
,
0001
0010
0100
1000
0100
0010
0001
0000
,
2000
3001
0002
0013
,
0010
0001
0002
1003
,
0011
0010
0110
1000
,
1100
0001
1001
0000
,
2000
0000
0000
0000
0000
0000
0000
0000
3000
0000
0000
0001
0000
1000
0000
0200
,
0000
0000
0000
0000
0000
0000
0000
0300
0000
0000
0000
0010
0000
0001
0000
0000
,
0000
0010
0000
0000
0000
0110
0000
0000
0000
1000
0000
0100
0000
0000
0000
0220
,
0000
0000
0000
0000
0000
0000
0000
0000
0000
0330
0000
0000
0000
0110
0000
0000
;
