#VERSION:0.83;
#TITLE:He's a Depraved, Homicidal Killer and He Makes House Calls;
#SUBTITLE:;
#ARTIST:Cluster Buster;
#TITLETRANSLIT:;
#SUBTITLETRANSLIT:;
#ARTISTTRANSLIT:;
#GENRE:Electronic;
#ORIGIN:;
#CREDIT:Jenro Jupitel;
#BANNER:Hes a Depraved Homicidal Killer and He Makes House Calls [Jenro].png;
#BACKGROUND:Hes a Depraved Homicidal Killer and He Makes House Calls [Jenro]-bg.png;
#PREVIEWVID:;
#JACKET:Hes a Depraved Homicidal Killer and He Makes House Calls [Jenro]-jacket.png;
#CDIMAGE:;
#DISCIMAGE:;
#LYRICSPATH:;
#CDTITLE:cdtitle.png;
#MUSIC:Hes a Depraved Homicidal Killer and He Makes House Calls [Jenro].ogg;
#OFFSET:-0.102000;
#SAMPLESTART:111.260002;
#SAMPLELENGTH:10.105000;
#SELECTABLE:YES;
#BPMS:0.000=47.500,
24.000=95.000,
104.000=190.000;
#STOPS:;
#DELAYS:;
#WARPS:;
#TIMESIGNATURES:0.000=4=4;
#TICKCOUNTS:0.000=4;
#COMBOS:0.000=1;
#SPEEDS:116.000=0.900=0.000=0,
117.000=1.000=0.000=0,
118.000=0.800=0.000=0,
119.000=1.000=0.000=0,
120.000=0.900=0.000=0,
121.000=1.000=0.000=0,
122.000=0.800=0.000=0,
123.000=1.000=0.000=0,
124.000=0.900=0.000=0,
125.000=1.000=0.000=0,
126.000=0.800=0.000=0,
127.000=1.000=0.000=0,
128.000=0.900=0.000=0,
129.000=1.000=0.000=0,
130.000=0.800=0.000=0,
131.000=1.000=0.000=0,
132.000=0.900=0.000=0,
133.000=1.000=0.000=0,
134.000=0.800=0.000=0,
135.000=1.000=0.000=0,
140.000=0.500=0.000=0,
141.000=1.000=0.000=0,
142.000=0.500=0.000=0,
143.000=1.000=0.000=0,
148.000=0.500=0.000=0,
149.000=1.000=0.000=0,
150.000=0.500=0.000=0,
151.000=1.000=0.000=0,
152.000=0.500=0.000=0,
153.000=1.000=0.000=0,
154.000=0.500=0.000=0,
155.000=1.000=0.000=0,
156.000=0.500=0.000=0,
157.000=1.000=0.000=0,
158.000=0.500=0.000=0,
159.000=1.000=0.000=0,
180.000=0.900=0.000=0,
181.000=1.000=0.000=0,
182.000=0.800=0.000=0,
183.000=1.000=0.000=0,
184.000=0.900=0.000=0,
185.000=1.000=0.000=0,
186.000=0.800=0.000=0,
187.000=1.000=0.000=0,
188.000=0.900=0.000=0,
189.000=1.000=0.000=0,
190.000=0.800=0.000=0,
191.000=1.000=0.000=0,
192.000=0.900=0.000=0,
193.000=1.000=0.000=0,
194.000=0.800=0.000=0,
195.000=1.000=0.000=0,
196.000=0.900=0.000=0,
197.000=1.000=0.000=0,
198.000=0.800=0.000=0,
199.000=1.000=0.000=0,
204.000=0.500=0.000=0,
205.000=1.000=0.000=0,
206.000=0.500=0.000=0,
207.000=1.000=0.000=0,
212.000=0.500=0.000=0,
213.000=1.000=0.000=0,
214.000=0.500=0.000=0,
215.000=1.000=0.000=0,
216.000=0.500=0.000=0,
217.000=1.000=0.000=0,
218.000=0.500=0.000=0,
219.000=1.000=0.000=0,
220.000=0.500=0.000=0,
221.000=1.000=0.000=0,
222.000=0.500=0.000=0,
223.000=1.000=0.000=0,
232.000=0.200=0.000=0;
#SCROLLS:0.000=1.000;
#FAKES:;
#LABELS:0.000=Song Start;
#BGCHANGES:0.000=Hes a Depraved Homicidal Killer and He Makes House Calls [Jenro].avi=1.000=0=0=0=StretchNoLoop====,
99999=-nosongbg-=1.000=0=0=0 // don't automatically add -songbackground-
;
#KEYSOUNDS:;
#ATTACKS:
;

//---------------dance-single - Jenro Jupitel (2019)----------------
#NOTEDATA:;
#CHARTNAME:;
#STEPSTYPE:dance-single;
#DESCRIPTION:Jenro Jupitel (2019);
#CHARTSTYLE:;
#DIFFICULTY:Hard;
#METER:11;
#RADARVALUES:0.356710,0.570968,0.016267,0.284671,0.101668,307.000000,305.000000,2.000000,35.000000,0.000000,0.000000,8.000000,0.000000,0.000000,0.356710,0.570968,0.016267,0.284671,0.101668,307.000000,305.000000,2.000000,35.000000,0.000000,0.000000,8.000000,0.000000,0.000000;
#CREDIT:Jenro;
#NOTES:
0000
0000
0000
0000
,
0000
0000
0000
0000
,
0000
0000
0000
0000
,
0000
0000
0000
0000
,
0000
0000
0000
0000
,
0000
0000
0000
0000
,
0400
0300
0200
0000
0301
0000
0010
0000
,
0400
0300
0200
0000
1300
0000
0010
0000
,
0400
0300
0200
0000
0301
0000
0001
0000
,
4000
3000
2000
0000
3001
0000
0010
0000
,
0400
0310
0200
0000
0340
0031
0020
0000
,
0034
0103
0002
0000
4003
3010
2000
0000
,
3000
0010
0010
0000
0100
0000
1000
0100
0000
0010
0001
0010
0000
0100
0000
1000
,
0100
1000
0100
0000
0010
0001
0000
0100
0001
0010
0000
0100
1000
0100
1000
0001
,
0010
0100
1000
0000
0001
0100
1000
0000
,
0001
0010
0100
0000
1000
0010
0001
0000
,
0010
0100
0001
0000
0001
0100
1000
0000
,
0001
0000
0010
0000
1000
0000
0000
0000
0001
1000
0001
1000
0001
0100
0001
0100
,
0010
0000
0100
0000
0001
0000
0000
0000
0010
0000
0000
0001
0100
0000
0010
0000
,
0000
1000
0000
0000
1000
0000
0000
0000
0100
0000
0000
0000
0001
0000
0000
0000
,
0010
0001
0100
0010
,
1000
0000
0000
0000
0001
0000
0000
0000
0100
0000
0000
0000
0100
0000
0000
0010
,
0100
1000
0001
0100
,
0001
0010
0001
0001
,
1000
0100
1000
0100
,
1000
0000
0000
0000
0010
0000
0000
0000
1000
0001
1000
0001
1000
0010
0100
0001
,
0100
0010
0100
0010
0100
0000
0000
0000
,
0001
0000
0100
0010
0000
0000
0000
0000
,
1000
0001
1000
0001
1000
0100
1000
0100
,
2000
3100
2000
3100
,
0020
0130
0020
0130
,
0020
0130
0020
0130
,
0001
0100
0001
0100
0010
1000
0010
1000
,
0010
0000
0100
0000
0001
0000
0100
0000
0010
0000
1000
0001
1000
0000
0100
0000
,
1000
0010
1000
0010
1000
0010
0100
0010
,
0200
0301
0200
0301
,
1000
0010
1000
0010
1000
0001
1000
0001
,
2000
3010
2000
3010
,
0020
0000
0130
0000
0100
0001
0100
0000
,
0020
0130
0002
1003
,
0010
0100
0001
1000
0001
0000
1000
0010
,
0100
0010
0100
0010
0100
0001
0100
0001
,
0010
0100
0010
0100
0010
0000
0000
0000
,
1000
0000
0010
0100
0000
0000
0000
0000
,
0001
1000
0001
1000
0001
0010
0001
0010
,
0002
0013
0002
0013
,
0200
0310
0200
0310
,
0200
0310
0200
0310
,
1000
0010
1000
0010
0100
0001
0100
0001
,
0100
0010
0110
0000
0100
0000
0110
0000
,
0001
0100
0001
0100
0001
0100
0010
0100
,
0020
1030
0020
1030
,
0001
0100
0001
0100
0001
1000
0001
1000
,
0002
0103
0002
0103
,
0200
0000
0310
0000
0010
1000
0010
0000
,
0200
0310
2000
3001
,
0100
0010
1000
0001
1000
0000
0001
0100
,
0010
0100
0010
0100
0010
1000
0010
1000
,
0200
0000
0300
0000
;

//---------------dance-single - ----------------
#NOTEDATA:;
#CHARTNAME:;
#STEPSTYPE:dance-single;
#DESCRIPTION:;
#CHARTSTYLE:;
#DIFFICULTY:Medium;
#METER:9;
#RADARVALUES:0.316043,0.428226,0.357872,0.479874,0.000000,272.000000,228.000000,44.000000,59.000000,0.000000,0.000000,0.000000,0.000000,0.000000,0.316043,0.428226,0.357872,0.479874,0.000000,272.000000,228.000000,44.000000,59.000000,0.000000,0.000000,0.000000,0.000000,0.000000;
#CREDIT:Benro;
#NOTES:
0000
0000
0000
0000
,
0000
0000
0000
0000
,
0000
0000
0000
0000
,
0000
0000
0000
0000
,
0000
0000
0000
0000
,
0000
0000
0000
0000
,
1000
0001
1000
0001
,
0100
0010
0100
0010
,
1000
0100
1000
0100
,
0010
0001
0010
0001
,
2000
3020
2030
3020
,
0230
0302
0203
0302
,
2003
3200
2300
3200
,
0320
0032
0023
0032
,
1003
1010
0010
0110
,
0100
0101
0001
1001
,
1000
0001
0100
0000
0001
1000
0100
0000
,
1000
0001
0010
0000
0001
1000
0010
0000
,
1000
0101
0010
1100
,
0010
0101
0010
1100
,
0001
0010
0100
0000
1000
0100
0010
0000
,
0001
0100
0010
0000
1000
0010
0100
0000
,
0002
1000
0103
0101
,
2000
0001
3100
1100
,
0002
0010
1003
0011
,
2000
0010
3001
1010
,
0001
0000
1000
0100
0010
0000
0000
0000
,
0001
0000
1000
0001
0000
0000
0000
0000
,
1000
0010
1000
0010
1000
0000
0000
0000
,
0002
0103
0020
1030
,
0002
0023
0230
2300
,
3020
0230
0302
2003
,
3200
0000
0320
0000
0032
0000
2000
0003
,
3020
0230
0302
2003
,
3001
0000
0100
0000
0010
1000
0010
0000
,
0101
0101
1100
1100
,
0001
0000
1000
0000
0100
1000
0100
0000
,
1100
1100
0011
0011
,
1001
0110
1001
0110
,
1001
0110
1001
0110
,
0001
0100
0001
0100
0001
0000
1000
0000
,
0020
0130
0002
1003
,
1000
0000
0001
0100
0001
0000
0000
0000
,
1000
0000
0010
0100
0000
0000
0000
0000
,
0001
0000
0100
0000
0010
1000
0010
0000
,
0200
0301
2000
3100
,
2000
3002
0203
0320
,
2030
3002
0023
0230
,
2300
3020
0230
0302
,
2003
3200
0320
0032
,
1003
0000
0010
0000
0100
0001
1000
0000
,
0101
0101
1100
1100
,
0001
0000
1000
0000
0001
1000
0010
0000
,
1010
1010
0011
0011
,
1001
0110
1001
0110
,
1001
0110
1001
0110
,
0001
0100
0001
0100
0001
0000
1000
0000
,
0010
0100
0010
0000
1000
0100
0010
0001
,
2000
0000
3000
0000
;

//---------------dance-single - ----------------
#NOTEDATA:;
#CHARTNAME:;
#STEPSTYPE:dance-single;
#DESCRIPTION:;
#CHARTSTYLE:;
#DIFFICULTY:Easy;
#METER:5;
#RADARVALUES:0.195203,0.237904,0.016267,0.040667,0.000000,168.000000,166.000000,2.000000,5.000000,0.000000,0.000000,0.000000,0.000000,0.000000,0.195203,0.237904,0.016267,0.040667,0.000000,168.000000,166.000000,2.000000,5.000000,0.000000,0.000000,0.000000,0.000000,0.000000;
#CREDIT:Benro;
#NOTES:
// measure 0
0000
0000
0000
0000
,  // measure 1
0000
0000
0000
0000
,  // measure 2
0000
0000
0000
0000
,  // measure 3
0000
0000
0000
0000
,  // measure 4
0000
0000
0000
0000
,  // measure 5
0000
0000
0000
0000
,  // measure 6
0001
0000
0001
0000
,  // measure 7
1000
0000
1000
0000
,  // measure 8
0010
0000
0010
0000
,  // measure 9
0100
0000
0100
0000
,  // measure 10
0001
0001
0001
0000
,  // measure 11
1000
1000
1000
0000
,  // measure 12
0010
0010
0010
0000
,  // measure 13
0100
0100
0100
0000
,  // measure 14
1001
0001
0001
1000
,  // measure 15
0010
0010
0010
0100
,  // measure 16
0001
0001
0001
0010
,  // measure 17
0100
0100
0200
0300
,  // measure 18
1000
1000
1000
0010
,  // measure 19
0100
0100
0100
0001
,  // measure 20
1000
1000
1000
0001
,  // measure 21
1000
1000
0020
0030
,  // measure 22
0100
0001
0010
0100
,  // measure 23
1000
0010
0100
0010
,  // measure 24
1000
0001
0010
0100
,  // measure 25
1000
0010
0200
0000
,  // measure 26
0301
0000
0000
0000
,  // measure 27
1000
0010
1000
0000
,  // measure 28
0001
0000
0000
0000
,  // measure 29
1000
0100
1000
0100
,  // measure 30
0010
0010
0001
0001
,  // measure 31
1000
1000
0010
0010
,  // measure 32
0100
0100
0001
0001
,  // measure 33
1000
1000
0001
0001
,  // measure 34
0100
0000
0000
0000
,  // measure 35
0001
1000
0001
1000
,  // measure 36
0100
0000
0000
0000
,  // measure 37
1000
0001
1000
0001
,  // measure 38
0100
0100
0010
0010
,  // measure 39
1000
1000
0001
0001
,  // measure 40
1000
0000
0100
0000
,  // measure 41
0010
0001
1000
0000
,  // measure 42
0001
0100
0001
0000
,  // measure 43
1000
0010
0100
0000
,  // measure 44
0010
1000
0001
0000
,  // measure 45
1000
0100
1000
0100
,  // measure 46
0010
0010
0001
0001
,  // measure 47
1000
1000
0010
0010
,  // measure 48
0100
0100
0001
0001
,  // measure 49
1000
1000
0001
0001
,  // measure 50
0100
0000
0000
0000
,  // measure 51
0001
1000
0001
1000
,  // measure 52
0100
0000
0000
0000
,  // measure 53
1000
0001
1000
0001
,  // measure 54
0100
0100
0010
0010
,  // measure 55
1000
1000
0001
0001
,  // measure 56
1000
0000
0100
0000
,  // measure 57
0010
0001
1000
0000
,  // measure 58
2002
0000
3003
0000
;

//---------------dance-single - ----------------
#NOTEDATA:;
#CHARTNAME:;
#STEPSTYPE:dance-single;
#DESCRIPTION:;
#CHARTSTYLE:;
#DIFFICULTY:Beginner;
#METER:2;
#RADARVALUES:0.087144,0.165109,0.024400,0.000000,0.000000,75.000000,72.000000,3.000000,0.000000,0.000000,0.000000,0.000000,0.000000,0.000000,0.087144,0.165109,0.024400,0.000000,0.000000,75.000000,72.000000,3.000000,0.000000,0.000000,0.000000,0.000000,0.000000,0.000000;
#CREDIT:Benro;
#NOTES:
// measure 0
0000
0000
0000
0000
,  // measure 1
0000
0000
0000
0000
,  // measure 2
0000
0000
0000
0000
,  // measure 3
0000
0000
0000
0000
,  // measure 4
0000
0000
0000
0000
,  // measure 5
0000
0000
0000
0000
,  // measure 6
1000
0000
0000
0000
,  // measure 7
0010
0000
0000
0000
,  // measure 8
0100
0000
0000
0000
,  // measure 9
0001
0000
0000
0000
,  // measure 10
1000
0000
1000
0000
,  // measure 11
1000
0000
0000
0000
,  // measure 12
0001
0000
0001
0000
,  // measure 13
0001
0000
0000
0000
,  // measure 14
0100
0100
0000
0000
,  // measure 15
0010
0010
0000
0000
,  // measure 16
1000
0000
0000
0000
,  // measure 17
0001
0000
0000
0000
,  // measure 18
0000
1000
0000
1000
,  // measure 19
0000
1000
0000
0000
,  // measure 20
0000
0001
0000
0001
,  // measure 21
0000
0001
0000
0000
,  // measure 22
0100
0000
0100
0000
,  // measure 23
0100
0000
0000
0000
,  // measure 24
0010
0000
0010
0000
,  // measure 25
0010
0000
0000
0000
,  // measure 26
1000
0000
0000
0000
,  // measure 27
0001
0000
0000
0000
,  // measure 28
0100
0000
0000
0000
,  // measure 29
0001
0000
0000
0000
,  // measure 30
1000
0000
0000
0000
,  // measure 31
1000
0000
0000
0000
,  // measure 32
0010
0000
0000
0000
,  // measure 33
0010
0000
0000
0000
,  // measure 34
1001
0000
0000
0000
,  // measure 35
0001
0001
0001
0001
,  // measure 36
0000
0000
0000
0000
,  // measure 37
1000
1000
1000
0000
,  // measure 38
1000
0000
0000
0000
,  // measure 39
0010
0000
0000
0000
,  // measure 40
0100
0000
0000
0000
,  // measure 41
0001
0000
0000
0000
,  // measure 42
1000
0000
0000
0000
,  // measure 43
0001
0000
0000
0000
,  // measure 44
0100
0000
0000
0000
,  // measure 45
0100
0000
0000
0000
,  // measure 46
0010
0000
0000
0000
,  // measure 47
0010
0000
0000
0000
,  // measure 48
1000
0000
0000
0000
,  // measure 49
0001
0000
0000
0000
,  // measure 50
1001
0000
0000
0000
,  // measure 51
0001
0001
0001
0001
,  // measure 52
0000
0000
0000
0000
,  // measure 53
1000
1000
1000
0000
,  // measure 54
1000
0000
0000
0000
,  // measure 55
0010
0000
0000
0000
,  // measure 56
0100
0100
0100
0000
,  // measure 57
0100
0000
0100
0000
,  // measure 58
1001
0000
0000
0000
;
