#TITLE:Haunted Hookup;
#SUBTITLE:;
#ARTIST:Value Select;
#TITLETRANSLIT:;
#SUBTITLETRANSLIT:;
#ARTISTTRANSLIT:;
#GENRE:;
#CREDIT:MrTwinkles;
#BANNER:Haunted Hookup [MrTwinkles].png;
#BACKGROUND:Haunted Hookup [MrTwinkles]-bg.png;
#LYRICSPATH:;
#CDTITLE:;
#MUSIC:Haunted Hookup [MrTwinkles].ogg;
#OFFSET:0.203000;
#SAMPLESTART:18.431999;
#SAMPLELENGTH:12.720000;
#SELECTABLE:YES;
#BPMS:0.000000=112.424004
;
#STOPS:
;
#BGCHANGES:2.430=Haunted Hookup [MrTwinkles].avi=1.000=0=0=0=StretchNoLoop====,
99999=-nosongbg-=1.000=0=0=0 // don't automatically add -songbackground-
;
#KEYSOUNDS:;
#ATTACKS:;

//---------------lights-cabinet - SMLightsBuilder----------------
#NOTES:
     lights-cabinet:
     SMLightsBuilder:
     Easy:
     1:
     1.044313,1.025016,1.509714,1.231609,0.695263,552.000000,293.000000,114.000000,93.000000,0.000000,159.000000,1.044313,1.025016,1.509714,1.231609,0.695263,552.000000,293.000000,114.000000,93.000000,0.000000,159.000000:
// measure 0
000000
000000
000000
000000
000000
000000
000000
000000
000000
000000
000000
000000
000111
001000
000100
000000
,  // measure 1
001011
000000
000100
000000
100011
000000
001000
010000
000000
000000
000100
000000
010011
000100
010000
000000
,  // measure 2
100011
000000
000100
000000
001011
000000
010000
000100
100011
000000
001000
000000
100011
000000
101011
000000
,  // measure 3
100011
001000
000000
010000
000111
000000
010111
000000
000111
000000
000000
100000
100011
010000
001000
000100
,  // measure 4
010011
001000
010000
000100
100011
000100
010000
001000
100011
000000
000000
000000
010111
000000
100000
010000
,  // measure 5
000000
011011
000000
000000
110011
000000
000100
001000
000000
000000
000000
010000
001011
000000
001000
010000
,  // measure 6
000000
000000
100000
001000
010011
000100
100000
000000
101011
000000
000000
000000
010011
001000
000100
000000
,  // measure 7
001011
010000
100000
000000
010011
001000
000100
000000
101011
000000
000000
000000
000222
001000
000000
001000
,  // measure 8
020300
100000
000000
100000
032000
010000
000000
010000
103033
000000
000000
000000
000111
001000
000000
001000
,  // measure 9
000111
000000
100000
000100
100011
010000
000000
010000
100011
000000
010111
000000
100011
010000
000000
001000
,  // measure 10
000000
110011
000000
000000
000111
001000
000100
100000
010011
000000
002122
000000
013033
100000
000100
000000
,  // measure 11
010011
000000
000100
000000
100011
000100
001000
000000
020022
000000
000000
000000
430000
000000
340000
000000
,  // measure 12
034000
000000
003400
000000
000333
010000
001000
000000
200022
000000
000000
000000
310033
001000
010000
000000
,  // measure 13
000111
010000
000000
000000
101011
000000
001111
000000
010111
000000
000000
000000
100011
000100
010000
100000
,  // measure 14
001011
100000
000100
001000
010011
100000
010000
000000
200222
000000
300333
000000
002022
023000
000000
030200
,  // measure 15
200300
000000
300033
020022
031033
000000
110011
000000
001111
000000
000000
000000
010011
000000
100000
020022
,  // measure 16
000000
030200
000000
020300
000000
230000
000000
302000
003033
011011
000000
000000
100011
001000
010000
000222
,  // measure 17
100000
000000
000333
002022
100000
000000
003033
000222
010000
000333
001000
000000
010011
000000
000000
002022
,  // measure 18
100000
000000
000000
003033
220022
000000
000000
330033
020222
000000
000000
030333
001011
010000
001000
000000
,  // measure 19
100011
000100
100000
000000
200022
000000
001000
000000
000100
000000
300133
000000
001011
100000
001000
000000
,  // measure 20
000111
010000
000100
002022
000000
000000
103033
000000
001011
000000
010000
000000
000111
001000
010000
100000
,  // measure 21
010011
001000
000100
000000
000222
000000
010333
000100
000000
000000
100000
010000
001011
000100
001000
010000
,  // measure 22
100011
100000
010000
000000
100011
010000
000000
010000
100011
000000
000000
000000
000111
010000
000000
010000
,  // measure 23
000111
000000
000100
010000
100011
000000
100000
001000
000111
000000
001111
000000
200022
000000
000000
000000
,  // measure 24
020000
000000
000000
000000
000100
330033
000000
000000
000000
000000
000000
000000
100011
010000
000000
010000
,  // measure 25
100011
000000
000100
100000
000111
001000
000000
001000
000111
000000
101011
000000
000111
001000
000000
010000
,  // measure 26
000000
001111
000000
000000
100011
010000
100000
000100
001011
000000
120022
000000
031033
000100
100000
000000
,  // measure 27
001011
000000
100000
000000
000111
100000
010000
000000
002022
000000
000000
000000
003400
000000
004300
000000
,  // measure 28
043000
000000
430000
000000
300033
001000
010000
000000
000222
000000
000000
000000
001333
010000
001000
000000
,  // measure 29
100011
001000
000000
000000
010111
000000
110011
000000
101011
000000
000000
000000
000111
100000
001000
000100
,  // measure 30
010011
000100
100000
010000
001011
000100
001000
000000
200222
000000
300333
000000
020022
032000
000000
203000
,  // measure 31
300200
000000
000333
002022
013033
000000
001111
000000
110011
000000
002022
000000
020000
000000
003033
000000
,  // measure 32
030100
011011
100111
000000
000000
000000
000000
000000
;

//---------------dance-single - MrTwinkles----------------
#NOTES:
     dance-single:
     :
     Hard:
     13:
     0.612966,0.592877,0.410536,0.569453,0.708506,324.000000,293.000000,31.000000,43.000000,8.000000,1.000000,0.612966,0.592877,0.410536,0.569453,0.708506,324.000000,293.000000,31.000000,43.000000,8.000000,1.000000:
0000
0000
0000
0000
0000
0000
0000
0000
0000
0000
0000
0000
0001
0010
0001
0000
,
0010
0000
0001
0000
1000
0000
0010
0100
0000
0000
0001
0000
0100
0001
0100
0000
,
1000
0000
0001
0000
0010
0000
0100
0001
1000
0000
0010
0000
1000
0000
1010
0000
,
1000
0010
0000
0100
0001
0000
0101
0000
0001
0000
0000
1000
1000
0100
0010
0001
,
0100
0010
0100
0001
1000
0001
0100
0010
1000
0000
0000
0000
0101
0000
1000
0100
,
0000
0110
0000
0000
1100
0000
0001
0010
0000
0000
0000
0100
0010
0000
0010
0100
,
0000
0000
1000
0010
0100
0001
1000
0000
1010
0000
0000
0000
0100
0010
0001
0000
,
0010
0100
1000
0000
0100
0010
0001
0000
1010
0000
0000
0000
0002
0010
0000
0010
,
0203
1000
0000
1000
0320
0100
0000
0100
1030
0000
0000
0000
0001
0010
0000
0010
,
0001
0000
1000
0001
1000
0100
0000
0100
1000
0000
0101
0000
1000
0100
0000
0010
,
0000
1100
0000
0000
0001
0010
0001
1000
0100
0000
0021
0000
0130
1000
0001
0000
,
0100
0000
0001
0000
1000
0001
0010
0000
0200
0000
0000
0000
4300
0000
3400
0000
,
0340
0000
0034
0000
0003
0100
0010
0000
2000
0000
0000
0000
3100
0010
0100
0000
,
0001
0100
0000
0000
1010
0000
0011
0000
0101
0000
0000
0000
1000
0001
0100
1000
,
0010
1000
0001
0010
0100
1000
0100
0000
2002
0000
3003
0000
0020
0230
0000
0302
,
2003
0000
3000
0200
0310
0000
1100
0000
0011
0000
0000
0000
0100
0000
1000
0200
,
0000
0302
0000
0203
0000
2300
0000
3020
0030
0110
0000
0000
1000
0010
0100
0002
,
1000
0000
0003
0020
1000
0000
0030
0002
0100
0003
0010
0000
0100
0000
0000
0020
,
1000
0000
0000
0030
2200
0000
0000
3300
0202
0000
0000
0303
0010
0100
0010
0000
,
1000
0001
1000
0000
2000
0000
0010
0000
0001
0000
3001
0000
0010
1000
0010
0000
,
0001
0100
0001
0020
0000
0000
1030
0000
0010
0000
0100
0000
0001
0010
0100
1000
,
0100
0010
0001
0000
0002
0000
0103
0001
0000
0000
1000
0100
0010
0001
0010
0100
,
1000
1000
0100
0000
1000
0100
0000
0100
1000
0000
0000
0000
0001
0100
0000
0100
,
0001
0000
0001
0100
1000
0000
1000
0010
0001
0000
0011
0000
2000
0000
0000
0000
,
0200
0000
0000
0000
0000
0000
0000
0000
0001
0000
3300
0000
0000
0000
0000
MMMM
0000
0000
0000
0000
0000
0000
0000
0000
1000
0000
0100
0000
0000
0000
0100
0000
,
1000
0000
0001
1000
0001
0010
0000
0010
0001
0000
1010
0000
0001
0010
0000
0100
,
0000
0011
0000
0000
1000
0100
1000
0001
0010
0000
1200
0000
0310
0001
1000
0000
,
0010
0000
1000
0000
0001
1000
0100
0000
0020
0000
0000
0000
0034
0000
0043
0000
,
0430
0000
4300
0000
3000
0010
0100
0000
0002
0000
0000
0000
0013
0100
0010
0000
,
1000
0010
0000
0000
0101
0000
1100
0000
1010
0000
0000
0000
0001
1000
0010
0001
,
0100
0001
1000
0100
0010
0001
0010
0000
2002
0000
3003
0000
0200
0320
0000
2030
,
3002
0000
0003
0020
0130
0000
0011
0000
1100
0000
0020
0000
0200
0000
0030
0000
,
0301
0110
1001
0000
0000
0000
0000
0000
,
0000
0000
0000
0000
,
0000
0000
0000
0000
0000
0000
0000
MMMM
0000
0000
0000
0000
0000
0000
0000
0000
;

//---------------dance-single - ----------------
#NOTES:
     dance-single:
     :
     Medium:
     9:
     0.438914,0.469799,0.105945,0.105945,0.000000,232.000000,224.000000,8.000000,8.000000,0.000000,0.000000,0.438914,0.469799,0.105945,0.105945,0.000000,232.000000,224.000000,8.000000,8.000000,0.000000,0.000000:
0000
0000
0000
0000
0000
0000
1000
0100
,
1000
0000
0001
0100
0001
0000
1000
0010
,
0100
0001
0010
0100
1000
0000
0001
0010
,
0001
0000
1000
0010
1000
0000
0001
1000
,
0010
0100
0001
1000
0001
0000
1000
0100
,
0010
0000
0001
1000
0010
0000
1000
0010
,
0100
0000
0001
1000
0100
0000
1000
0001
,
0010
0000
0100
1000
0010
0000
1000
0010
,
0100
0000
0001
1000
0001
0000
1000
0100
,
0010
0100
0001
0100
0010
0100
1000
0010
,
1000
0010
0100
0001
0100
0001
1000
0010
,
0100
0010
0001
0010
0100
0010
1000
0100
,
1000
0100
0010
0001
2000
0000
3001
0100
,
0010
1000
0100
0100
0200
0000
1300
0010
,
0100
0001
1000
0010
1002
0000
0103
0010
,
0100
0001
0010
0100
1000
0010
0100
0100
,
0010
0010
1000
0001
1001
0000
0001
1000
,
0010
0000
0100
0001
1000
0000
0010
1000
,
0001
0000
0100
0100
0100
0100
0001
0010
,
0100
1000
0010
0100
0002
0000
1003
0010
,
0100
0001
1000
0100
2000
0000
3001
0010
,
0100
1000
0010
0100
0001
1000
0001
0100
,
0010
1000
0100
0010
0001
0000
1000
0010
,
0100
0001
1000
0010
1000
0000
0001
0010
,
0001
1000
0100
0010
0001
0000
1000
0100
,
0010
0100
0001
0100
0010
0100
1000
0010
,
1000
0010
0100
0001
0100
0001
1000
0010
,
0100
0010
0001
0010
0100
0010
1000
0100
,
1000
0100
0010
0001
2000
0000
3001
1000
,
0010
0100
0001
1000
0200
0000
0310
0001
,
1000
0010
0100
0001
2001
0000
3001
1000
,
0010
0100
0001
0010
0100
1000
1100
1100
,
0110
0011
1001
0000
0000
0000
0000
0000
;

//---------------dance-single - ----------------
#NOTES:
     dance-single:
     :
     Easy:
     5:
     0.251619,0.256254,0.000000,0.000000,0.000000,133.000000,133.000000,0.000000,0.000000,0.000000,0.000000,0.251619,0.256254,0.000000,0.000000,0.000000,133.000000,133.000000,0.000000,0.000000,0.000000,0.000000:
// measure 0
0000
0000
0000
0001
,  // measure 1
1000
0010
0010
1000
,  // measure 2
0001
0100
0100
0001
,  // measure 3
0010
0100
0100
1000
,  // measure 4
0010
0100
0100
0001
,  // measure 5
1000
0010
0010
1000
,  // measure 6
0001
0100
0100
0001
,  // measure 7
0010
0100
1000
0010
,  // measure 8
0100
0001
0000
1000
,  // measure 9
0100
1000
0010
0100
,  // measure 10
0001
0000
1000
0100
1000
0000
0001
0000
,  // measure 11
1000
0010
0100
0001
,  // measure 12
1000
0000
0001
0100
0001
0000
1000
0000
,  // measure 13
1000
0001
0001
1000
,  // measure 14
0100
0000
0010
0010
0010
0000
0010
0000
,  // measure 15
0001
1000
0010
0100
,  // measure 16
0001
1000
0000
0001
,  // measure 17
1000
0010
0010
0100
,  // measure 18
0001
0000
1000
0100
1000
0100
1000
0000
,  // measure 19
1000
0010
0100
0001
,  // measure 20
0001
1000
0000
0001
,  // measure 21
1000
0010
0100
0001
,  // measure 22
1000
0100
0100
1000
,  // measure 23
0010
0100
0001
1000
,  // measure 24
0001
1000
0000
0001
,  // measure 25
0100
0010
0010
1000
,  // measure 26
0001
0000
1000
0100
1000
0000
0100
0000
,  // measure 27
1000
0010
0010
0100
,  // measure 28
0001
0000
1000
0001
1000
0000
0001
0000
,  // measure 29
0001
1000
0001
0100
,  // measure 30
0010
0000
1000
1000
1000
0000
1000
0000
,  // measure 31
0010
0000
0100
0000
0001
0000
1000
0001
,  // measure 32
1000
0001
1000
0000
0000
0000
0000
0000
;

//---------------dance-single - ----------------
#NOTES:
     dance-single:
     :
     Beginner:
     1:
     0.085134,0.106773,0.000000,0.000000,0.000000,45.000000,45.000000,0.000000,0.000000,0.000000,0.000000,0.085134,0.106773,0.000000,0.000000,0.000000,45.000000,45.000000,0.000000,0.000000,0.000000,0.000000:
// measure 0
0000
0000
0000
1000
,  // measure 1
0000
0000
0000
0001
,  // measure 2
0000
0000
0000
0100
,  // measure 3
0000
0000
0000
0010
,  // measure 4
0000
0010
0000
0010
,  // measure 5
0000
0000
0000
1000
,  // measure 6
0000
0000
0000
0001
,  // measure 7
0000
0000
0000
1000
,  // measure 8
0000
0000
0000
0010
,  // measure 9
0000
0010
0000
0010
,  // measure 10
0000
0000
0000
1000
,  // measure 11
0000
1000
0000
1000
,  // measure 12
0000
0000
0000
0001
,  // measure 13
0000
0001
0000
0001
,  // measure 14
0000
0000
0000
0100
,  // measure 15
0000
0100
0000
0100
,  // measure 16
0000
0000
0000
0001
,  // measure 17
0000
0000
0000
1000
,  // measure 18
0000
0010
0010
0010
,  // measure 19
0000
0000
0000
1000
,  // measure 20
0000
0000
0000
0001
,  // measure 21
0000
0000
0000
1000
,  // measure 22
0000
0000
0000
0010
,  // measure 23
0000
0000
0000
1000
,  // measure 24
0000
0000
0000
0001
,  // measure 25
0001
0000
0000
1000
,  // measure 26
0000
1000
0000
1000
,  // measure 27
1000
0000
0000
0001
,  // measure 28
0000
0000
0000
0100
,  // measure 29
0100
0000
0000
0100
,  // measure 30
0000
0000
0000
0010
,  // measure 31
0000
0000
0000
0010
,  // measure 32
0010
0010
0000
0000
;
