#TITLE:Happy Halloween;
#SUBTITLE:;
#ARTIST:Junky (feat. Kemonone Rou);
#TITLETRANSLIT:;
#SUBTITLETRANSLIT:;
#ARTISTTRANSLIT:;
#GENRE:;
#CREDIT:;
#BANNER:Happy Halloween [Pruz].png;
#BACKGROUND:Happy Halloween [Pruz]-bg.png;
#LYRICSPATH:;
#CDTITLE:;
#MUSIC:Happy Halloween [Pruz].ogg;
#OFFSET:-0.019000;
#SAMPLESTART:12.019000;
#SAMPLELENGTH:15.750000;
#SELECTABLE:YES;
#BPMS:0.000000=120.000000
;
#STOPS:
;
#BGCHANGES:6.000=Happy Halloween [Pruz].avi=1.000=1=0=1===CrossFade==,
167.000=Happy Halloween [Pruz].avi=0.800=0=0=1=====,
167.500=Happy Halloween [Pruz].avi=1.000=0=0=1=====,
99999=-nosongbg-=1.000=0=0=0 // don't automatically add -songbackground-
;
#KEYSOUNDS:;
#ATTACKS:;

//---------------dance-single - Pruz----------------
#NOTES:
     dance-single:
     Pruz:
     Beginner:
     3:
     0.140361,0.211342,0.070742,0.400871,0.000000,125.000000,116.000000,9.000000,51.000000,0.000000,0.000000,0.140361,0.211342,0.070742,0.400871,0.000000,125.000000,116.000000,9.000000,51.000000,0.000000,0.000000:
0000
0000
0000
0000
,
0000
0000
0000
0000
,
0000
0000
0000
0000
,
0000
0000
0000
0000
,
0000
0000
0000
0000
,
0000
0000
0200
0300
,
0001
1000
0002
0003
,
1000
1000
2000
3000
,
0100
1000
0200
0300
,
0010
0010
0020
0030
,
0001
0100
0002
0003
,
0010
0010
0020
0030
,
0100
1000
0200
0300
,
1000
1000
2000
3001
,
1001
0000
0100
0000
,
2000
0000
0000
3000
,
0001
0000
0010
0000
,
0002
0000
0003
0000
,
1000
0000
0100
0000
,
2000
0000
0000
3000
,
0001
0000
0010
0000
,
0002
0000
0000
0003
,
1001
0000
0000
0000
,
0000
0000
0000
0000
0002
0003
0002
0000
,
1003
0000
0000
0000
,
0000
0000
0000
0000
2000
0000
3002
0003
,
1001
0000
0100
0000
,
0002
0000
0000
0003
,
1000
0000
0100
0000
,
2000
0000
3000
0000
,
1001
0000
1000
0000
,
0020
0000
0000
0030
,
0100
0000
0001
0000
,
2000
0000
0000
0000
0000
0000
0000
3000
,
0002
0000
0003
0000
,
2000
0000
3000
0000
,
0002
0000
0000
0003
,
2000
0000
0000
3000
,
0020
0000
0030
0000
,
0200
0000
0300
0000
,
0020
0000
0000
0030
,
1000
0000
0000
0000
0002
0000
2003
3000
,
1001
0001
0002
0003
,
0010
0010
0200
0310
,
0001
0001
0002
0003
,
1000
1000
1000
0000
,
0110
0010
0020
0030
,
0100
0100
0020
0130
,
0001
0001
0002
0003
,
1000
1000
1000
0000
,
0110
0010
0020
0030
,
2000
3000
0020
0030
,
1000
1000
2000
3000
,
0200
0300
2000
3000
,
1001
0001
0002
0003
,
0200
0300
0002
0003
,
0100
0100
0200
0300
,
0020
0000
2030
3000
,
0200
0000
2300
3000
,
0002
0000
0003
0110
;

//---------------dance-single - Pruz----------------
#NOTES:
     dance-single:
     Pruz:
     Easy:
     4:
     0.204366,0.234824,0.102183,0.361570,0.000000,182.000000,169.000000,13.000000,46.000000,0.000000,0.000000,0.204366,0.234824,0.102183,0.361570,0.000000,182.000000,169.000000,13.000000,46.000000,0.000000,0.000000:
0000
0000
0000
0000
,
0000
0000
0000
0000
,
0000
0000
0000
0000
,
0000
0000
0000
0000
,
0000
0000
0000
0000
,
0000
0000
0000
0000
2000
0000
3002
0003
,
1001
0100
0010
0001
,
1000
0000
0100
0000
0020
0030
0020
0030
,
0010
0100
1000
0001
,
0010
0000
0100
0000
2000
0000
3002
0003
,
1001
0100
0010
0001
,
1000
0000
0100
0000
0020
0030
0020
0030
,
0010
0100
1000
0001
,
0010
0000
0100
0000
2000
0000
3002
0003
,
1001
0000
0001
0000
,
1000
1000
0100
0100
,
1000
0000
0001
0000
,
0010
0010
0001
0001
,
1001
0000
0001
0000
,
1000
1000
0010
0010
,
1000
0000
0001
0000
,
0020
0030
0010
0000
0002
0003
0001
0000
,
1001
0000
0100
0000
,
0010
0000
0000
0000
0002
0003
0002
0003
,
0010
0000
0100
0000
,
1000
0000
0000
0000
0002
0003
0002
0003
,
1001
0000
0001
0000
,
1000
1000
0100
0100
,
0010
0000
0001
0000
,
0010
0010
0001
0000
,
1001
0000
0001
0000
,
1000
1000
0010
0100
,
0001
0000
1000
0000
,
0100
0000
0010
0000
,
0100
0000
0100
0000
,
1000
0000
1000
0000
,
0001
0000
0001
0000
,
0010
0100
0010
0001
,
1000
0000
1000
0000
,
0100
0000
0100
0000
,
0010
0000
0010
0002
,
1003
0000
0000
0000
0020
0000
2030
3000
,
1001
1000
0002
0003
,
1000
0100
2000
3000
,
0001
0010
0002
0003
,
2000
0000
3020
0000
0230
0000
0302
0003
,
1001
0100
2000
3000
,
0010
0100
0020
0030
,
1000
0001
2000
3000
,
0001
0010
0002
0003
,
0101
0100
0020
0030
,
1000
0000
0010
0000
0200
0300
0200
0300
,
0001
0010
0200
0300
,
1000
0000
0010
0000
0200
0000
0302
0003
,
1001
0001
2000
3000
,
0100
0000
0010
0000
0200
0300
0200
0300
,
1000
0001
2000
3000
,
0010
0200
0302
2003
,
3100
0000
0020
0000
0032
0000
2003
3000
,
1001
0000
0010
1001
;

//---------------dance-single - Pruz----------------
#NOTES:
     dance-single:
     Pruz:
     Medium:
     6:
     0.312163,0.328753,0.110043,0.660258,0.000000,278.000000,264.000000,14.000000,84.000000,0.000000,0.000000,0.312163,0.328753,0.110043,0.660258,0.000000,278.000000,264.000000,14.000000,84.000000,0.000000,0.000000:
0000
0000
0000
0000
,
0000
0000
0000
0000
,
0000
0000
0000
0000
,
0000
0000
0000
0000
,
0000
0000
0000
0000
,
0000
0000
0000
0000
0001
0001
0002
0003
,
2001
0000
3100
0000
0020
0130
1000
0000
,
0001
0000
0100
0000
0020
0130
0002
0000
,
1003
0000
0001
0000
0020
0031
1000
0000
,
0010
0000
0100
0000
0020
2030
3002
0003
,
2001
0000
3100
0000
0020
0130
1000
0000
,
0001
0000
0100
0000
0020
0230
0302
0000
,
1003
0000
0100
0000
0020
0031
0010
0000
,
0100
0000
1000
0000
0002
0203
0302
0003
,
1001
0000
0000
0100
1000
0000
0000
0001
,
0200
0320
2030
3020
,
0130
0000
0000
0001
1000
0000
0000
0100
,
2000
3020
0130
0001
,
1001
0000
0000
0001
0010
0000
0000
0001
,
2000
3200
0320
2030
,
3010
0000
0000
0100
1000
0000
0000
0001
,
0200
0000
2300
0000
3200
0000
0320
0030
,
0110
0000
0000
0001
0010
0100
0000
0010
,
0100
1000
0000
0100
0020
0031
2000
0000
,
3010
0000
0000
0100
0001
0010
0000
0100
,
1000
0010
0000
0100
0002
1003
0020
0030
,
0110
0000
0010
1000
0001
0000
0010
0001
,
2000
3200
0320
0032
,
0103
0000
0001
1000
0100
0000
1000
0001
,
0200
0302
0013
0100
,
1001
0000
0001
0100
0010
0000
1000
0100
,
0020
0230
2300
3002
,
0103
0000
0000
0001
1000
0000
0000
0100
,
0010
0000
0000
0001
1000
0000
0000
0100
,
0010
0000
0000
0001
1000
0000
0000
0010
,
0100
0000
0000
0001
0010
0000
0000
0100
,
1000
0000
0000
0100
0010
0000
0002
0000
,
1003
0010
0100
0001
2000
0000
3002
0003
,
0010
0000
0010
0100
1000
0000
1000
0100
,
0010
0000
0010
0001
1000
0000
1000
0010
,
0100
0000
0100
0001
0100
0000
0010
0000
,
1000
0100
1000
0001
0020
0230
0320
0030
,
0012
0000
1003
0000
0002
0103
0001
0000
,
1000
0000
0001
0000
0020
0031
0010
0000
,
0100
0000
1000
0000
0020
0130
0010
0000
,
2000
0000
3002
0000
0023
0130
0010
0000
,
0012
0000
1003
0000
0020
0031
0010
0000
,
1000
0000
0100
0000
0002
0103
0010
0000
,
0100
0000
1000
0000
0002
1003
0001
0000
,
0200
0000
0320
0000
2030
3200
0320
0030
,
1001
0000
0010
0000
0002
0103
0010
0000
,
1000
0100
0020
0032
,
1003
0000
0001
0000
0200
0310
1000
0000
,
0100
0000
1000
0000
0002
0000
0023
0030
,
0110
0100
1000
1000
0002
0000
0103
0000
,
0010
1000
0200
0320
,
0031
0001
0010
0010
0200
0000
1300
0000
,
0001
0000
0100
0000
0020
2030
3002
0003
,
0011
0000
0100
0000
2000
3002
0203
0300
,
0110
0000
0100
1001
;

//---------------dance-single - Pruz----------------
#NOTES:
     dance-single:
     Pruz:
     Hard:
     11:
     0.461507,0.516613,0.062882,0.455892,0.133624,411.000000,403.000000,8.000000,58.000000,0.000000,0.000000,0.461507,0.516613,0.062882,0.455892,0.133624,411.000000,403.000000,8.000000,58.000000,0.000000,0.000000:
0000
0000
0000
0000
,
0000
0000
0000
0000
,
0000
0000
0000
0000
,
0000
0000
0000
0000
,
0000
0000
0000
0000
,
0000
0000
0000
0000
1000
1000
0002
0003
,
0011
0000
0001
0000
1000
0000
0010
0000
0100
0001
1000
0000
0010
0000
1000
0001
,
0010
0000
0001
0000
0100
0001
1000
0000
0002
0000
1003
0000
2000
0000
3100
0000
,
0010
0000
0010
0000
0001
0000
0010
0000
0100
1000
0001
0000
0100
0000
0001
1000
,
0010
1000
0100
0010
0002
2003
3200
1300
,
1001
0000
0001
0000
1000
0000
0010
0000
0100
0001
1000
0000
0010
0000
1000
0001
,
0010
0000
0001
0000
0100
0001
1000
0000
0002
0000
1003
0000
2000
0000
3100
0000
,
0010
0100
0000
1000
0001
0000
0010
0000
0100
1000
0001
0000
0100
0001
0000
1000
,
0010
0100
0001
0000
0100
0000
0010
0000
2000
0000
3200
0000
0320
0000
0031
1000
,
0100
0000
1000
0001
0100
0000
0001
1000
,
0100
0100
1000
0001
0100
0010
0100
0001
,
1000
0000
0001
0100
1000
0000
0100
0001
,
0010
1000
0010
0100
0010
0001
1000
0010
,
0100
0000
0001
1000
0100
0000
1000
0001
,
0100
0100
0001
0100
0010
1000
0001
0010
,
0100
0000
1000
0001
0100
0000
0001
1000
,
0010
0000
0100
0000
0000
0001
0000
0000
1000
0000
0100
0000
0010
0000
0001
0000
,
0000
0000
0001
0000
1000
0000
0100
0000
0010
0001
1000
0000
0100
0000
1000
0001
,
0100
0000
0001
0000
0010
0001
1000
0000
0002
0000
1003
0000
2000
0000
3010
0000
,
0100
0000
0100
0000
0001
0000
0100
0000
0010
1000
0001
0000
0010
0000
0001
1000
,
0100
1000
0010
0100
0002
2003
3020
1030
,
0001
0000
1000
0100
0010
0000
0001
0100
,
0010
0010
1000
0010
0100
0001
0010
0100
,
1000
0000
0001
0100
0010
0000
1000
0010
,
0100
0100
0001
1000
0100
0010
0001
1000
,
0001
0000
0010
0100
1000
0000
0001
0100
,
0010
0010
1000
0100
0001
0100
0010
0001
,
1000
0000
0100
0000
0000
1000
0000
0000
0001
0000
0100
0000
0001
0000
0000
0000
,
1000
1000
0100
0100
0001
0001
0010
0010
,
0100
0000
0000
0001
0010
0000
0000
1000
,
0010
0000
0000
0001
1000
0000
0000
0001
,
0100
0000
0000
1000
0100
0000
0020
0000
,
0130
0001
0100
0010
2000
0000
3002
0003
,
0011
0000
0000
0010
1000
0000
0000
0010
,
0001
0000
0000
0001
1000
0000
0000
0001
,
0100
0000
0000
1000
0100
0000
0002
0000
,
1003
0100
0010
0001
1000
0001
0020
0030
,
0110
0000
0010
0000
0001
0000
1000
0000
0002
0000
1003
0020
0000
0030
0100
0000
,
0001
0000
0100
0000
0010
0000
1000
0000
0001
0000
0010
0002
0000
0003
1000
0000
,
0010
0000
1000
0000
0001
0000
0010
0000
0002
0000
0103
0020
0000
0030
1000
0000
,
0001
0010
1000
0010
0002
1003
0002
1003
,
1200
0000
0310
0000
0001
0000
0100
0000
0002
0000
1003
0200
0000
0300
1000
0000
,
0010
0000
1000
0000
0001
0000
0010
0000
0100
0000
1000
0020
0000
0030
0100
0000
,
0001
0000
1000
0000
0100
0000
0010
0000
0002
0000
1003
0200
0000
0300
1000
0000
,
0010
0100
0001
1000
0002
0023
0230
0300
,
1100
0000
1000
0000
0001
0000
1000
0000
0020
0000
0130
0002
0000
0003
1000
0000
,
0001
0010
0001
0001
0200
1300
0200
0301
,
1000
0000
0100
0000
1000
0000
0010
0000
0200
0000
1300
0200
0000
0300
0001
0000
,
0010
0010
0100
1000
0200
0320
0032
0003
,
0101
0000
0001
0000
1000
0000
0001
0000
0020
0000
0130
2000
0000
3000
0001
0000
,
1000
0010
1000
1000
0200
0301
0200
1300
,
0001
0000
0100
0000
0001
0000
0010
0000
0200
0000
0310
0002
0000
0003
1000
0000
,
0010
0000
0010
0000
0100
0000
0001
0000
0200
0000
0320
0000
2030
0000
3001
0010
,
0100
0000
0010
0000
0001
0000
1000
0000
0200
0000
0320
0000
0032
0000
0103
0010
,
1000
0000
0001
0110
;
