#VERSION:0.83;
#TITLE:Halloween Zombie Sharks;
#SUBTITLE:;
#ARTIST:Pinkfong;
#TITLETRANSLIT:;
#SUBTITLETRANSLIT:;
#ARTISTTRANSLIT:;
#GENRE:Kids;
#ORIGIN:;
#CREDIT:Jenro;
#BANNER:Halloween Zombie Sharks [Jenro].png;
#BACKGROUND:Halloween Zombie Sharks [Jenro]-bg.png;
#PREVIEWVID:;
#JACKET:Halloween Zombie Sharks [Jenro]-jacket.jpg;
#CDIMAGE:;
#DISCIMAGE:;
#LYRICSPATH:;
#CDTITLE:;
#MUSIC:Halloween Zombie Sharks [Jenro].ogg;
#OFFSET:-0.038000;
#SAMPLESTART:71.759003;
#SAMPLELENGTH:14.942000;
#SELECTABLE:YES;
#BPMS:0.000=130.000,
16.000=65.000,
18.000=98.000,
95.000=49.000,
101.000=120.000,
117.000=120.882,
132.000=140.000,
140.000=108.000,
141.000=140.000,
148.000=117.000,
149.000=160.000,
169.000=162.781,
171.000=169.626,
173.000=175.943,
174.000=182.357,
176.000=185.880,
179.000=92.940;
#STOPS:;
#DELAYS:;
#WARPS:;
#TIMESIGNATURES:0.000=4=4;
#TICKCOUNTS:0.000=4;
#COMBOS:0.000=1;
#SPEEDS:0.000=1.000=0.000=0;
#SCROLLS:0.000=1.000;
#FAKES:;
#LABELS:0.000=Song Start;
#BGCHANGES:0.000=Halloween Zombie Sharks [Jenro].avi=1.000=0=0=0=StretchNoLoop====,
99999=-nosongbg-=1.000=0=0=0 // don't automatically add -songbackground-
;
#KEYSOUNDS:;
#ATTACKS:
;

//---------------dance-single - Jenro Jupitel (2020)----------------
#NOTEDATA:;
#CHARTNAME:Jenro Jupitel (2020);
#STEPSTYPE:dance-single;
#DESCRIPTION:Jenro Jupitel (2020);
#CHARTSTYLE:;
#DIFFICULTY:Easy;
#METER:2;
#RADARVALUES:0.165698,0.245709,0.075440,0.066010,0.000000,123.000000,115.000000,8.000000,7.000000,0.000000,0.000000,0.000000,0.000000,0.000000,0.165698,0.245709,0.075440,0.066010,0.000000,123.000000,115.000000,8.000000,7.000000,0.000000,0.000000,0.000000,0.000000,0.000000;
#CREDIT:Jenro Jupitel (2020);
#NOTES:
// measure 0
0000
0000
0000
0000
,  // measure 1
0000
0000
0000
0000
,  // measure 2
0000
0000
0000
0000
,  // measure 3
0000
0000
0000
0000
,  // measure 4
0000
0000
0000
0001
,  // measure 5
1000
1000
0000
0001
,  // measure 6
1000
1000
0000
0001
,  // measure 7
1000
1000
0000
0010
,  // measure 8
1001
0000
0000
0100
,  // measure 9
0001
0001
0000
0100
,  // measure 10
1000
1000
0000
0100
,  // measure 11
0001
0001
0000
0010
,  // measure 12
1001
0000
0000
1000
,  // measure 13
0010
1000
0100
0001
,  // measure 14
0010
0001
0100
0010
,  // measure 15
0010
0100
0100
0010
,  // measure 16
1001
0000
0000
2000
,  // measure 17
3002
0203
0000
0302
,  // measure 18
2003
3200
0000
0310
,  // measure 19
0001
1000
0100
0020
,  // measure 20
0000
0030
0000
0001
,  // measure 21
0001
1000
0010
1000
,  // measure 22
1000
0001
0100
0010
,  // measure 23
0110
0010
0110
0100
,  // measure 24
0001
1000
0010
0100
,  // measure 25
0000
0010
0000
0010
,  // measure 26
0000
0010
0000
0010
,  // measure 27
0000
0100
0000
0100
,  // measure 28
0000
0100
0000
0100
,  // measure 29
0000
1000
0001
1000
,  // measure 30
0000
0001
0000
1000
,  // measure 31
0000
0001
1000
0001
,  // measure 32
0000
1000
0000
1001
,  // measure 33
0000
1000
0001
1000
,  // measure 34
0000
0001
0000
1000
,  // measure 35
0000
0001
1000
0001
,  // measure 36
0000
1000
0000
1001
,  // measure 37
0000
1000
0001
1000
,  // measure 38
0000
0001
0000
1000
,  // measure 39
0000
0001
1000
0001
,  // measure 40
0000
1000
0000
1001
,  // measure 41
0000
0010
0000
0100
,  // measure 42
0000
0001
1000
0010
,  // measure 43
0100
0001
1000
0010
,  // measure 44
0100
0001
1000
0000
,  // measure 45
0000
0000
0000
0000
,  // measure 46
0000
0000
0000
0000
,  // measure 47
0000
0000
0000
0001
0000
0000
0000
0000
;

//---------------dance-single - Jenro Jupitel (2020)----------------
#NOTEDATA:;
#CHARTNAME:Jenro Jupitel (2020);
#STEPSTYPE:dance-single;
#DESCRIPTION:Jenro Jupitel (2020);
#CHARTSTYLE:;
#DIFFICULTY:Medium;
#METER:4;
#RADARVALUES:0.239790,0.335058,0.113160,0.113160,0.000000,178.000000,166.000000,12.000000,12.000000,0.000000,0.000000,0.000000,0.000000,0.000000,0.239790,0.335058,0.113160,0.113160,0.000000,178.000000,166.000000,12.000000,12.000000,0.000000,0.000000,0.000000,0.000000,0.000000;
#CREDIT:Jenro Jupitel (2020);
#NOTES:
0000
0000
0000
0000
,
0000
0000
0000
0000
,
0000
0000
0000
0000
,
0000
0000
0000
0000
,
0000
0000
0010
0001
,
1000
1000
1000
0000
0100
0000
1000
0000
,
0001
0001
0001
0000
0100
0000
0010
0000
,
1000
1000
1000
0000
0100
0000
0001
0000
,
0000
0002
0023
0130
,
0010
0010
0010
0000
0020
0000
0130
0000
,
0010
0010
0010
0000
0200
0000
1300
0000
,
0001
0001
0001
0000
0020
0000
0130
0000
,
0000
0000
1000
1001
,
0100
0100
1000
1001
,
0100
0100
1000
1001
,
0100
0100
1000
1001
,
0000
0020
0032
1003
,
0100
1000
0100
0000
1000
0000
0100
0000
,
0100
1000
0100
0000
0010
0000
0001
0000
,
0010
0001
0010
0000
0100
0000
1000
0000
,
0000
0000
0000
1000
,
1001
1000
1001
0001
,
1001
0000
0001
0000
1001
0000
1000
1000
,
1000
1000
0001
0001
0001
0000
0200
0000
,
0302
2003
3020
0230
,
0000
0301
0100
0001
,
0100
0001
0100
0001
,
0100
1000
0100
1000
,
0100
1000
0100
1000
,
0010
0001
0100
0001
,
0100
0001
0100
0001
,
0100
1000
0100
1000
,
0100
1000
0100
1000
,
0010
0001
0100
0001
,
0100
0001
0100
0001
,
0100
1000
0100
1000
,
0100
1000
0100
1000
,
0010
0001
0100
0001
,
0100
0001
0100
0001
,
0100
1000
0100
1000
,
0100
1000
0100
1000
,
0010
1000
1000
0001
,
0001
0010
1001
0010
,
1001
0010
1001
0010
,
1001
0010
0100
0000
,
0000
0000
0000
0000
,
0000
0000
0000
0000
,
0000
0000
0000
0001
0000
0000
0000
0000
;

//---------------dance-single - Jenro Jupitel (2020)----------------
#NOTEDATA:;
#CHARTNAME:Jenro Jupitel (2020);
#STEPSTYPE:dance-single;
#DESCRIPTION:Jenro Jupitel (2020);
#CHARTSTYLE:;
#DIFFICULTY:Hard;
#METER:11;
#RADARVALUES:0.460721,0.737128,0.301759,0.198029,0.207459,342.000000,310.000000,32.000000,21.000000,12.000000,0.000000,0.000000,0.000000,0.000000,0.460721,0.737128,0.301759,0.198029,0.207459,342.000000,310.000000,32.000000,21.000000,12.000000,0.000000,0.000000,0.000000,0.000000;
#CREDIT:Jenro Jupitel (2020);
#NOTES:
0000
0000
0000
0000
,
0000
0000
0000
0000
,
0000
0000
0000
0000
,
0000
0000
0000
0000
,
0000
0000
0000
0000
0100
0100
1001
0000
,
1000
1000
0100
0000
0100
0100
1001
0000
,
0001
0001
0100
0000
0010
0100
1000
0000
,
0001
0100
0001
0100
0001
0000
0000
0000
0100
0000
0100
0000
1001
0000
0000
0000
,
MMMM
0000
2000
0000
3002
0003
1001
0000
,
0001
0010
0001
1000
0010
0000
0000
0000
2000
0000
3002
0003
1001
0000
0000
0000
,
1000
0010
1000
0001
0010
0000
0000
0000
0010
0000
0100
0000
1000
0000
0000
0000
,
0001
0100
0001
0100
0001
0000
0000
0000
2000
0000
3001
0000
1001
0000
0000
0000
,
MMMM
0000
0000
0000
1000
1000
0101
1000
,
0001
0100
1000
0100
0001
0000
1000
0000
0001
0000
0001
0000
1100
0000
0001
0000
,
1000
0100
0001
0100
1000
0000
0001
0000
0010
0000
0100
0000
1000
0000
0001
0000
,
0001
0100
0001
0100
0001
0000
1000
0000
1100
0000
0001
0000
0101
0000
0000
0000
,
MMMM
0000
0010
1000
0100
0001
0020
0130
,
0010
0100
1000
0100
0010
0000
0001
0000
1000
0000
0020
0000
0130
0000
0001
0000
,
0100
0010
1000
0010
0100
0000
0001
0000
0010
0000
0100
0000
1000
0000
0100
0000
,
0001
0100
0001
0100
0001
0000
0100
0000
1000
0000
0020
0000
0130
0001
1000
0010
,
1000
0001
0100
1000
0010
0000
0100
0000
0010
0000
0001
0000
1000
0100
0010
0001
,
1000
0100
1000
0100
1000
0001
0100
0001
0010
0100
1000
0010
0001
0100
0010
1000
,
0001
0100
0001
0100
0001
0010
0100
1000
0010
0100
0010
0001
0010
1000
0010
1000
,
0001
0100
0001
0100
0001
0000
1000
0000
0010
0000
0001
0000
0200
0000
0000
0000
,
0302
2003
3020
0230
,
0000
0000
0310
0100
0100
1001
2000
3001
,
1001
0000
2000
3001
1001
0000
1000
1000
,
0101
0000
0001
0001
1100
0001
0010
0100
,
1000
0100
0010
1000
0100
0010
0001
0000
,
0000
0000
0010
0100
0100
1001
2000
3001
,
1001
0000
2000
3001
1001
0000
1000
1000
,
0101
0000
0001
0001
1100
0001
0010
0100
,
1000
0100
0010
1000
0100
0010
0001
0000
,
0000
0000
0010
0100
0100
1001
2000
3001
,
1001
0000
2000
3001
1001
0000
1000
1000
,
0101
0000
0001
0001
1100
0001
0010
0100
,
1000
0100
0010
1000
0100
0010
0001
0000
,
0000
0000
0100
0100
1001
1000
2000
3001
,
1001
0000
2000
3001
1001
0000
1000
1000
,
0101
0000
0001
0001
1100
0001
0010
0100
,
1000
0100
0010
1000
0100
0010
0001
0000
,
1001
0000
1000
0100
1000
0001
0010
0001
,
1000
0001
1000
0100
0001
0010
1000
0100
,
0001
0010
1000
0100
0001
0010
1000
0100
,
0001
0010
1000
0000
1001
0000
0000
0000
,
0000
0000
0000
0000
,
0000
0000
0000
0000
,
0000
0000
0000
0001
0000
0000
0000
0000
;

//---------------dance-single - ----------------
#NOTEDATA:;
#CHARTNAME:;
#STEPSTYPE:dance-single;
#DESCRIPTION:;
#CHARTSTYLE:;
#DIFFICULTY:Beginner;
#METER:1;
#RADARVALUES:0.072745,0.125890,0.028290,0.000000,0.000000,54.000000,51.000000,3.000000,0.000000,0.000000,0.000000,0.000000,0.000000,0.000000,0.072745,0.125890,0.028290,0.000000,0.000000,54.000000,51.000000,3.000000,0.000000,0.000000,0.000000,0.000000,0.000000,0.000000;
#CREDIT:Benro;
#NOTES:
// measure 0
0000
0000
0000
0000
,  // measure 1
0000
0000
0000
0000
,  // measure 2
0000
0000
0000
0000
,  // measure 3
0000
0000
0000
0000
,  // measure 4
0000
0000
0000
1000
,  // measure 5
0000
0000
0000
0001
,  // measure 6
0000
0000
0000
0100
,  // measure 7
0000
0000
0000
0010
,  // measure 8
0000
0000
0000
1000
,  // measure 9
0000
0000
0000
0001
,  // measure 10
0000
0000
0000
1000
,  // measure 11
0000
0000
0000
0100
,  // measure 12
0000
0000
0000
1000
,  // measure 13
1000
0000
0000
0001
,  // measure 14
0001
0000
0000
0100
,  // measure 15
0100
0000
0000
0100
,  // measure 16
0000
0000
0000
0010
,  // measure 17
0010
0000
0000
1000
,  // measure 18
1000
0000
0000
0001
,  // measure 19
0001
0000
0000
1001
,  // measure 20
0000
0000
0000
1000
,  // measure 21
0000
0010
0000
1000
,  // measure 22
0000
0000
0000
0001
,  // measure 23
0000
0100
0000
1001
,  // measure 24
0000
0000
0000
0000
,  // measure 25
0000
1000
0000
0000
,  // measure 26
0000
0010
0000
0000
,  // measure 27
0000
0100
0000
0000
,  // measure 28
0000
0001
0000
0000
,  // measure 29
0000
1000
0000
0000
,  // measure 30
0000
0010
0000
0010
,  // measure 31
0000
0010
0000
0000
,  // measure 32
0000
1000
0000
1000
,  // measure 33
0000
1000
0000
0000
,  // measure 34
0000
0001
0000
0000
,  // measure 35
0000
0100
0000
0000
,  // measure 36
0000
0010
0000
0000
,  // measure 37
0000
1000
0000
0000
,  // measure 38
0000
0001
0000
0000
,  // measure 39
0000
0100
0000
0000
,  // measure 40
0000
0010
0000
0010
,  // measure 41
0000
0010
0000
0000
,  // measure 42
0000
1000
0000
0000
,  // measure 43
0000
0001
0000
0000
,  // measure 44
0000
0000
1001
0000
;
